#TITLE:"THE FOUR SEASONS"- SPRING;
#SUBTITLE:;
#ARTIST:SPEED ALL STARS;
#TITLETRANSLIT:;
#SUBTITLETRANSLIT:;
#ARTISTTRANSLIT:;
#GENRE:;
#CREDIT:;
#BANNER:banner.png;
#BACKGROUND:bg.png;
#LYRICSPATH:;
#CDTITLE:cdtitle.png;
#MUSIC:THE FOUR SEASONS - SPRING -1st MOVEMENT.mp3;
#OFFSET:-0.008000;
#SAMPLESTART:12.770024;
#SAMPLELENGTH:8.439992;
#SELECTABLE:YES;
#BPMS:0.000000=178.940094
;
#STOPS:152.000000=0.340000,
179.000000=0.340000,
240.000000=0.320000,
293.000000=0.340000
;
#BGCHANGES:;
#KEYSOUNDS:;
#ATTACKS:;

//---------------dance-single - ----------------
#NOTES:
     dance-single:
     :
     Hard:
     9:
     0.689203,0.647665,0.295922,0.188314,0.255569,538.000000,505.000000,33.000000,21.000000,0.000000,0.000000,0.689203,0.647665,0.295922,0.188314,0.255569,538.000000,505.000000,33.000000,21.000000,0.000000,0.000000:
// measure 0
0000
0000
0000
0000
,  // measure 1
0000
0000
0000
0000
,  // measure 2
0000
0000
0000
0000
0000
0000
0000
0000
0000
0000
0000
0000
0000
0000
0000
0001
,  // measure 3
1000
0000
0000
0000
0000
0000
0000
1000
0100
0000
0000
0000
0000
0000
0000
0001
,  // measure 4
0100
0000
0000
0000
0000
0000
0000
0010
1000
0000
0000
0000
0000
0000
0000
1000
,  // measure 5
0100
0000
0010
0000
0100
0000
1000
0000
0020
0000
0000
0000
0000
0000
0000
0130
,  // measure 6
0001
0010
0100
0010
0001
0200
0000
0310
,  // measure 7
1000
0001
0100
0001
0010
0200
0000
0310
,  // measure 8
0001
0200
0000
0310
1000
0010
0100
0010
,  // measure 9
1000
0000
0000
0000
0000
0000
0000
0001
0100
0000
0001
0000
0010
0000
0100
1000
,  // measure 10
0100
0000
0000
0000
0000
0000
0000
1000
0100
0000
1000
0000
0100
0000
0010
0001
,  // measure 11
0100
0000
0000
0000
0000
0000
0000
0100
0001
0000
0010
0000
0001
0000
0100
0000
,  // measure 12
0010
0000
1000
0000
0010
0000
0100
0001
0010
0000
0001
0000
1000
0000
0100
0010
,  // measure 13
0100
0000
0000
0000
0000
0000
0000
0100
1000
0000
0010
0000
0100
0000
0001
1000
,  // measure 14
0001
0000
0000
0000
0000
0000
0000
0001
0100
0000
0001
0000
0010
0000
0100
0000
,  // measure 15
1000
0100
1000
1000
0100
0100
1000
0001
,  // measure 16
0100
0100
0100
0001
0010
0100
0010
0001
,  // measure 17
1000
1000
1000
0000
1001
0000
0110
0000
,  // measure 18
1000
0001
1000
0001
0100
0100
0001
0001
,  // measure 19
1000
0100
0100
0010
0001
0001
0100
0010
,  // measure 20
0010
1000
0001
0000
0001
0100
0010
1000
,  // measure 21
0200
0000
0000
0000
0000
0000
1300
0000
0100
0000
0010
0001
1000
0000
0010
0000
,  // measure 22
0100
0000
0010
0000
0000
0000
1000
0000
0100
0000
0010
0001
0100
0000
0001
0000
,  // measure 23
0010
0100
0000
1000
0100
0010
0000
0001
,  // measure 24
0100
0000
0001
0000
0100
0000
1000
0000
0100
0000
0000
0000
0101
0000
0000
0001
,  // measure 25
0010
0000
0100
0000
1000
0000
0010
0000
0100
0000
0010
0000
0000
0000
0010
1000
,  // measure 26
0001
0100
0001
0010
0100
1000
0000
1000
,  // measure 27
0100
0000
0010
0000
0000
0000
0001
0100
0001
0000
0010
0000
0001
0000
1000
0000
,  // measure 28
0100
0000
0000
0000
0000
0000
1000
0001
0100
0000
0000
0000
0110
0000
0000
0000
,  // measure 29
1001
0000
1001
0100
,  // measure 30
0010
0100
1001
0000
,  // measure 31
1100
0010
0001
0010
,  // measure 32
0101
0000
1010
0100
,  // measure 33
0001
0100
0011
0000
,  // measure 34
1100
0100
0011
0100
,  // measure 35
1100
0010
0101
0010
,  // measure 36
1001
0010
0110
1000
,  // measure 37
1001
0100
0110
0001
,  // measure 38
1001
0000
1000
0000
0100
0000
0010
0001
0100
0000
0010
0000
1000
0000
0010
0000
,  // measure 39
0000
0000
1000
0000
0010
0000
0100
0001
0010
0000
0100
0000
0010
0000
0001
0000
,  // measure 40
0000
0000
0001
0000
0100
0000
0100
0000
0000
0000
0010
0000
1000
0000
0001
0100
,  // measure 41
0001
0000
0010
0000
0100
0000
0000
0000
0000
0000
1000
0000
0100
0000
0010
0001
,  // measure 42
1000
0000
0001
0000
0100
0000
0010
0000
0000
0000
0010
0000
0100
0000
0001
1000
,  // measure 43
0010
1000
0100
1000
0000
0010
0001
0100
,  // measure 44
0000
0000
0010
0000
1000
0000
0001
0000
0100
0000
0001
1000
0001
0000
0000
0000
,  // measure 45
1000
0100
0001
0100
1000
1000
1000
0000
,  // measure 46
1000
0010
0001
0010
1000
1000
1000
0000
,  // measure 47
1000
0100
0001
0100
1000
0010
0100
0001
,  // measure 48
0100
0001
0010
0100
0010
0001
0001
0000
,  // measure 49
0001
0100
0010
1000
0100
0100
0100
0000
,  // measure 50
1000
0100
0010
0001
0101
0000
1100
0000
,  // measure 51
0001
0100
0010
0010
0020
1000
1030
0000
,  // measure 52
1000
0000
0100
0000
0010
0000
0100
0000
2000
0000
0001
0000
3001
0000
0000
0001
,  // measure 53
1000
0000
0000
1000
0001
0000
0000
0001
0100
0000
0010
0000
0100
0000
1000
0000
,  // measure 54
0100
0001
0010
0100
2000
0010
3010
0000
,  // measure 55
0100
0000
0001
0000
0100
0000
0001
0000
0020
0000
0100
0000
0130
0000
0000
1000
,  // measure 56
0001
0000
0000
1000
0100
0000
0000
0001
0200
0000
0000
0000
0000
0000
0301
0000
,  // measure 57
0100
0010
1000
0010
0100
0020
0000
1030
,  // measure 58
0100
0010
0100
1000
0100
0002
0000
0103
,  // measure 59
1000
0002
0000
0103
0010
1000
0001
0100
,  // measure 60
0110
1000
0001
0100
0010
1000
0010
0200
,  // measure 61
0000
0301
0010
0100
1000
0010
0100
0020
,  // measure 62
0000
1030
0001
0020
0000
0130
1000
0001
,  // measure 63
0100
0000
0001
1000
0002
0000
0000
0000
0000
0000
1003
0001
0100
0000
0000
0000
,  // measure 64
1001
0000
0000
1000
0010
0000
0000
0000
0101
0000
0000
1000
0001
0000
0000
0001
,  // measure 65
0100
0000
0000
0100
0010
0000
0000
0010
1000
0000
0000
1000
0200
0000
0000
0000
,  // measure 66
1300
0000
0000
1000
0100
0000
0000
0010
0001
0000
0000
0001
0100
0000
0000
0100
,  // measure 67
1000
0000
0000
1000
0200
0000
0000
0000
0301
0000
0000
1000
0100
0000
0000
0010
,  // measure 68
0001
0000
0000
0001
0100
0000
0000
0010
1000
0000
0000
0001
2000
0000
0000
0000
,  // measure 69
3001
0101
1000
1100
,  // measure 70
0001
0011
1000
1010
,  // measure 71
1000
1001
0001
1001
,  // measure 72
0100
0110
0010
0110
,  // measure 73
1000
0000
0001
0000
0100
0000
0100
0000
0001
0000
0100
0000
0010
0000
1000
0001
,  // measure 74
0010
0000
0010
0000
0000
0000
0001
0000
0100
0000
0010
0000
1000
0000
0010
0100
,  // measure 75
0010
1000
0000
1000
0001
0100
0000
0100
,  // measure 76
0001
0000
0010
0000
0100
0000
1000
0100
1000
0000
0000
0000
0000
0000
1000
0000
,  // measure 77
0100
0000
0010
0001
0100
0000
0001
0000
0010
0000
0010
0000
0000
0000
0001
0000
,  // measure 78
0100
0000
0010
1000
0010
0000
0100
0000
0010
0000
0010
0000
0000
0000
1000
0000
,  // measure 79
0001
0010
0000
0001
0010
0100
1000
0100
,  // measure 80
2000
3000
0000
0000
;

//---------------dance-single - ----------------
#NOTES:
     dance-single:
     :
     Challenge:
     9:
     0.712262,0.647665,0.098641,0.089673,0.000000,556.000000,545.000000,11.000000,10.000000,0.000000,0.000000,0.712262,0.647665,0.098641,0.089673,0.000000,556.000000,545.000000,11.000000,10.000000,0.000000,0.000000:
0000
0000
0000
0000
,
0000
0000
0000
0000
,
0000
0000
0000
0000
,
0001
1000
0001
0100
0020
0000
0000
0000
,
1030
0100
0010
0100
2000
0000
0000
0000
,
3001
0100
0010
0100
0002
0000
0000
0000
,
1003
0100
0010
0001
1000
0100
0010
0001
,
1000
0001
0100
0010
1000
0001
0100
0010
,
0001
0100
0010
1000
0100
0010
0001
0100
,
0020
0000
0000
0000
1030
0100
0010
0100
,
1000
1000
1000
0010
0100
0001
0010
0001
,
0100
0100
0100
0010
1000
0001
0100
0001
,
0010
0100
1000
0000
1000
0100
0001
0100
,
1000
0010
0100
0001
0010
1000
0010
0001
,
0100
0010
1000
0001
0010
0100
0010
0001
,
0100
0010
0100
0000
0001
0100
0010
0100
,
0001
0001
0001
1000
0100
0010
0100
1000
,
0010
0010
0010
0100
0001
0100
0010
1000
,
0100
0010
0100
0000
0001
1000
0100
1000
,
0001
0001
0001
0100
0010
1000
0001
0010
,
0100
0100
0100
1000
0100
0010
0001
0100
,
0002
0000
0000
0000
1003
0100
0010
0001
,
1000
0100
1000
0000
0001
0010
0100
1000
,
0001
0010
0001
0000
1000
0001
1000
0000
,
0001
1000
0100
0001
0200
0000
0000
0000
,
1300
0010
0100
0001
0010
0001
0100
0000
,
0100
0001
0100
1000
0100
0010
1000
0000
,
0001
1000
0100
0000
0010
0001
0100
0001
,
0020
0000
0000
0000
0130
1000
1100
0000
,
0001
0010
0011
0000
1000
0001
1000
0001
,
1000
0001
0100
0010
0110
0000
0000
0000
,
0001
0010
0001
1000
0100
1000
0010
0100
,
1001
0000
0000
0000
0001
0100
0001
0010
,
0100
1000
0100
0010
0011
0000
0000
0000
,
0001
0100
0001
0010
0100
1000
0100
1000
,
0010
0100
0001
0100
0001
1000
0100
0001
,
0100
1000
0010
0001
0010
1000
0100
0010
,
0001
0100
0001
0010
0100
1000
0010
0100
,
0101
0000
1000
0100
0010
0100
0010
0001
,
0001
0100
0010
1000
0010
0100
0001
1000
,
1000
0100
0010
0001
0010
0100
0100
1000
,
0100
0001
0100
0000
0000
1000
0100
1000
,
0001
0100
0010
0010
1000
0010
0100
0001
,
0010
0100
0010
0001
0100
0010
1000
0010
,
0100
0001
0010
0001
1000
0100
1100
0000
,
1000
0010
0100
0001
1000
1000
1000
0100
,
0010
0100
0010
0001
0100
0100
0100
0010
,
1000
0001
1000
0001
0100
0010
0100
0000
,
0001
0100
0010
1000
0100
0001
0100
1000
,
0010
0100
0001
0010
1000
0010
0001
0100
,
0010
1000
0010
0100
0010
0100
0010
0000
,
1000
0100
1000
0010
0100
0100
0100
0001
,
0010
0001
0100
0001
0010
0010
0010
0100
,
1000
0100
0001
0010
0001
0100
0010
0000
,
1000
0100
1000
0010
0100
0100
0100
0001
,
0010
0001
0100
0010
1000
1000
1000
0001
,
0010
0001
0100
0001
0020
0000
0000
0000
,
0130
1000
0010
0100
0001
0010
0001
0100
,
0010
1000
0100
0010
0100
1000
0001
0100
,
1000
0100
0001
1000
0100
0001
0100
1000
,
0001
0000
0001
0100
0010
0100
0001
1000
,
0100
0010
0100
1000
0001
0100
1000
0001
,
0100
1000
0001
1000
0100
0001
1000
0001
,
0200
0000
0310
0000
1001
0000
0100
0001
,
0100
0000
0010
1000
0010
0000
1000
0100
,
0010
0100
1000
0001
0100
0010
1000
0000
,
1001
0000
0001
0000
1000
0001
0010
0001
,
1000
0010
1000
0000
1001
0000
0001
0000
,
0100
0010
1000
0000
1000
0010
0100
0000
,
0001
0010
0100
0000
0100
0010
0001
0000
,
1000
0100
0010
0000
0010
0100
1000
0000
,
0001
0100
0010
1000
0001
0100
0010
1000
,
0100
0010
0001
0100
1000
0100
0001
1000
,
0100
0001
0100
0000
1000
0100
1000
0001
,
0100
0001
1000
0010
0100
0001
0100
0010
,
1000
0100
0010
0001
0001
0010
0100
1000
,
0010
0100
0001
1000
1001
0000
0010
0000
,
1000
0010
0100
0001
0100
0010
1000
0100
,
0100
1000
0010
0100
0001
0010
0001
0100
,
0010
1000
0010
0100
0001
0010
0001
1000
,
0200
0300
0000
0000
;

//---------------dance-single - ----------------
#NOTES:
     dance-single:
     :
     Easy:
     4:
     0.357412,0.395795,0.161412,0.412497,0.000000,279.000000,261.000000,18.000000,46.000000,0.000000,0.000000,0.357412,0.395795,0.161412,0.412497,0.000000,279.000000,261.000000,18.000000,46.000000,0.000000,0.000000:
0000
0000
0000
0000
,
0000
0000
0000
0000
,
0000
0000
0000
0000
,
2000
0000
3001
0000
,
0002
0000
1003
0000
,
1000
0100
0010
0001
,
0100
0001
0010
0100
,
1000
0010
0100
0010
,
1000
0001
0100
0010
,
2000
0000
3001
0100
,
0001
0010
0100
1000
,
0010
0100
0001
1000
,
0002
0000
1003
0010
,
0100
0100
0001
0010
,
0100
0100
1000
0010
,
2000
0000
3001
0100
,
0001
1001
1000
0100
,
1000
1001
1000
0010
,
0100
0100
0001
0010
,
0001
0110
1000
0010
,
1000
0110
0001
1000
,
0001
0000
1000
0100
,
0010
0001
1000
0100
,
0010
0001
1000
0001
,
0100
0010
0200
0000
,
0301
0100
0010
1000
,
0001
0100
0010
1000
,
0001
1000
0001
0010
,
0200
0000
1300
0000
,
0110
0000
0001
0100
,
0010
1000
1001
0000
,
1000
0100
0010
0001
,
1001
0000
0001
0100
,
0010
1000
1001
0000
,
2000
3000
0020
0030
,
0200
0300
0002
0003
,
2000
3000
0100
0100
,
0200
0300
0110
0000
,
1001
1000
0010
1000
,
0010
0100
0001
0100
,
0001
1000
0100
0001
,
0100
1000
0000
1000
,
0010
0100
0001
0010
,
0100
0010
0001
1000
,
0010
0001
0010
1000
,
1000
0100
0010
0110
,
0001
0100
0010
0110
,
1000
0001
1000
0000
,
0001
0010
0100
0110
,
1000
0010
0100
0110
,
1000
0001
1000
0000
,
0002
0103
1000
1000
,
2000
3100
0001
0001
,
2000
3002
0203
0000
,
0320
1030
1000
0001
,
0020
0031
0001
1000
,
1000
0010
0100
0000
,
0200
0302
1003
0000
,
2000
3200
0310
0000
,
0002
0003
1000
0010
,
1010
0020
2030
3001
,
0000
0002
0023
0130
,
0000
2000
3000
0001
,
0100
0101
0000
2000
,
3000
0020
0030
0100
,
0001
0100
0010
0200
,
0300
0001
0010
0100
,
1000
2000
3000
0010
,
1000
0010
0100
0002
,
0003
2000
3000
0002
,
0003
2000
3000
0002
,
0003
0200
0300
0020
,
0030
0200
0300
0020
,
0030
1001
1000
0100
,
1000
0010
0100
0001
,
0010
0001
0100
0010
,
1000
0001
0200
0000
,
0310
1000
0010
0100
,
0001
0010
0100
1000
,
0100
0010
0001
0100
,
0220
0330
0000
0000
;

//---------------dance-single - ----------------
#NOTES:
     dance-single:
     :
     Medium:
     7:
     0.480392,0.539721,0.260052,0.394562,0.000000,375.000000,346.000000,29.000000,44.000000,0.000000,0.000000,0.480392,0.539721,0.260052,0.394562,0.000000,375.000000,346.000000,29.000000,44.000000,0.000000,0.000000:
0000
0000
0000
0000
,
0000
0000
0000
0000
,
0000
0000
0000
0000
,
0002
0100
0103
0000
,
2000
0010
3010
0000
,
1000
0100
0020
0000
,
0031
0000
0100
0000
0010
1000
1000
0000
,
0100
0000
0010
0000
0001
0100
0100
0000
,
0001
0000
1000
0000
0001
1000
0001
1000
,
0001
0000
2000
3010
,
0100
0001
0100
0000
0002
0000
0013
0000
,
0100
1000
0100
0000
1000
0100
0010
0001
,
1000
0010
0200
0310
,
1000
0001
1000
0000
0200
0000
0310
0000
,
0001
1000
0001
0000
0001
0010
0100
1000
,
0010
0100
0002
2003
,
3010
1010
2000
3002
,
0013
0011
0001
0010
,
0100
1000
0100
0000
0200
0000
2300
0000
,
3001
0101
0020
0230
,
0301
0000
1010
0000
1000
0000
0100
0010
,
0001
0000
0000
0000
1000
0000
0001
0100
,
0001
0000
1000
0000
0010
0000
0100
1000
,
0100
0000
0010
0000
0001
1000
0001
0000
,
0100
0010
1001
0000
,
0001
0000
0100
0010
1000
0000
0001
0000
,
0001
0000
0010
0100
1000
0000
0100
0000
,
0010
0000
0001
0000
0100
0001
0100
0000
,
0110
0000
2000
3100
,
1100
0000
0010
0001
,
0100
0010
0210
0000
,
0301
0100
0010
1000
,
2100
0000
3100
0010
,
0001
0100
0210
0000
,
0320
1030
2000
3100
,
0200
0310
0020
0031
,
0002
1003
2000
3001
,
0200
0310
0120
0000
,
1030
0000
1000
0000
0100
0010
0001
0000
,
0100
0000
0001
0000
0100
0010
1000
0000
,
0010
0000
0100
0000
0001
0000
1000
0100
,
0010
0001
0100
0000
0000
0000
0001
0000
,
0100
0000
0010
1000
0010
0000
0100
0000
,
0001
0000
0010
0100
1000
0000
0010
0000
,
1000
0000
0001
0100
0001
0100
0001
0000
,
2010
3100
1000
0001
,
0012
0103
0001
1000
,
1000
0100
0010
0001
1000
0000
0001
0000
,
2100
3010
0001
1000
,
0102
0013
1000
0001
,
1000
0010
0100
0001
1000
0000
0100
0000
,
1000
0100
0010
0000
0001
0000
1000
0000
,
0001
0100
0010
0000
1000
0000
0001
0000
,
0100
0010
0100
0000
0001
1000
0001
0000
,
1000
0100
1000
0000
0001
0000
0010
0000
,
0001
0100
0001
0000
1000
0000
0010
0000
,
0100
0001
0100
0001
0200
0000
0000
0000
,
0310
1000
0100
1100
,
0010
0001
0100
0101
,
0001
0000
1000
0000
0001
1000
0001
1000
,
0001
0001
0010
0100
,
1100
1000
0010
0100
,
0101
0000
1000
0000
0010
0000
1000
0100
,
1000
0100
1000
0000
0000
0000
1001
0000
,
0100
1001
0000
0001
,
0100
0010
1000
2100
,
0000
3010
0100
0001
,
0010
0012
0000
0103
,
1000
0100
0001
0120
,
0000
2030
3100
0002
,
0103
0200
0310
0020
,
0130
0001
0010
0100
,
1000
0000
0010
0000
0100
0000
0100
0010
,
0100
0010
0100
0000
0012
0000
0103
0000
,
1000
0010
1000
0000
2010
0000
3100
0000
,
0001
0010
0001
0000
1000
0001
0100
0000
,
0001
1000
0100
0010
0001
0000
1001
0000
,
2100
0000
3010
0000
0100
0001
0100
0000
,
0102
0000
0013
0000
0100
1000
0100
0000
,
1000
0100
0010
0000
0001
0100
0001
1000
,
0200
0300
0000
0000
;
