#TITLE:THAT DON'T IMPRESS ME MUCH;
#SUBTITLE:(Club Mix);
#ARTIST:JACKIE 'O';
#TITLETRANSLIT:;
#SUBTITLETRANSLIT:;
#ARTISTTRANSLIT:;
#CREDIT:;
#BANNER:THAT DON'T IMPRESS ME MUCH (Club Mix)-bn.png;
#BACKGROUND:THAT DON'T IMPRESS ME MUCH (Club Mix)-bg.png;
#LYRICSPATH:;
#CDTITLE:./CDTITLES/DANCEMANIA 16.PNG;
#MUSIC:THAT DON'T IMPRESS ME MUCH (Club Mix).mp3;
#OFFSET:-0.009;
#SAMPLESTART:35.675;
#SAMPLELENGTH:14.982;
#SELECTABLE:YES;
#BPMS:0.000=131.990;
#STOPS:;
#BGCHANGES:;

//---------------dance-single - ----------------
#NOTES:
     dance-single:
     :
     Medium:
     5:
     0.333,0.404,0.267,0.000,0.000: // measure 1
0000
0000
0000
0000
,  // measure 2
0000
0000
0000
0000
,  // measure 3
0000
0000
0000
0000
,  // measure 4
0000
0000
0000
0000
,  // measure 5
1000
0000
0000
1001
0000
0000
0000
1000
,  // measure 6
0000
0001
0000
1000
0010
0000
0000
0000
,  // measure 7
1000
0100
0010
0100
,  // measure 8
1000
0100
0010
0100
1000
0000
0001
0000
,  // measure 9
0100
0010
0100
0001
,  // measure 10
0010
0100
0010
0001
0100
0000
0010
0000
,  // measure 11
1000
0100
0001
0100
,  // measure 12
1000
0010
0100
0001
0010
0000
0100
0000
,  // measure 13
1000
0001
0100
0010
,  // measure 14
1000
0010
0100
0001
1000
0000
1001
0000
,  // measure 15
1000
0000
0010
0000
,  // measure 16
0100
0001
0101
1010
,  // measure 17
0001
0000
0010
0000
,  // measure 18
0100
1000
1010
0101
,  // measure 19
1001
0000
0100
0000
,  // measure 20
0010
0000
1000
0000
,  // measure 21
0001
0000
1000
0000
0010
0000
1000
0100
,  // measure 22
0010
0000
0010
0100
1000
0000
0001
0100
,  // measure 23
0010
1000
0010
0100
,  // measure 24
0001
0100
0010
0000
0010
1000
0001
0000
,  // measure 25
0110
0000
1001
0000
0100
0010
0100
0000
,  // measure 26
0001
1000
0001
1000
0001
0000
0000
0000
,  // measure 27
1100
0000
0101
0000
1000
0001
0100
0000
,  // measure 28
0001
1000
0100
0000
1001
0000
0000
0000
,  // measure 29
1000
0000
0001
0000
0100
0000
0001
0010
,  // measure 30
0100
0000
0100
0010
0001
0000
1000
0010
,  // measure 31
0100
0001
0100
0010
,  // measure 32
1000
0010
0100
0000
0100
0001
1000
0000
,  // measure 33
0110
0000
1001
0000
0010
0100
0010
0000
,  // measure 34
1000
0001
1000
0001
1000
0000
0000
0000
,  // measure 35
0011
0000
1010
0000
0001
1000
0010
0000
,  // measure 36
1000
0001
0010
0000
1001
0000
0100
0000
,  // measure 37
1001
0000
0100
0000
,  // measure 38
1000
0000
0010
0000
,  // measure 39
0100
0001
0100
0010
1000
0000
1001
0000
,  // measure 40
0001
0000
0010
0000
,  // measure 41
0100
1000
0100
0010
0001
0000
0000
0000
,  // measure 42
1001
0000
0010
0000
,  // measure 43
1000
0000
0000
0110
0000
0000
0000
0010
,  // measure 44
0000
0001
0000
0010
0000
0001
0000
0100
,  // measure 45
0010
0000
0000
1001
0000
0000
0000
0001
,  // measure 46
0000
0100
0000
0001
0000
0010
0000
0100
,  // measure 47
0100
0000
0000
0110
0000
0000
0000
0001
,  // measure 48
0000
1000
0000
0001
0000
0100
0000
0001
,  // measure 49
1000
0000
0000
1001
0000
0000
0000
0010
,  // measure 50
0000
0100
0000
1000
0000
0100
0000
0010
,  // measure 51
1001
0000
0000
1000
0001
0000
0000
0000
;

//---------------dance-single - ----------------
#NOTES:
     dance-single:
     :
     Easy:
     3:
     0.236,0.243,0.064,0.000,0.000: // measure 1
0000
0000
0000
0000
,  // measure 2
0000
0000
0000
0000
,  // measure 3
0000
0000
0000
0000
,  // measure 4
0000
0000
0000
0000
,  // measure 5
0001
0100
0001
0010
,  // measure 6
0100
0000
1000
0000
,  // measure 7
0001
0100
0001
0100
,  // measure 8
0010
1000
0010
0000
,  // measure 9
1000
0100
1000
0100
,  // measure 10
0010
0001
0010
0000
,  // measure 11
0001
0100
0010
1000
,  // measure 12
0100
0010
0001
0000
,  // measure 13
0001
0100
1000
0100
,  // measure 14
0001
0010
1000
0000
,  // measure 15
1001
0000
0100
0000
,  // measure 16
0010
0000
0100
0000
,  // measure 17
1001
0000
0010
0000
,  // measure 18
0100
0000
0010
0000
,  // measure 19
1000
1000
0100
0000
,  // measure 20
0010
0010
0001
0000
,  // measure 21
0100
0010
1001
0000
,  // measure 22
1000
1000
1000
0000
,  // measure 23
0100
0010
0001
0000
,  // measure 24
0001
0100
0010
0000
,  // measure 25
0001
0100
0010
1000
,  // measure 26
0100
0010
0100
0000
,  // measure 27
1000
0100
0001
0100
,  // measure 28
1000
0010
0001
0010
,  // measure 29
1000
0100
0110
0000
,  // measure 30
0001
0100
0001
1000
,  // measure 31
0001
0010
0100
0000
,  // measure 32
1000
0100
0010
0001
,  // measure 33
1000
0001
0100
1001
,  // measure 34
1000
0001
0010
0000
,  // measure 35
0100
1000
0100
0010
,  // measure 36
0001
0000
1000
0000
,  // measure 37
0010
1000
0001
0000
,  // measure 38
1000
0000
0010
0000
,  // measure 39
0100
0001
0010
0100
,  // measure 40
0100
0000
0010
0001
,  // measure 41
0100
0001
1000
0000
,  // measure 42
0001
0000
0001
0000
,  // measure 43
0010
0100
1000
0100
,  // measure 44
0010
0010
0010
0000
,  // measure 45
0001
0100
0001
0010
,  // measure 46
0100
0100
0100
0000
,  // measure 47
1000
0100
0001
0100
,  // measure 48
1000
0010
0010
0000
,  // measure 49
0100
0001
0100
0010
,  // measure 50
1000
0100
0010
0000
,  // measure 51
1001
0000
0100
0000
;

//---------------dance-single - ----------------
#NOTES:
     dance-single:
     :
     Hard:
     7:
     0.421,0.404,0.160,0.000,0.000: // measure 1
0000
0000
0000
0000
,  // measure 2
0000
0000
0000
0000
,  // measure 3
0000
0000
0000
0000
,  // measure 4
0000
0000
0000
0000
,  // measure 5
0101
0000
0000
1000
0100
1000
0000
1000
,  // measure 6
0000
0001
0000
0100
0010
0000
1001
0000
,  // measure 7
1000
0100
0010
0000
0010
0100
1000
0000
,  // measure 8
1000
0001
0100
0010
0100
0000
0101
0000
,  // measure 9
0001
0100
1000
0000
1000
0100
0001
0000
,  // measure 10
0001
0010
0100
1000
0010
0000
0110
0000
,  // measure 11
1000
0100
0010
0001
0000
0001
0100
0010
,  // measure 12
0000
1000
0010
0100
0010
0000
1001
0000
,  // measure 13
1000
0010
0100
0001
0000
0001
0100
0010
,  // measure 14
0000
1000
0001
0010
0100
0000
1100
0000
,  // measure 15
1001
0010
0100
0001
,  // measure 16
1000
0100
0010
0000
0001
0100
0010
0000
,  // measure 17
1001
0010
0100
1000
,  // measure 18
1000
0001
0100
0000
0001
1000
0100
0000
,  // measure 19
1001
1000
0001
0100
,  // measure 20
0010
1000
0001
0000
,  // measure 21
0100
0000
0001
0000
0101
0000
1000
0010
,  // measure 22
0000
0100
0000
0001
1000
0000
1000
0100
,  // measure 23
0000
0010
0010
0010
0000
0100
0100
0100
,  // measure 24
0000
1000
0001
0100
0000
0100
0001
0000
,  // measure 25
0010
0100
1000
0000
1000
0001
0100
0000
,  // measure 26
0100
0001
0010
0100
1000
0100
0001
0000
,  // measure 27
0100
1000
0001
0100
0010
1000
0001
0000
,  // measure 28
0010
0100
1000
0100
0010
0000
0011
0000
,  // measure 29
0010
0000
1000
0000
1010
0000
0001
0100
,  // measure 30
0000
0010
0000
1000
0001
0000
0001
0010
,  // measure 31
0000
0100
0100
0100
0000
0010
0010
0010
,  // measure 32
0000
0001
1000
0010
0000
0010
1000
0000
,  // measure 33
0100
0010
0001
0000
0001
1000
0010
0000
,  // measure 34
0010
1000
0100
0010
0001
0010
1000
0000
,  // measure 35
0010
0001
1000
0010
0100
0001
1000
0000
,  // measure 36
0100
0010
0001
0010
0100
0000
1100
0000
,  // measure 37
0000
1000
0000
0001
0000
0100
0000
0010
,  // measure 38
1000
0100
0010
0000
0010
0100
1000
0000
,  // measure 39
1000
0001
0100
0001
0010
0100
0010
0000
,  // measure 40
0001
0100
0010
0000
0010
1000
0100
0000
,  // measure 41
0100
1000
0010
0100
0001
1000
0001
0000
,  // measure 42
0101
0000
1000
0000
,  // measure 43
0001
0100
0010
0000
1000
0001
0100
0010
,  // measure 44
0000
1000
0000
0100
0000
0010
0001
0100
,  // measure 45
0001
0010
0100
0000
0100
1000
0010
0000
,  // measure 46
0100
0001
1000
0100
0000
1000
0000
0001
,  // measure 47
0100
0100
0100
0000
0010
0010
0010
1000
,  // measure 48
0000
0001
0000
0100
0000
0100
0010
1000
,  // measure 49
0100
0100
0100
0000
0010
0010
0010
0001
,  // measure 50
0000
0100
0000
0001
0000
1000
0001
0100
,  // measure 51
0110
0000
0000
0100
0100
0000
0000
0000
;
