#TITLE:STRETCH;
#SUBTITLE:(Initial Talk Remix);
#ARTIST:LOUISE;
#TITLETRANSLIT:;
#SUBTITLETRANSLIT:;
#ARTISTTRANSLIT:;
#GENRE:;
#CREDIT:;
#BANNER:banner.png;
#BACKGROUND:BG.png;
#LYRICSPATH:;
#CDTITLE:;
#MUSIC:STRETCH (Initial Talk Remix).mp3;
#OFFSET:-1.134000;
#SAMPLESTART:61.969059;
#SAMPLELENGTH:16.480003;
#SELECTABLE:YES;
#DISPLAYBPM:108.000000;
#BPMS:0.000000=108.000000
;
#STOPS:
;
#BGCHANGES:;
#KEYSOUNDS:;
#ATTACKS:;

//---------------dance-single - ----------------
#NOTES:
     dance-single:
     :
     Hard:
     8:
     0.476378,0.533255,0.431204,0.124570,0.191646,348.000000,303.000000,45.000000,13.000000,0.000000,0.000000,0.476378,0.533255,0.431204,0.124570,0.191646,348.000000,303.000000,45.000000,13.000000,0.000000,0.000000:
0000
0000
0000
0000
,
0000
0000
0000
0000
,
1010
0000
0000
0000
0000
0000
1001
0000
0000
0101
0000
0000
1000
0000
0001
0000
,
1001
0000
0000
0000
,
0110
0000
0000
0000
0001
0000
0000
0100
0010
0000
0000
0000
1001
0000
0000
0000
,
1000
0001
0100
0000
0010
1000
0001
0010
,
0100
0000
0000
0000
1000
0000
0000
0100
0010
0000
0000
0000
0011
0000
0000
0000
,
0001
1000
0010
0000
0100
0001
0010
0100
,
1000
0000
0000
0000
0100
0000
0000
1000
0010
0000
0000
0000
0101
0000
0000
0000
,
1000
0001
0010
0000
0100
1000
0100
0001
,
0100
0000
1000
0000
0010
0000
0001
0001
,
1000
0000
0001
1000
0000
0001
1000
0000
0001
1000
0000
0001
1000
0000
0001
1000
,
0001
0100
0010
0000
1001
0000
0110
0000
,
1000
0100
0010
0001
0100
0010
1000
0000
,
0001
0010
0100
0000
1100
0000
0101
0000
,
1000
0001
0010
0001
1000
0010
0100
0000
,
0100
0001
0010
0000
0100
1000
0010
0000
,
1000
0001
0010
0001
1000
0010
0100
0000
,
1000
0001
0110
0000
0001
1000
0110
0000
,
0100
0000
0010
0100
0000
0010
0100
0000
0010
0100
0000
0010
0100
0000
0010
0100
,
0001
0000
1000
0100
0010
0100
1000
0000
,
1000
0100
1100
0000
0001
0100
0101
0000
,
1000
0100
0010
0001
0010
0100
0010
0000
,
0001
0010
0011
0000
1000
0010
1010
0000
,
1000
0100
0001
0100
1000
0010
0001
0000
,
0010
1000
1001
0000
0100
0001
2001
0000
,
3001
0100
0120
0000
1030
0100
2100
0000
,
3001
0100
0001
0010
1001
1100
1001
0101
,
2001
3100
1002
0103
,
0001
0000
1000
0000
0001
0000
0100
0010
1000
0000
0100
0000
1000
0000
0001
0000
,
0102
0013
2100
3010
,
1000
0000
0100
0000
1000
0000
0010
0100
0001
0000
1000
0000
0001
0000
0100
0000
,
0210
0000
0000
0000
0301
0000
0000
0000
0120
0000
0000
0000
1030
0000
0000
1000
,
0100
0000
1000
0000
0001
0000
1000
0001
0100
0000
0010
0000
1000
0000
0001
0000
,
0012
0000
1003
0000
2100
0000
3001
0001
,
1000
0000
0001
0100
0000
0010
1000
0000
0001
1000
0002
0000
0000
0000
0000
0000
,
0103
0000
0001
0010
0100
0000
1000
0001
0100
0000
0010
0000
1000
0000
0000
0000
,
0001
0100
0001
0010
0110
0110
0110
0000
,
0100
0000
0001
1000
0010
0000
0100
0001
0010
0000
0100
0000
1000
0000
0000
0000
,
1000
0100
0010
0100
0101
0101
0101
0000
,
0001
0000
0100
0001
1000
0000
1000
0001
0010
0000
0100
1000
0001
0000
1000
0000
,
0001
0000
0100
0001
1000
0000
1000
0100
0010
0000
0010
0001
1000
0000
0001
0000
,
0100
0000
1000
0001
0010
0000
0010
0001
1000
0000
1000
0010
0000
0000
1000
0000
,
0001
0000
1000
0001
0000
1000
0001
0000
1000
0001
0000
1000
0001
0000
1000
0001
,
0100
0001
1001
0000
0100
1000
1001
0000
,
1001
0000
0000
0000
0000
0000
1100
0000
0000
0101
0000
0000
1000
0000
0002
0000
,
0000
0000
0000
0003
0000
0000
0000
0000
;

//---------------dance-single - ----------------
#NOTES:
     dance-single:
     :
     Medium:
     5:
     0.332643,0.354545,0.459951,0.268305,0.014373,243.000000,195.000000,48.000000,28.000000,0.000000,0.000000,0.332643,0.354545,0.459951,0.268305,0.014373,243.000000,195.000000,48.000000,28.000000,0.000000,0.000000:
// measure 0
0000
0000
0000
0000
,  // measure 1
0000
0000
0000
0000
,  // measure 2
1001
0000
0000
0000
0000
0000
1000
0000
0000
0001
0000
0000
0000
0000
0100
0000
,  // measure 3
0020
2030
3002
0203
,  // measure 4
0310
1000
0001
1001
,  // measure 5
0100
0001
0010
1001
,  // measure 6
1000
0100
1000
1001
,  // measure 7
0001
0100
0001
1001
,  // measure 8
1000
1100
0001
0101
,  // measure 9
1000
1010
0001
0011
,  // measure 10
2000
0000
0000
0000
3000
0000
0002
0000
0000
0200
0003
0000
0000
0000
0000
0000
,  // measure 11
0310
1001
0110
1001
,  // measure 12
1000
0000
0100
0000
0001
0100
0010
0000
,  // measure 13
1000
0010
0100
0000
0001
1000
0100
0000
,  // measure 14
0001
0000
0010
0000
0100
1000
0001
0000
,  // measure 15
0100
0001
1000
0000
1000
0001
0010
0000
,  // measure 16
0001
0000
0010
0000
0100
1000
0001
0000
,  // measure 17
1000
0001
1000
0000
0100
0010
1000
0000
,  // measure 18
0002
0000
0000
0000
0000
0000
0023
0000
0000
0230
0000
0000
0000
0000
0000
0000
,  // measure 19
2300
3002
2003
3002
,  // measure 20
0103
0101
0010
1010
,  // measure 21
1000
1001
0001
1001
,  // measure 22
0100
0110
0010
0110
,  // measure 23
0100
1010
0100
0011
,  // measure 24
0010
1100
0010
0101
,  // measure 25
1000
1001
0001
1001
,  // measure 26
0100
0110
0010
0110
,  // measure 27
2100
3002
0103
0000
,  // measure 28
0100
0000
0010
0000
1000
0001
0020
0000
,  // measure 29
0130
0000
1000
0100
1000
0100
2000
0000
,  // measure 30
3001
0000
0100
0000
0010
1000
0002
0000
,  // measure 31
0013
0000
0001
0010
0001
0010
0002
0000
,  // measure 32
1003
1100
0001
0101
,  // measure 33
1000
0000
1000
0010
1000
0010
2000
0000
,  // measure 34
3001
0100
2001
3100
,  // measure 35
0200
0000
0320
0000
0230
0300
0000
0000
,  // measure 36
1001
1100
1001
0101
,  // measure 37
1000
0100
0010
0000
0001
0010
0100
0000
,  // measure 38
1001
1010
1001
0011
,  // measure 39
0001
0100
0010
0000
1000
0010
0100
0000
,  // measure 40
0101
1001
1010
1001
,  // measure 41
1000
0001
0010
0000
0001
1000
0010
0000
,  // measure 42
0101
1001
0011
1001
,  // measure 43
1000
0100
0010
0001
0100
0000
0001
0000
,  // measure 44
0102
0000
1003
0000
,  // measure 45
2100
0000
0000
0000
3001
0000
1000
0002
,  // measure 46
0000
0003
0000
0000
;

//---------------dance-single - ----------------
#NOTES:
     dance-single:
     :
     Easy:
     3:
     0.183433,0.218596,0.114988,0.067076,0.004791,134.000000,122.000000,12.000000,7.000000,0.000000,0.000000,0.183433,0.218596,0.114988,0.067076,0.004791,134.000000,122.000000,12.000000,7.000000,0.000000,0.000000:
// measure 0
0000
0000
0000
0000
,  // measure 1
0000
0000
0000
0000
,  // measure 2
1001
0000
0000
0000
,  // measure 3
0110
0000
0000
0000
,  // measure 4
1000
0100
1000
0010
,  // measure 5
0100
0001
0100
0010
,  // measure 6
1000
0100
0010
0001
,  // measure 7
0100
0001
0010
0100
,  // measure 8
1000
0100
0001
0100
,  // measure 9
1000
0010
0100
0001
,  // measure 10
1001
0000
0000
0000
,  // measure 11
0110
0000
0000
0000
,  // measure 12
0001
0100
0010
1000
,  // measure 13
0100
1000
0010
0100
,  // measure 14
0001
0010
0001
0100
,  // measure 15
0010
1000
0100
1000
,  // measure 16
0010
0100
0001
0010
,  // measure 17
0100
1000
0100
1000
,  // measure 18
1001
0000
0000
0000
,  // measure 19
0110
0000
0000
0000
,  // measure 20
1000
0000
0010
0000
,  // measure 21
0100
0000
0001
0000
,  // measure 22
0010
0000
0001
0000
,  // measure 23
1000
0000
0010
0000
,  // measure 24
1000
0000
0001
0000
,  // measure 25
1000
0000
0000
1100
,  // measure 26
0000
1001
0000
0101
,  // measure 27
0000
0000
2000
0000
,  // measure 28
3010
0100
0001
1000
,  // measure 29
0100
0010
0100
0100
,  // measure 30
1000
0001
0100
0010
,  // measure 31
1000
0000
0020
0000
,  // measure 32
0130
0001
0100
0010
,  // measure 33
1000
0100
0010
0100
,  // measure 34
2000
0000
3002
0000
,  // measure 35
0103
0100
0100
0000
,  // measure 36
1001
0000
0100
0000
,  // measure 37
0010
0000
0100
0000
,  // measure 38
1100
0000
1000
0000
,  // measure 39
0010
0000
0100
0000
,  // measure 40
0101
0000
0001
0000
,  // measure 41
0010
0000
0100
0000
,  // measure 42
1000
1000
0001
0001
,  // measure 43
0100
0100
0010
0020
,  // measure 44
0230
0000
0301
0001
,  // measure 45
0002
0000
0000
0000
0000
0000
1000
0000
0000
1000
0003
0000
0000
0000
0000
0000
;
