#TITLE:SOUND OF THE UNDERGROUND;
#SUBTITLE:;
#ARTIST:GIRLS ALOUD;
#TITLETRANSLIT:;
#SUBTITLETRANSLIT:;
#ARTISTTRANSLIT:;
#GENRE:;
#CREDIT:;
#BANNER:banner.png;
#BACKGROUND:bg.png;
#LYRICSPATH:;
#CDTITLE:cdtitle.png;
#MUSIC:SOUND OF THE UNDERGROUND.mp3;
#OFFSET:-3.408000;
#SAMPLESTART:54.790001;
#SAMPLELENGTH:17.440001;
#SELECTABLE:YES;
#DISPLAYBPM:164.000000;
#BPMS:0.000000=164.000000
,140.000000=82.000000
,142.000000=164.00000
;
#STOPS:
;
#BGCHANGES:;
#KEYSOUNDS:;
#ATTACKS:;

//---------------dance-single - ----------------
#NOTES:
     dance-single:
     :
     Easy:
     4:
     0.322492,0.421009,0.142876,0.190502,0.000000,237.000000,222.000000,15.000000,20.000000,0.000000,0.000000,0.322492,0.421009,0.142876,0.190502,0.000000,237.000000,222.000000,15.000000,20.000000,0.000000,0.000000:
// measure 0
0000
0000
0000
0000
,  // measure 1
0000
0000
0000
0000
,  // measure 2
0000
0000
0000
0000
,  // measure 3
0000
0000
0000
0000
,  // measure 4
1000
0000
0010
0000
,  // measure 5
1000
0100
0010
0001
,  // measure 6
1000
0000
0001
0000
,  // measure 7
0100
0001
0010
0100
,  // measure 8
1000
0000
0010
0000
,  // measure 9
0100
0000
0010
0000
,  // measure 10
1000
0010
0100
0000
,  // measure 11
0001
0010
0100
0000
,  // measure 12
1000
0000
0100
0000
,  // measure 13
0010
0000
0001
0000
,  // measure 14
0001
0100
0010
0000
,  // measure 15
1000
0001
0010
0000
,  // measure 16
0100
1000
0010
0001
,  // measure 17
0100
1000
0010
0001
,  // measure 18
0100
1000
0010
0001
,  // measure 19
0100
1000
0010
0001
,  // measure 20
1001
0100
0010
1000
,  // measure 21
0100
1000
0010
0100
,  // measure 22
0000
0100
0001
0010
,  // measure 23
0100
1000
0200
0310
,  // measure 24
0000
0001
0100
0001
,  // measure 25
0010
0100
2000
3010
,  // measure 26
0000
0100
0010
1000
,  // measure 27
0100
0001
0100
1000
,  // measure 28
0010
0100
0100
0000
,  // measure 29
0010
1000
0001
0010
,  // measure 30
0100
1000
0100
0001
,  // measure 31
0100
1000
0010
0000
,  // measure 32
0100
0001
0001
0000
,  // measure 33
1000
1000
0010
0010
,  // measure 34
0000
1000
0100
0010
,  // measure 35
0002
0000
0103
1000
,  // measure 36
0100
1000
0010
0100
,  // measure 37
0100
0000
0001
0010
,  // measure 38
0100
1000
0100
0001
,  // measure 39
0100
0000
1000
0010
,  // measure 40
0100
0001
1000
0001
,  // measure 41
1000
0000
0001
1000
,  // measure 42
0010
1000
0002
2003
,  // measure 43
3002
2003
3010
0100
,  // measure 44
0001
1000
0200
0000
,  // measure 45
0310
0001
0100
0010
,  // measure 46
1000
0010
0100
0100
,  // measure 47
0100
0101
0001
1000
,  // measure 48
0100
0001
0100
1000
,  // measure 49
0010
0001
0010
0010
,  // measure 50
1000
1000
0001
0001
,  // measure 51
1000
1000
1020
0100
,  // measure 52
1000
0100
1030
0000
,  // measure 53
1100
0000
2100
0010
,  // measure 54
0100
3010
0100
0010
,  // measure 55
0110
0000
2001
0010
,  // measure 56
0001
0010
3001
0000
,  // measure 57
0101
0000
1002
0100
,  // measure 58
1000
0100
1003
1000
,  // measure 59
0001
1000
1001
0100
,  // measure 60
0110
0010
1001
0100
,  // measure 61
0110
0010
1000
0100
,  // measure 62
0010
0001
1000
0001
,  // measure 63
1000
1001
0001
0100
,  // measure 64
0010
1000
0100
0010
,  // measure 65
0001
0001
2000
3020
,  // measure 66
0230
0301
0002
0023
,  // measure 67
0230
1300
2002
0000
,  // measure 68
3003
0000
0000
0000
;

//---------------dance-single - ----------------
#NOTES:
     dance-single:
     :
     Medium:
     6:
     0.425907,0.421009,0.228602,0.057150,0.000000,313.000000,289.000000,24.000000,6.000000,0.000000,0.000000,0.425907,0.421009,0.228602,0.057150,0.000000,313.000000,289.000000,24.000000,6.000000,0.000000,0.000000:
// measure 0
0000
0000
0000
0000
,  // measure 1
0000
0000
0000
0000
,  // measure 2
1000
0000
0000
1000
0000
0000
0000
0000
,  // measure 3
0001
0000
0000
0001
0000
0000
0000
0000
,  // measure 4
0001
0000
0100
0010
0000
0100
0010
0000
,  // measure 5
1000
0001
0100
0010
,  // measure 6
1000
0000
0100
0010
0000
0100
0010
0000
,  // measure 7
0001
0000
0100
0010
0000
0100
0010
0000
,  // measure 8
1000
0000
0100
0010
0000
0100
1000
0000
,  // measure 9
0001
0100
0001
0010
,  // measure 10
0001
0000
1000
0001
0000
1000
0001
0000
,  // measure 11
1000
0000
0001
1000
0000
0001
1000
0000
,  // measure 12
0100
0000
1000
0010
0000
0100
0001
0000
,  // measure 13
0100
0010
1000
0100
,  // measure 14
0010
0000
0001
1000
0000
0001
0100
0000
,  // measure 15
0010
0000
1000
0010
0000
0100
0001
0000
,  // measure 16
1000
0100
0001
0010
,  // measure 17
1000
0100
0001
0010
,  // measure 18
1000
0100
0001
0010
,  // measure 19
1000
0100
0001
1000
,  // measure 20
1001
0000
0000
0101
0000
0000
1000
0000
,  // measure 21
1100
0000
0000
0110
0000
0000
0010
0000
,  // measure 22
1100
0000
0000
0101
0000
0000
1000
0000
,  // measure 23
0011
0000
0000
1010
0000
0000
0001
0000
,  // measure 24
1001
0000
0000
0110
0000
0000
1000
0000
,  // measure 25
1100
0000
0000
0011
0000
0000
0100
0000
,  // measure 26
1010
0000
0000
0101
0000
0000
0100
0000
,  // measure 27
0010
1000
0001
0100
,  // measure 28
0010
1000
0001
0000
,  // measure 29
1000
0100
1000
0000
0010
0000
0010
0000
,  // measure 30
0000
0000
1000
0100
0010
0000
0001
0100
,  // measure 31
0001
1000
0001
0000
,  // measure 32
0010
1000
0001
0000
0110
0000
0000
1000
,  // measure 33
0100
0010
0100
1000
,  // measure 34
0000
0000
0001
1000
0001
0000
0100
0000
,  // measure 35
0020
0000
1030
1000
,  // measure 36
0001
0100
0110
0110
,  // measure 37
0001
1000
1000
0000
1000
0000
0100
0010
,  // measure 38
0001
1000
0010
1000
,  // measure 39
0001
0000
0100
0000
0001
0000
0010
0010
,  // measure 40
0010
0100
1000
0001
,  // measure 41
0100
0010
1000
0000
1000
0000
0001
0100
,  // measure 42
0001
1000
0100
0010
,  // measure 43
0011
0000
1010
0000
1000
0000
0100
0010
,  // measure 44
0002
2003
3020
1000
,  // measure 45
1000
1030
0100
0010
,  // measure 46
0001
0000
1000
0001
1000
0000
0010
0000
,  // measure 47
0110
0000
0000
0000
1000
0000
0100
0001
,  // measure 48
1000
0001
0010
0100
,  // measure 49
1000
1000
0010
0000
1000
0000
0001
0100
,  // measure 50
0001
0000
0010
0000
1000
0000
0001
0010
,  // measure 51
0100
1000
1001
0100
,  // measure 52
0010
0000
1000
0000
0100
0000
1000
0001
,  // measure 53
1000
0001
1000
0000
0010
0000
1000
0000
,  // measure 54
0100
0001
0100
1000
,  // measure 55
0100
0010
0100
0010
0100
0000
1000
0000
,  // measure 56
0010
0000
0100
0000
0001
0000
0100
0001
,  // measure 57
0100
0001
0100
0000
0010
0000
1000
0000
,  // measure 58
0100
0000
0010
0000
0001
0000
0001
1000
,  // measure 59
0001
1000
0010
0000
1000
0000
1000
0001
,  // measure 60
0001
0000
0100
0000
0010
1000
0010
0100
,  // measure 61
0010
1001
0001
1000
,  // measure 62
0100
0000
0010
0000
0001
0100
0010
1000
,  // measure 63
0001
0000
1001
0000
1000
0000
0100
0010
,  // measure 64
0001
0000
0100
0000
0010
0000
1000
0001
,  // measure 65
0100
0001
1000
0000
0100
0000
0010
0001
,  // measure 66
1000
0000
0010
0000
1000
0000
0001
0100
,  // measure 67
0010
1000
0202
0000
,  // measure 68
0303
0000
0000
0000
;

//---------------dance-single - ----------------
#NOTES:
     dance-single:
     :
     Hard:
     8:
     0.517076,0.582935,0.295277,0.085726,0.000000,380.000000,349.000000,31.000000,9.000000,0.000000,0.000000,0.517076,0.582935,0.295277,0.085726,0.000000,380.000000,349.000000,31.000000,9.000000,0.000000,0.000000:
// measure 0
0000
0000
0000
0000
,  // measure 1
0000
0000
0100
0000
0000
0010
0000
0000
,  // measure 2
0000
0000
1000
0000
0000
0100
0000
0000
,  // measure 3
0000
0000
0010
0000
0000
0002
0000
0000
,  // measure 4
0103
0000
0001
1000
0000
1000
0100
0010
,  // measure 5
0001
0100
0010
1000
,  // measure 6
0000
0000
0001
0000
0000
0100
0000
0000
,  // measure 7
0000
0000
1000
0000
0000
0100
0000
0000
,  // measure 8
1000
0000
0010
1000
0000
1000
0100
0010
,  // measure 9
0100
1000
0001
0100
,  // measure 10
0000
0000
1000
0000
0000
0010
0000
0000
,  // measure 11
0000
0000
0001
0000
0000
0010
0000
0000
,  // measure 12
0001
0000
0010
0100
0000
0100
1000
0010
,  // measure 13
0100
0000
0001
0000
0010
0100
1000
0010
,  // measure 14
0000
0100
0001
0000
0001
1000
0000
0000
,  // measure 15
0000
1000
0100
0000
0010
0001
0000
0001
,  // measure 16
0100
0000
0010
1000
0000
1000
0010
0100
,  // measure 17
0001
0000
0001
0010
0000
0010
0100
1000
,  // measure 18
0010
0000
0100
0001
0000
0001
0100
0010
,  // measure 19
1000
0000
0100
0010
0000
0001
0001
0100
,  // measure 20
0110
1000
0001
0200
,  // measure 21
0310
1000
0100
0012
,  // measure 22
0103
0000
0010
1000
0010
0000
0100
0000
,  // measure 23
0001
0000
0010
0000
1001
0000
1000
0001
,  // measure 24
0100
0000
0010
1000
0010
0000
0200
0000
,  // measure 25
0310
1000
0001
0010
,  // measure 26
0001
0000
0100
0001
0010
0100
1000
0010
,  // measure 27
0100
0001
0010
1000
,  // measure 28
0100
0001
0100
1000
,  // measure 29
0010
1000
0010
0000
0100
0000
0210
0000
,  // measure 30
0000
0000
0301
0100
0010
0000
0010
1000
,  // measure 31
0001
1000
0001
1000
,  // measure 32
0100
0000
0010
0010
0010
0010
0001
0000
,  // measure 33
1000
0001
0100
0000
0101
0000
1100
0000
,  // measure 34
0000
0000
1000
0100
0010
0000
0011
0000
,  // measure 35
1002
0000
0000
0000
1003
0000
1000
0100
,  // measure 36
0010
0000
0001
0000
1001
0000
0001
1000
,  // measure 37
0001
0100
0110
0000
1000
0000
0010
0010
,  // measure 38
0010
0000
0100
0000
0001
0000
0001
0100
,  // measure 39
1000
0100
0001
0010
0100
0000
1000
0100
,  // measure 40
1000
0101
1100
1010
,  // measure 41
0011
0000
1001
0000
1000
0000
0010
0010
,  // measure 42
0100
0000
0001
0100
0010
1000
0100
0010
,  // measure 43
0100
0010
0001
0100
0010
0000
1000
0001
,  // measure 44
0100
0010
1001
1100
,  // measure 45
0101
0000
1001
0000
1000
1000
0100
0100
,  // measure 46
0010
0010
0001
0001
1000
0000
0001
0000
,  // measure 47
1001
0000
0110
0000
0010
0000
1000
0001
,  // measure 48
0100
0000
0001
0000
1000
0000
0100
0100
,  // measure 49
0100
0000
0010
0000
0001
0000
0100
0001
,  // measure 50
1000
0000
0010
0000
1000
0000
0001
0010
,  // measure 51
0100
0000
0011
0000
1002
0000
0103
0100
,  // measure 52
0010
0000
1000
0000
0001
0010
0100
1000
,  // measure 53
0010
0010
0010
0000
1000
0100
1000
0010
,  // measure 54
0010
0010
0100
0001
0010
0100
0010
0001
,  // measure 55
0100
0010
1000
0001
0000
0001
0100
0001
,  // measure 56
0010
0100
1000
1000
0100
1000
0010
0100
,  // measure 57
0001
0000
1001
0000
0001
0100
0010
1000
,  // measure 58
0010
0100
0001
0100
1000
0100
0001
0010
,  // measure 59
1000
0010
0001
0000
0001
0100
0001
0100
,  // measure 60
0010
1000
0010
1000
1020
0000
0100
0000
,  // measure 61
1000
0000
0130
0100
0001
0010
0001
0100
,  // measure 62
1000
0100
0001
0010
0100
1000
0010
0100
,  // measure 63
0010
0000
1001
0000
1000
0100
0100
0010
,  // measure 64
0001
0001
0100
0001
0010
0010
0100
0100
,  // measure 65
1000
0000
1001
0001
1000
0000
0110
0100
,  // measure 66
0010
0000
1001
0001
1000
0000
1100
1000
,  // measure 67
0100
0000
0011
0001
0020
0000
0000
0000
,  // measure 68
0030
0000
0000
0000
;
