#TITLE:S.O.S;
#SUBTITLE:(Cult Mix);
#ARTIST:ABBACADABRA;
#TITLETRANSLIT:;
#SUBTITLETRANSLIT:;
#ARTISTTRANSLIT:;
#GENRE:;
#CREDIT:;
#BANNER:banner.png;
#BACKGROUND:bg.png;
#LYRICSPATH:;
#CDTITLE:cdtitle.png;
#MUSIC:S.O.S (Cult Mix).mp3;
#OFFSET:-0.039000;
#SAMPLESTART:53.377987;
#SAMPLELENGTH:14.219993;
#SELECTABLE:YES;
#DISPLAYBPM:135.000000;
#BPMS:0.000000=67.50
,14.000000=33.75
,15.000000=135.00
;
#STOPS:
;
#BGCHANGES:;
#KEYSOUNDS:;
#ATTACKS:;

//---------------dance-single - ----------------
#NOTES:
     dance-single:
     :
     Hard:
     7:
     0.437150,0.638580,0.195104,0.390208,0.066746,298.000000,279.000000,19.000000,38.000000,0.000000,0.000000,0.437150,0.638580,0.195104,0.390208,0.066746,298.000000,279.000000,19.000000,38.000000,0.000000,0.000000:
0000
0000
0000
0000
,
0000
0000
0000
0000
,
2000
0000
3020
0000
,
0230
0000
0301
0002
,
0023
0032
0023
0230
,
2300
3200
2300
3002
,
0000
0000
0103
0000
0000
0000
0100
0001
,
0100
0010
1000
0010
0100
0000
0200
0000
,
2300
3002
0023
0032
,
2003
3002
0023
0230
,
0000
0000
1300
0000
0000
0000
1000
0100
,
0001
0100
1000
0010
0100
0001
0100
0000
,
0010
0000
1000
0010
0100
0000
0001
0000
,
0010
0000
0100
1000
0100
0000
2000
0000
,
3002
0203
0000
0310
,
1000
0000
0001
0010
0100
0000
0010
0000
,
0001
0000
1000
0010
0100
0000
0200
0000
,
0302
2003
3020
1030
,
0101
0000
0001
0000
1100
0000
1000
0001
,
0010
0000
0001
1000
0010
0000
1000
0000
,
0001
0000
0010
0001
0100
0000
0010
1000
,
0100
0000
1001
0000
0000
0000
1000
0100
,
0010
0001
0100
0010
1000
0001
0000
1000
,
0001
0000
0010
0000
0100
0000
1000
0000
0001
0000
0100
0001
0100
0000
0010
1000
,
0010
0000
1000
0100
1000
0000
0001
0010
0001
0000
1000
0001
1000
0000
0010
0100
,
0010
0000
1000
0001
0100
0000
0001
1000
0010
0000
0100
0001
1000
0000
0100
0000
,
0001
0100
1000
0010
0001
0010
1000
0100
,
0010
0100
1000
0001
0010
0100
0010
0001
,
1000
0100
0000
0101
0000
1100
0000
0101
,
0000
1100
0000
0101
0000
1100
0000
0001
,
0100
1000
0100
0001
0010
0100
0010
0001
,
1000
0010
0100
0010
1000
0001
0010
0100
,
1000
0100
0000
0110
0000
0011
0000
1010
,
0000
0110
0000
0101
0000
1000
1000
0100
,
0010
0100
1000
0010
0100
0001
2000
0000
,
3001
0001
0010
0001
0100
0010
2000
0000
,
3001
1001
0110
1100
,
0101
0000
1001
0000
0000
0000
0001
0100
,
0010
0100
0001
0100
0020
0000
0130
0001
,
0010
0100
1000
0010
2000
0000
3001
0100
,
0001
0000
1000
0100
1000
0000
0001
1000
,
0100
1000
0010
0100
0001
0200
0000
0310
,
0010
0010
0000
1000
0100
0010
0100
0010
,
0001
0000
0100
0000
0010
0000
0100
0000
0010
0000
1000
0000
0001
0000
0000
1000
,
0000
0000
0001
0000
0000
0100
0000
0000
0010
0000
0000
1000
0000
0000
0001
0000
,
0000
0100
0000
0000
0010
0000
1000
0000
0100
0000
0001
0000
0100
0000
1000
0000
,
0100
0001
0100
0010
0001
0020
0000
0130
,
0100
0100
0000
1000
0100
0010
0001
0001
,
0002
0000
0103
0100
0200
0000
0310
0010
,
0020
0000
1030
1000
2000
0000
3001
0000
;

//---------------dance-single - ----------------
#NOTES:
     dance-single:
     :
     Medium:
     5:
     0.291922,0.332062,0.030806,0.390208,0.000000,199.000000,196.000000,3.000000,38.000000,0.000000,0.000000,0.291922,0.332062,0.030806,0.390208,0.000000,199.000000,196.000000,3.000000,38.000000,0.000000,0.000000:
0000
0000
0000
0000
,
0000
0000
0000
0000
,
2000
0000
0000
0000
,
0000
0000
3002
1003
,
0001
0100
0010
1000
,
0100
0010
0001
0200
,
0000
0000
0000
0301
,
0000
2000
3002
0013
,
0001
0100
0001
0010
,
0100
1000
0010
0200
,
0000
0000
0000
0301
,
0000
0000
0000
0000
0000
0000
1000
0001
,
0000
0100
0000
0001
0000
1000
0000
1000
,
0000
0001
0000
0100
0000
0001
1000
0001
,
1000
0001
2000
0000
0000
0000
3010
0100
,
0000
0001
0000
0100
0000
0010
0000
1000
,
0000
0001
0000
1000
0000
0010
0100
0010
,
0100
0010
0200
0000
0000
0000
0301
0100
,
0000
0010
0000
1000
0000
0001
0000
0010
,
0000
0001
0000
0001
1000
0001
0100
0010
,
0000
1000
0000
0001
0000
0010
0000
0001
,
0000
1000
0001
0100
0000
0100
0010
1000
,
0000
0001
0000
1000
0000
0100
0000
0010
,
0000
0001
0000
0100
0000
0010
2000
0000
,
3020
2030
3020
0230
,
0302
0000
0203
0000
0302
0000
1003
0100
,
0010
0000
0001
0100
0010
0000
1000
0000
,
0001
0000
0100
0010
0100
0001
2000
0000
,
0000
3001
0000
0200
,
0000
0000
0310
0000
0000
0000
0001
0010
,
0100
0000
1000
0100
0001
0000
0100
0000
,
1000
0000
0001
1000
0010
0100
0002
0000
,
0000
0103
0000
0020
,
0000
0000
0230
0000
0000
0000
0301
0100
,
0000
1000
0000
0100
0000
0001
0000
0010
,
0000
0001
0000
1000
0000
0100
0000
0010
,
0000
0001
0000
1000
0000
0001
0000
0100
,
0010
1000
0000
0100
0010
0001
0100
0001
,
0000
0010
0000
0100
0000
1000
0000
0100
,
0000
0001
0000
0100
0000
1000
0000
0010
,
0000
0100
0000
0001
0000
0010
0000
0100
,
0000
1000
0000
0102
0000
2003
0000
3002
,
0000
0203
0000
0310
0010
0010
0000
0100
,
0100
0100
0000
0001
0001
0001
2000
0000
,
3020
0230
0302
0023
,
0130
0000
0000
2001
0000
3200
0000
2300
,
0000
3002
0000
0103
0100
0100
0000
0010
,
0010
0010
0000
1000
1000
1000
0002
0000
,
0103
0020
1030
2000
,
3100
0002
0103
1001
;

//---------------dance-single - ----------------
#NOTES:
     dance-single:
     :
     Easy:
     3:
     0.183368,0.255432,0.215641,0.123224,0.000000,125.000000,104.000000,21.000000,12.000000,0.000000,0.000000,0.183368,0.255432,0.215641,0.123224,0.000000,125.000000,104.000000,21.000000,12.000000,0.000000,0.000000:
0000
0000
0000
0000
,
0000
0000
0000
0000
,
1001
0000
0000
0000
,
0000
0000
0000
0002
,
0000
0000
0000
0023
,
0000
0000
0000
0230
,
0000
0000
0000
1300
,
0000
0001
1000
0020
,
0000
0000
0000
0230
,
0000
0000
0000
0302
,
0000
0000
0000
1003
,
0000
0100
0100
0110
,
0000
1000
0000
0001
,
0000
0100
0000
1000
,
0001
0200
0000
0310
,
0000
1000
0000
0001
,
0000
0010
0000
0100
,
0100
1000
2000
3001
,
0000
1001
0000
1000
,
0000
1001
0000
0100
,
0000
0110
0000
0010
,
0000
0110
0000
1000
,
0100
0010
0001
0100
,
0010
1000
0000
2000
,
0000
0000
0000
3020
,
0000
0000
0000
0130
,
0100
0100
0100
0001
,
0001
0001
0002
0103
,
0000
1001
0000
0010
,
0000
1001
0000
0010
,
0010
0010
0010
1000
,
1000
1000
2000
3010
,
0000
0110
0000
0100
,
0000
0110
0000
0001
,
0010
0100
0000
1000
,
0100
0010
0000
0001
,
1000
0001
0000
0100
,
0010
0100
0000
0001
,
0100
0010
0000
1000
,
0010
0100
0000
0001
,
0100
1000
0000
0001
,
0100
0001
0000
1100
,
0000
1001
0000
0101
,
0000
1001
0000
0110
,
0000
0000
0000
0000
,
0000
0000
0000
0110
,
0000
1100
0000
0101
,
0000
0110
0000
1010
,
0000
0000
0000
0000
,
0000
0000
0000
1001
;
