#TITLE:ME AGAINST THE MUSIC;
#SUBTITLE:;
#ARTIST:SPEEDMASTER feat. HELLEN;
#TITLETRANSLIT:;
#SUBTITLETRANSLIT:;
#ARTISTTRANSLIT:;
#GENRE:;
#CREDIT:;
#BANNER:banner.png;
#BACKGROUND:bg.png;
#LYRICSPATH:;
#CDTITLE:cdtitle.png;
#MUSIC:ME AGAINST THE MUSIC.mp3;
#OFFSET:-3.218000;
#SAMPLESTART:35.290001;
#SAMPLELENGTH:10.560000;
#SELECTABLE:YES;
#BPMS:0.000000=179.600006
;
#STOPS:
;
#BGCHANGES:;
#KEYSOUNDS:;
#ATTACKS:;

//---------------dance-single - ----------------
#NOTES:
     dance-single:
     :
     Easy:
     4:
     0.326518,0.380052,0.180724,0.159462,0.000000,215.000000,198.000000,17.000000,15.000000,0.000000,0.000000,0.326518,0.380052,0.180724,0.159462,0.000000,215.000000,198.000000,17.000000,15.000000,0.000000,0.000000:
// measure 0
0000
0000
0000
0000
,  // measure 1
0000
0000
0000
0000
,  // measure 2
0000
0000
0000
0000
,  // measure 3
0000
0000
0000
0000
,  // measure 4
0001
0001
1000
1000
,  // measure 5
0010
0010
0010
0010
,  // measure 6
0100
0100
0001
0001
,  // measure 7
0010
0100
1000
0100
,  // measure 8
1000
0000
0001
0000
,  // measure 9
1000
0000
1001
1001
,  // measure 10
0010
0000
0100
0000
,  // measure 11
0010
0000
0110
0110
,  // measure 12
1000
0000
0100
0000
,  // measure 13
0010
0000
0011
0011
,  // measure 14
0001
0000
0100
0000
,  // measure 15
0010
0000
1010
1010
,  // measure 16
1000
0100
0010
0001
,  // measure 17
1000
0100
0010
0001
,  // measure 18
1001
0000
0100
0000
,  // measure 19
1001
0000
0010
0000
,  // measure 20
0001
0100
0010
1000
,  // measure 21
0001
0100
0010
1000
,  // measure 22
1001
0000
0100
0000
,  // measure 23
1001
1000
0100
0010
,  // measure 24
0001
0100
0001
0010
,  // measure 25
0200
1000
1300
0000
,  // measure 26
1000
0100
0010
0100
,  // measure 27
0020
0001
0031
0000
,  // measure 28
0001
0100
0010
1000
,  // measure 29
0002
1000
1003
0000
,  // measure 30
1000
0010
0100
0001
,  // measure 31
0020
0001
0031
0000
,  // measure 32
0001
0100
1000
0100
,  // measure 33
0001
0010
1000
0010
,  // measure 34
0002
0000
0000
0000
,  // measure 35
0000
0000
0000
0000
,  // measure 36
1003
0010
0001
0010
,  // measure 37
1000
0100
0001
0100
,  // measure 38
2000
0000
0000
0000
,  // measure 39
0000
0000
3020
0000
,  // measure 40
1030
0001
0100
0001
,  // measure 41
1000
0010
0100
0010
,  // measure 42
1000
0100
1000
0010
,  // measure 43
0100
0001
0010
0001
,  // measure 44
1000
0100
0010
0100
,  // measure 45
1000
0001
0100
0001
,  // measure 46
0020
0130
2000
3001
,  // measure 47
0002
0023
0230
2300
,  // measure 48
3001
0100
0001
0010
,  // measure 49
0100
1000
1001
0000
,  // measure 50
1000
0100
0010
0001
,  // measure 51
0100
0010
0110
0000
,  // measure 52
0001
0100
1000
0100
,  // measure 53
0001
1000
1100
0000
,  // measure 54
1000
0100
0001
0010
,  // measure 55
0100
0010
0011
0000
,  // measure 56
0001
0100
0001
0100
,  // measure 57
0010
1000
0010
1000
,  // measure 58
0100
0010
0001
0100
,  // measure 59
0010
0000
0010
0000
,  // measure 60
1000
0100
1000
0010
,  // measure 61
0100
0001
0010
0001
,  // measure 62
0100
0010
1000
0010
,  // measure 63
0100
0000
0100
0000
,  // measure 64
0220
0000
0000
0000
,  // measure 65
0330
0000
0000
0000
;

//---------------dance-single - ----------------
#NOTES:
     dance-single:
     :
     Medium:
     6:
     0.437383,0.483703,0.276402,0.159462,0.000000,288.000000,262.000000,26.000000,15.000000,0.000000,0.000000,0.437383,0.483703,0.276402,0.159462,0.000000,288.000000,262.000000,26.000000,15.000000,0.000000,0.000000:
// measure 0
0000
0000
0000
0000
,  // measure 1
0000
0000
0000
0000
,  // measure 2
0000
0000
0000
0000
,  // measure 3
0000
0000
0000
0000
,  // measure 4
0001
0000
0100
0000
0010
1000
0010
0100
,  // measure 5
0000
0001
0000
1000
0000
1000
0100
0000
,  // measure 6
0010
0000
0001
0000
1000
0001
0100
0010
,  // measure 7
0000
1000
0001
0000
0100
0000
1001
0000
,  // measure 8
0110
1000
0010
0100
,  // measure 9
0001
0000
0001
0010
0100
1000
0001
0000
,  // measure 10
1001
1000
0001
0100
,  // measure 11
0010
0000
0010
1000
0100
0010
0001
0000
,  // measure 12
0110
0010
1000
0001
,  // measure 13
1000
0000
0010
1000
0100
0010
0001
0000
,  // measure 14
1001
0001
0100
0010
,  // measure 15
1000
0000
0001
0010
0100
1000
0001
0000
,  // measure 16
2010
0010
0010
0010
,  // measure 17
3020
0100
0100
0100
,  // measure 18
0130
0000
1001
0000
,  // measure 19
0110
0000
1001
0000
,  // measure 20
0012
0010
0010
0010
,  // measure 21
0023
0100
0100
0100
,  // measure 22
0130
0000
1001
0000
,  // measure 23
0110
1001
1001
1001
,  // measure 24
0010
1000
0010
1001
,  // measure 25
0100
0001
0100
0001
0100
0000
0010
0000
,  // measure 26
1000
0100
0010
0110
,  // measure 27
1000
0100
1000
0100
1000
0000
0001
0000
,  // measure 28
0001
0100
1000
0010
,  // measure 29
0001
0100
0010
1000
0001
0000
1000
0000
,  // measure 30
0001
0010
0100
1001
,  // measure 31
1000
0010
1000
0010
2000
0000
0000
0000
,  // measure 32
3002
0010
0100
1000
,  // measure 33
2003
0010
0100
0001
,  // measure 34
3001
0000
0110
0000
,  // measure 35
1001
0000
0110
0000
,  // measure 36
2000
0100
0010
0001
,  // measure 37
3002
0100
0010
1000
,  // measure 38
1003
0000
1000
0000
,  // measure 39
0010
0000
0000
0100
0000
0001
1000
0001
,  // measure 40
1000
0100
1000
0010
,  // measure 41
0100
0000
0001
0000
1000
0001
1000
0000
,  // measure 42
0010
0100
0001
0010
,  // measure 43
0100
0000
1000
0000
0100
0010
0001
0000
,  // measure 44
0001
0100
0010
1000
,  // measure 45
0010
0000
0100
0000
0001
0010
0100
0000
,  // measure 46
1000
0100
0001
0100
,  // measure 47
1000
0001
1000
0000
0001
1000
0001
0000
,  // measure 48
0100
0001
0100
1001
,  // measure 49
0010
1000
0010
1000
0010
0000
0100
0000
,  // measure 50
0001
0010
0100
0110
,  // measure 51
0001
0010
0001
0010
0001
0000
1000
0000
,  // measure 52
1000
0010
0001
0100
,  // measure 53
1000
0010
0100
0001
1000
0000
0001
0000
,  // measure 54
1000
0100
0010
1001
,  // measure 55
0001
0100
0001
0100
0002
0000
0000
0000
,  // measure 56
1003
0000
0010
0000
0200
0000
0000
0301
,  // measure 57
0000
1000
0000
0100
0000
1000
0001
0000
,  // measure 58
1000
0000
0010
0000
0200
0000
0000
0310
,  // measure 59
0000
1000
0000
0001
0100
0000
0110
0000
,  // measure 60
1000
0000
0100
0000
0020
0000
0000
0031
,  // measure 61
0000
1000
0000
0001
0000
1000
0010
0000
,  // measure 62
0100
0000
0001
0000
0200
0000
0000
0310
,  // measure 63
0000
1000
0010
1000
0010
0000
1001
0000
,  // measure 64
0200
0000
0000
0000
,  // measure 65
0300
0000
0000
0000
;

//---------------dance-single - ----------------
#NOTES:
     dance-single:
     :
     Hard:
     9:
     0.625700,0.587354,0.244509,0.042523,0.037208,412.000000,389.000000,23.000000,4.000000,0.000000,0.000000,0.625700,0.587354,0.244509,0.042523,0.037208,412.000000,389.000000,23.000000,4.000000,0.000000,0.000000:
// measure 0
0000
0000
0000
0000
,  // measure 1
0000
0000
0000
0000
,  // measure 2
0000
0000
0000
0000
,  // measure 3
0000
0000
0000
0000
,  // measure 4
1000
0000
1100
0000
0100
0010
0001
0100
,  // measure 5
0000
1001
0000
0010
0000
1000
0010
0100
,  // measure 6
0001
0000
1000
0000
0001
0100
0010
2000
,  // measure 7
0000
3010
0100
0001
0010
0100
1000
0100
,  // measure 8
0010
0001
0100
0000
0100
0010
0000
0010
,  // measure 9
1000
0100
0001
0100
1000
0010
0100
0001
,  // measure 10
0000
1000
0001
0000
0001
1000
0000
1000
,  // measure 11
0100
0010
0010
0100
1000
0001
0100
0010
,  // measure 12
0000
1000
0010
0000
0010
0100
0000
0100
,  // measure 13
0001
0010
0100
0010
0001
0100
0010
1000
,  // measure 14
0000
1000
0010
0000
0010
0100
0000
0100
,  // measure 15
0001
0010
0100
1000
0001
0100
0010
1000
,  // measure 16
0010
0100
0001
0100
1000
0100
0001
0010
,  // measure 17
1000
0000
0010
0000
0001
0000
0010
0000
0100
0000
1000
0000
0010
0000
0100
0001
,  // measure 18
0000
0000
0000
0000
1000
0000
0001
0000
1000
0000
0010
0000
0100
0000
0001
1000
,  // measure 19
0000
0000
1000
0100
1000
0000
1001
0000
,  // measure 20
1000
0100
0001
0100
1000
0010
0001
0010
,  // measure 21
1000
0000
0100
0000
0010
0000
0001
0000
0100
0000
0010
0000
1000
0000
0010
0100
,  // measure 22
0000
0000
0100
0000
0001
0000
0001
0000
0010
0000
0100
0000
0100
0000
0100
1000
,  // measure 23
0000
1100
1001
0101
,  // measure 24
1000
0100
0010
0100
0010
0001
0100
0000
,  // measure 25
0001
0100
1000
0100
0001
0000
1001
0000
,  // measure 26
0001
0100
0010
0100
0010
1000
0100
0000
,  // measure 27
1000
0010
0001
0010
1000
0000
1001
0000
,  // measure 28
1000
0100
0010
0001
0100
0010
1000
0000
,  // measure 29
1000
0010
0100
0010
1000
0000
0110
0000
,  // measure 30
0001
0010
0100
1000
0010
0100
0001
0000
,  // measure 31
0001
0010
1000
0010
0001
0000
1001
0000
,  // measure 32
1000
0010
0100
0001
0100
0010
1000
0100
,  // measure 33
0010
0100
1000
0010
0100
0001
0010
0001
,  // measure 34
0000
1000
1000
1000
0000
0001
0001
0001
,  // measure 35
0000
0100
0100
0100
0000
0010
0010
0000
,  // measure 36
0001
0100
0010
0100
0001
0010
0100
0010
,  // measure 37
0001
0100
0010
1000
0100
0010
0100
1000
,  // measure 38
0000
0001
0001
0001
0000
0100
0100
0100
,  // measure 39
0000
0010
0010
0010
0000
1000
1000
0001
,  // measure 40
0001
0100
0001
0010
,  // measure 41
0100
0000
0000
0000
1000
0000
0000
1000
0100
0000
0010
0000
0001
0000
0000
0000
,  // measure 42
0001
0100
0010
1000
,  // measure 43
0010
0000
0000
0000
0100
0000
0000
0001
0010
0000
0001
0000
1000
0000
0000
0000
,  // measure 44
1000
0100
0001
0100
,  // measure 45
1000
0000
0000
0000
0001
0000
0000
1000
0010
0000
0100
0000
0001
0000
0000
0000
,  // measure 46
1001
0100
1001
0100
,  // measure 47
1100
0000
0101
0000
1000
0001
0100
0010
,  // measure 48
1000
0100
0010
0100
1000
0010
0100
0100
,  // measure 49
0001
0010
0100
0010
0001
0100
0010
0000
,  // measure 50
0010
1000
0100
0001
0100
1000
0010
0100
,  // measure 51
0001
0010
0100
1000
1000
0001
0001
0000
,  // measure 52
0100
0001
0100
1000
0010
0100
0001
0010
,  // measure 53
0100
1000
0100
1000
0010
0010
0010
0000
,  // measure 54
0100
0001
0100
0010
1000
0100
0001
0100
,  // measure 55
1000
0010
0001
0010
1000
1000
1000
0000
,  // measure 56
1100
0000
0101
0000
0001
0100
0010
1000
,  // measure 57
0000
1001
0000
0001
0000
0001
0010
0100
,  // measure 58
1000
0000
1001
0000
0001
0100
0010
2000
,  // measure 59
0000
3010
0100
0001
0010
0100
1000
0100
,  // measure 60
0110
0000
0011
0000
0001
0100
0010
1000
,  // measure 61
0000
1001
0000
0100
0000
1000
0100
1000
,  // measure 62
0101
0000
1010
0000
1000
0100
0010
0002
,  // measure 63
0000
0103
0010
1000
0001
0100
0010
0100
,  // measure 64
0002
0000
0000
0000
,  // measure 65
0003
0000
0000
0000
;
