#TITLE:MAGIC BUTTERFLY;
#SUBTITLE:;
#ARTIST:JUDY CRYSTAL;
#TITLETRANSLIT:;
#SUBTITLETRANSLIT:;
#ARTISTTRANSLIT:;
#GENRE:;
#CREDIT:;
#BANNER:banner.png;
#BACKGROUND:bg.png;
#LYRICSPATH:;
#CDTITLE:cdtitle.png;
#MUSIC:MAGIC BUTTERFLY.mp3;
#OFFSET:-1.484999;
#SAMPLESTART:45.122059;
#SAMPLELENGTH:11.313016;
#SELECTABLE:YES;
#BPMS:0.000000=172.200043
;
#STOPS:
;
#BGCHANGES:;
#KEYSOUNDS:;
#ATTACKS:;

//---------------dance-single - ----------------
#NOTES:
     dance-single:
     :
     Hard:
     8:
     0.609716,0.632036,0.424624,0.217756,0.065327,392.000000,353.000000,39.000000,20.000000,0.000000,0.000000,0.609716,0.632036,0.424624,0.217756,0.065327,392.000000,353.000000,39.000000,20.000000,0.000000,0.000000:
0000
0000
0000
0000
,
0000
0000
0000
0000
,
0000
0000
0000
0000
,
0000
0000
0000
0000
,
1001
0000
0110
0000
,
1000
0000
0000
0010
0000
0000
0100
0000
0001
0000
0000
0000
2000
0000
0000
0000
,
3100
1000
0000
0001
1000
0001
0000
1000
,
0100
1000
0010
0100
0001
0010
0001
0010
,
0011
0000
1000
0100
1000
0000
0001
0100
,
0001
0000
1000
0001
1000
0000
1000
0100
,
0010
0000
0010
0001
0100
0000
0010
1000
,
0001
0100
0010
1000
0001
0000
1000
0010
,
0100
0000
0001
0010
0100
0000
1000
0100
,
0001
0000
0001
0100
1000
0000
1000
0001
,
0100
0000
1000
0100
1000
0010
0100
0001
,
1000
0000
0000
0000
0001
0000
0000
0000
1000
0000
0001
0000
1000
0000
0010
1000
,
0001
0000
1000
0010
0100
0000
0001
0100
,
0010
1000
0000
0101
0000
0000
0001
0100
,
0101
0000
1001
0000
1100
0000
1000
0100
,
0010
0001
0000
1010
0000
0001
1000
0100
,
0000
1000
0001
0100
0000
0001
1000
0010
,
0000
1000
0001
0010
0000
1001
0000
0000
,
1000
0100
0010
0001
1000
0010
0000
1001
,
0000
0000
0000
0000
1000
0100
0010
0001
,
0100
0001
0100
0000
0010
1000
0100
0000
,
1000
0100
0010
0100
1000
0010
0100
0000
,
0100
0001
0010
0000
0100
1000
0010
0000
,
0100
0001
0010
0001
0100
1000
0100
0000
,
0001
0010
0100
0000
1000
0100
0010
0000
,
0001
0100
1000
0100
0001
0010
0100
0000
,
1000
0100
0010
0100
1000
0010
0000
2002
,
0000
3003
0000
0220
0000
0000
0330
0000
,
1100
1100
1100
1100
,
1000
0100
0001
0100
1000
0010
0100
0000
,
0101
0101
0101
0101
,
0001
0100
0010
1000
0001
0010
0100
0000
,
1010
1010
1010
1010
,
0001
0010
0100
0010
0001
1000
0001
0000
,
0011
0011
0011
0011
,
0001
1000
0010
1000
0100
0010
0100
0000
,
1001
0100
1001
0010
,
1000
0100
1000
0010
0100
0001
0010
0000
,
0110
1000
0110
0001
,
1000
0001
0100
0010
1000
0100
1000
0000
,
0011
0100
1010
0100
,
0001
0100
0010
1000
0100
0010
0001
0000
,
1000
0100
1100
0000
0001
0100
0001
0101
,
0000
0000
1001
0000
0000
0000
1100
0000
0000
0000
1000
0000
0001
0000
0100
0001
,
2000
0000
3100
0000
0002
0000
0013
0100
,
1000
0000
0000
1000
0000
0000
0001
0000
0200
0000
0000
0000
0310
0000
1000
0001
,
0200
0000
0310
0000
2000
0000
3100
0010
,
0001
0000
0000
1000
0000
0000
0001
0000
0200
0000
0000
0000
0301
0000
1000
0010
,
0200
0000
0301
0000
2000
0000
3010
0100
,
0001
0000
0000
1000
0000
0000
0100
0000
0020
0000
0000
0000
0031
0000
0001
1000
,
0100
0100
0000
1000
1000
1000
0000
0001
,
1000
0001
0100
0010
0200
0000
0000
0000
,
0310
1000
0100
0001
0100
1000
0010
0100
,
0001
0000
0000
0001
0000
0000
0001
0000
1000
0000
0000
0000
0002
0000
0000
0000
,
0103
0010
1000
0010
0100
0001
0100
0010
,
1000
0000
0000
0100
0000
0000
0010
0000
0001
0000
0000
0000
2000
0000
0000
0000
,
3001
0100
0001
0010
0001
1000
0100
1000
,
0010
0000
0000
0010
0000
0000
0010
0000
1000
0000
0000
0000
0002
0000
0000
0000
,
0103
0001
0000
0100
0010
1000
0000
1000
,
0100
1000
0001
0100
0001
1000
0001
0100
,
0220
0000
0330
0000
;

//---------------dance-single - ----------------
#NOTES:
     dance-single:
     :
     Easy:
     3:
     0.325078,0.351131,0.141541,0.228644,0.000000,209.000000,196.000000,13.000000,21.000000,0.000000,0.000000,0.325078,0.351131,0.141541,0.228644,0.000000,209.000000,196.000000,13.000000,21.000000,0.000000,0.000000:
0000
0000
0000
0000
,
0000
0000
0000
0000
,
0000
0000
0000
0000
,
1000
0100
0010
0001
,
0002
0000
1003
0000
,
0100
1000
0100
0010
,
0200
0000
1300
0000
,
1001
0000
1001
0000
,
1000
0100
1000
0100
,
0010
0001
0010
0001
,
1000
0001
1000
0001
,
0100
0010
0100
0010
,
2000
3001
0002
0103
,
0200
0310
0020
1030
,
1000
0100
0010
0001
,
1001
0000
0000
0000
,
0001
0100
0010
1000
,
0100
1000
0010
0100
,
0001
0010
0100
1000
,
0100
1000
0001
0100
,
0200
0000
0310
0000
,
0020
0000
1030
0000
,
1000
0100
0010
0001
,
0110
0000
0000
0000
,
1000
0001
0100
0010
,
1001
0000
0110
0000
,
0001
1000
0100
0010
,
0110
0000
1001
0000
,
0002
0000
2003
0000
,
3020
0000
0230
0000
,
0301
1000
0001
1000
,
0110
0000
0000
0000
,
1000
1000
1000
1000
,
0001
1000
0001
1000
,
0001
0001
0001
0001
,
1000
0001
1000
0010
,
0100
0100
0100
0100
,
0010
0100
0010
0100
,
0010
0010
0010
0010
,
0100
0001
1000
0010
,
1000
0100
1000
0100
,
1000
1000
1000
1000
,
0001
0100
0001
0100
,
0001
0001
0001
0001
,
1000
0010
0100
0001
,
0010
0100
1000
0001
,
1000
0100
0010
0001
,
0110
0000
0000
0000
,
2000
0000
3100
0000
,
1000
0001
0100
0000
,
0002
0000
0103
0000
,
0010
1000
0001
0000
,
2000
0000
3010
0000
,
0100
0001
0010
0000
,
0200
0000
0310
0000
,
1001
0000
0000
0000
,
0010
0010
0010
0010
,
1000
0001
0100
0000
,
0100
0100
0100
0100
,
0010
0001
1000
0000
,
1000
0001
1000
0001
,
1000
0100
0100
0000
,
1001
0000
0110
0000
,
2000
3200
0320
0032
,
0203
0000
0300
0000
;

//---------------dance-single - ----------------
#NOTES:
     dance-single:
     :
     Medium:
     6:
     0.385739,0.421357,0.348409,0.587941,0.000000,248.000000,216.000000,32.000000,54.000000,0.000000,0.000000,0.385739,0.421357,0.348409,0.587941,0.000000,248.000000,216.000000,32.000000,54.000000,0.000000,0.000000:
// measure 0
0000
0000
0000
0000
,  // measure 1
0000
0000
0000
0000
,  // measure 2
0000
0000
0000
0000
,  // measure 3
0020
0000
0130
0000
,  // measure 4
2000
0000
3100
0000
,  // measure 5
0002
0000
0103
0000
,  // measure 6
0020
1030
0200
0310
,  // measure 7
0001
0000
0100
0000
0010
1000
0001
1000
,  // measure 8
0100
1000
0100
0010
,  // measure 9
0011
0000
0000
1001
0000
0000
0000
0000
,  // measure 10
0001
0100
0010
0100
,  // measure 11
0101
0000
0000
1001
0000
0000
0000
2000
,  // measure 12
0000
3200
0000
2300
0000
3000
0000
0002
,  // measure 13
0000
0203
0000
0302
0000
0003
0000
0000
,  // measure 14
1000
0000
0100
0000
0010
0001
1000
0010
,  // measure 15
0100
0000
0002
2003
,  // measure 16
3010
1000
0100
1000
,  // measure 17
2010
0000
0000
3100
0000
0000
0010
0000
,  // measure 18
0001
0100
0001
0010
,  // measure 19
0120
0000
0000
0130
0000
0000
0000
0002
,  // measure 20
0000
2003
0000
3020
0000
0030
0000
0200
,  // measure 21
0000
0302
0000
2003
0000
3000
0000
0000
,  // measure 22
1000
0100
0010
0001
,  // measure 23
1001
0000
0000
0000
,  // measure 24
1001
0100
1000
0001
,  // measure 25
0010
0100
0010
0001
,  // measure 26
0110
1000
0010
0100
,  // measure 27
0001
0000
1000
0000
0100
0000
0000
1100
,  // measure 28
0000
0000
0000
1001
0000
0000
0000
0101
,  // measure 29
0000
0000
0000
1001
0000
0000
0000
0000
,  // measure 30
0200
0000
0320
0000
0032
0000
0000
1003
,  // measure 31
0000
0000
0000
0110
0000
0000
0000
0000
,  // measure 32
1100
1001
0101
0000
,  // measure 33
0220
0330
2002
3003
,  // measure 34
1010
1001
0011
0000
,  // measure 35
2002
3003
0220
0330
,  // measure 36
1000
0000
0001
0000
0100
0010
0100
0000
,  // measure 37
0001
0000
1000
0000
0100
0010
0100
0000
,  // measure 38
1000
0100
0001
0010
,  // measure 39
2000
3200
0320
0031
,  // measure 40
1001
0000
0110
0000
1001
0000
0000
1000
,  // measure 41
0000
1000
0000
0001
0000
0001
0000
0000
,  // measure 42
0110
0000
1001
0000
0110
0000
0000
0010
,  // measure 43
0000
0010
0000
0100
0000
0100
0000
0000
,  // measure 44
0001
0000
1000
0000
0001
0100
0010
0000
,  // measure 45
1000
0000
0001
0000
1000
0100
0010
0000
,  // measure 46
0002
2003
3020
0230
,  // measure 47
0301
0000
0000
0002
,  // measure 48
1003
0100
1000
0010
,  // measure 49
0100
0000
0001
0100
0010
0000
2000
0000
,  // measure 50
3100
0010
0001
0100
,  // measure 51
0010
0000
1000
0100
1000
0000
0002
0000
,  // measure 52
0103
0010
1000
0010
,  // measure 53
0100
0000
0001
0010
0100
0000
2000
0000
,  // measure 54
3100
0000
1001
0000
,  // measure 55
0002
0203
0320
2030
,  // measure 56
3100
1000
0001
1000
,  // measure 57
0001
0100
0010
1000
0001
0000
0000
0000
,  // measure 58
1000
0100
0010
0001
,  // measure 59
0001
0010
0100
1000
0001
0000
0000
0000
,  // measure 60
1000
0001
0100
0010
,  // measure 61
1000
0010
0100
0001
1000
0000
0000
0000
,  // measure 62
2100
0000
3002
0000
,  // measure 63
0203
0320
2030
3002
,  // measure 64
0023
0000
0030
0000
;
