#VERSION:0.83;
#TITLE:LONG TRAIN RUNNIN';
#SUBTITLE:(Ventura Mix);
#ARTIST:BUS STOP;
#TITLETRANSLIT:;
#SUBTITLETRANSLIT:;
#ARTISTTRANSLIT:;
#GENRE:;
#ORIGIN:;
#CREDIT:;
#BANNER:banner.png;
#BACKGROUND:bg.png;
#PREVIEWVID:;
#JACKET:jacket.png;
#CDIMAGE:;
#DISCIMAGE:;
#LYRICSPATH:;
#CDTITLE:;
#MUSIC:LONG TRAIN RUNNIN (Ventura Mix).mp3;
#OFFSET:-1.425001;
#SAMPLESTART:11.182000;
#SAMPLELENGTH:16.853001;
#SELECTABLE:YES;
#BPMS:0.000=172.010;
#STOPS:;
#DELAYS:;
#WARPS:;
#TIMESIGNATURES:0.000=4=4;
#TICKCOUNTS:0.000=4;
#COMBOS:0.000=1;
#SPEEDS:0.000=1.000=0.000=0;
#SCROLLS:0.000=1.000;
#FAKES:;
#LABELS:0.000=Song Start;
#BGCHANGES:;
#KEYSOUNDS:;
#ATTACKS:
;

//---------------dance-single - ----------------
#NOTEDATA:;
#CHARTNAME:;
#STEPSTYPE:dance-single;
#DESCRIPTION:;
#CHARTSTYLE:;
#DIFFICULTY:Medium;
#METER:6;
#RADARVALUES:0.446429,0.558333,0.645833,0.489583,0.010417,300.000000,238.000000,62.000000,47.000000,0.000000,0.000000,0.000000,0.000000,0.000000,0.446429,0.558333,0.645833,0.489583,0.010417,300.000000,238.000000,62.000000,47.000000,0.000000,0.000000,0.000000,0.000000,0.000000;
#CREDIT:;
#NOTES:
0000
0000
0000
0000
,
0000
0000
0000
0000
,
0000
0000
0000
0000
,
2000
0000
0000
3010
0000
0000
0110
0000
,
0200
0000
0000
0301
0000
0000
1001
0000
,
0002
0000
0000
0013
0000
0000
1100
0000
,
0110
0000
0000
1000
,
0001
0001
0100
0100
,
0010
0010
1000
2000
,
3001
0100
0001
0010
,
0001
0100
0010
0000
2000
0000
0000
0000
,
3010
0100
0001
0020
,
0031
0100
0010
2000
,
3001
0001
0010
0200
,
1300
1000
1001
0110
,
0102
1000
0100
2003
,
0100
0001
0100
3002
,
0103
0000
0000
0000
,
1001
0000
0000
0000
,
0012
0000
0000
0103
0000
0000
0110
0000
,
2010
0000
0000
3100
0000
0000
1001
0000
,
2100
0000
0000
3001
0000
0000
0101
0000
,
1001
0000
0000
0010
,
0001
0100
0010
1010
,
1000
0100
0010
0011
,
0001
1000
0010
0110
,
0001
0010
0001
0101
,
1001
0000
0000
0000
0100
0010
0100
0010
,
0100
0000
0110
0000
,
1000
0001
1000
0001
1000
0000
0000
0000
,
1001
0000
0000
0000
1000
0100
0010
0001
,
0012
1003
2010
3001
,
0102
1003
2100
3001
,
1001
0000
0110
0000
,
1100
1100
1100
1100
,
2100
0010
0001
3100
,
0001
1000
0001
0000
1000
0001
1000
0000
,
0102
1000
0010
0103
,
0100
0010
0100
0000
0010
0100
0010
0000
,
1000
0000
0000
0001
0000
0000
0100
0000
0020
0000
0000
0000
1030
0000
0000
0000
,
0100
0000
0000
0010
0000
0000
0001
0000
0100
0000
0000
0000
0001
0000
1000
0000
,
0010
0000
1001
0110
,
1001
0110
1001
0110
,
2010
0001
0100
3010
,
0012
1000
0100
0013
,
2001
3100
1002
0103
,
2000
3002
2003
3002
,
0203
0000
0000
0310
0000
0000
1010
0000
,
2010
0000
0000
3100
0000
0000
0011
0000
,
1002
0000
0000
0103
0000
0000
0110
0000
,
0201
0000
0000
0310
0000
0000
1000
0001
,
0200
0000
0000
0301
0000
1000
0100
0000
,
2000
0000
0000
3010
0000
0100
0001
0000
,
0002
0000
0000
0013
0000
0100
1000
0000
,
2002
0000
0000
0000
0000
3003
0000
0000
,
1000
0000
0010
0000
0100
0000
0001
0100
,
0010
0000
1000
0000
0100
0000
0010
0001
,
0100
0000
0010
0000
1000
0000
0100
0010
,
0002
0203
0320
2030
,
3100
1000
0010
0100
,
0001
1001
0001
0010
,
0001
0100
0010
1000
,
1001
0110
1100
0101
,
2001
3100
1002
0103
,
2001
3010
1002
0013
,
1001
0000
0000
0000
,
2001
0000
0000
0000
0000
0000
0000
0010
,
3010
0000
0000
0000
;

//---------------dance-single - ----------------
#NOTEDATA:;
#CHARTNAME:;
#STEPSTYPE:dance-single;
#DESCRIPTION:;
#CHARTSTYLE:;
#DIFFICULTY:Hard;
#METER:8;
#RADARVALUES:0.540179,0.663021,0.322917,0.197917,0.119792,363.000000,332.000000,31.000000,19.000000,0.000000,0.000000,0.000000,0.000000,0.000000,0.540179,0.663021,0.322917,0.197917,0.119792,363.000000,332.000000,31.000000,19.000000,0.000000,0.000000,0.000000,0.000000,0.000000;
#CREDIT:;
#NOTES:
0000
0000
0000
0000
,
0000
0000
0000
0000
,
0000
0000
0000
0000
,
1000
0000
0000
1000
0000
0000
1000
0000
0000
0000
0100
0000
0010
0000
0001
0000
,
0001
0000
0000
0001
0000
0000
0001
0000
0000
0000
1010
0000
0000
0000
1000
0000
,
0010
0000
0000
0010
0000
0000
0010
0000
0000
0000
1000
0000
0001
0000
0100
0000
,
0010
1000
0001
1000
0001
1000
0001
0000
,
1000
0000
0100
0000
1000
0000
0001
0001
,
0001
0000
0100
0000
0010
0000
0100
0100
,
0100
0000
0010
0000
1000
0000
0010
0010
,
0010
1000
0100
0010
0001
0100
0001
0010
,
0110
0000
0000
0000
1001
0000
0000
0000
1000
0000
0000
0100
0000
0000
1000
0000
,
0001
0000
0000
0000
0100
0000
0000
0000
0001
0000
0000
0010
0000
0000
0100
0000
,
1000
0000
0000
0000
0100
0000
0000
0000
1000
0000
0000
0010
0000
0000
0100
0000
,
0100
0000
0000
0000
0001
0000
0000
0000
1000
0000
0000
0000
0001
1000
0000
0000
,
0200
1300
2000
3010
,
0200
0301
0002
0013
,
2002
0000
3003
0000
,
2001
0000
0000
0000
,
3010
0000
0000
0010
0000
0000
0010
0000
0000
0000
1000
0000
0100
0000
0010
0000
,
0001
0000
0000
0001
0000
0000
0001
0000
0000
0000
0001
0000
0000
0000
0010
0000
,
1000
0000
0000
1000
0000
0000
1000
0000
0000
0000
1000
0000
0010
0000
0100
0000
,
0001
0100
0010
0100
0010
0100
0010
0000
,
0001
0000
0100
0000
0010
0000
1000
0100
,
1000
0000
0010
0000
0100
0000
0001
0010
,
0100
0000
0010
0000
0001
0000
1000
0010
,
0100
0001
0010
1001
,
0110
0000
0000
0000
1001
0000
0000
0000
1000
0000
0000
0010
0000
0000
0100
0000
,
0001
0000
0000
0000
0100
0000
0000
0000
0001
0000
0000
0010
0000
0000
0100
0000
,
1000
0000
0000
0000
0100
0000
0000
0000
1000
0000
0000
1000
0000
0000
0010
0000
,
0100
0001
1000
0012
,
0203
0310
0020
1030
,
2000
3100
0200
0310
,
2002
0000
3003
0000
,
0120
0000
0000
0000
,
0130
0001
0100
0010
1000
0100
1000
0000
,
1000
1000
1000
1001
,
0100
0001
0100
0010
1000
0100
0010
0000
,
0010
0010
0010
0011
,
0010
0000
0000
0001
0000
0000
1000
0000
0001
0000
0100
0000
0010
0000
0100
0000
,
0001
0000
0000
0010
0000
0000
0100
0000
1000
0000
0010
0000
0100
0000
0010
0000
,
1000
0000
2010
0100
,
3010
1100
0110
0011
,
0001
0100
0010
0100
0001
0010
0100
0000
,
0100
1000
0010
0100
0001
0010
0100
0000
,
1000
0100
1000
0000
0001
0100
0001
0000
,
1000
1000
0100
0100
0010
0010
0001
0001
,
1000
0000
0000
0001
0000
0000
1000
0000
0000
0000
0100
0000
0001
0000
0100
0000
,
1000
0000
0000
0010
0000
0000
0100
0000
0000
0000
0101
0000
0000
0000
1000
0000
,
0100
0000
0000
0010
0000
0000
1000
0000
0000
0000
0100
0000
0010
0000
0001
0000
,
0100
0000
0000
0001
0000
0000
1000
0000
0000
0000
1000
0000
0100
0000
0010
0000
,
0100
0000
0000
1000
0000
0000
0010
0000
0000
0000
0100
0000
0001
0000
0010
0000
,
0001
0000
0000
0100
0000
0000
0001
0000
0000
0000
1001
0000
0000
0000
0001
0000
,
0100
0000
0000
1000
0000
0000
0100
0000
0000
0000
0100
0000
0001
0000
0100
0000
,
1000
0000
0000
0100
0000
0000
0001
0000
0000
0000
1000
0000
0100
0000
1000
0000
,
0010
0000
0100
0000
0010
0000
1000
1000
,
0001
0000
0100
0000
0001
0000
0010
0010
,
0100
0000
1000
0000
1000
0000
0100
0100
,
1000
0001
0100
0001
0010
0100
0010
0001
,
1001
0000
0101
0000
1000
0100
1000
0010
,
0110
0000
1010
0000
0010
0001
1000
0010
,
0101
0000
1100
0000
0010
0001
1000
0100
,
0011
0000
1001
0000
1100
0000
1001
0001
,
0012
0010
0100
0100
,
1000
1000
2003
0010
,
3020
0000
0130
1000
,
0001
1000
0001
0100
0010
0100
0001
0100
,
1001
0000
0000
0000
;

//---------------dance-single - ----------------
#NOTEDATA:;
#CHARTNAME:;
#STEPSTYPE:dance-single;
#DESCRIPTION:;
#CHARTSTYLE:;
#DIFFICULTY:Easy;
#METER:3;
#RADARVALUES:0.269345,0.348958,0.062500,0.333333,0.000000,181.000000,175.000000,6.000000,32.000000,0.000000,0.000000,0.000000,0.000000,0.000000,0.269345,0.348958,0.062500,0.333333,0.000000,181.000000,175.000000,6.000000,32.000000,0.000000,0.000000,0.000000,0.000000,0.000000;
#CREDIT:;
#NOTES:
// measure 0
0000
0000
0000
0000
,  // measure 1
0000
0000
0000
0000
,  // measure 2
0000
0000
0000
0000
,  // measure 3
1000
1000
0010
0010
,  // measure 4
0100
0100
0001
0001
,  // measure 5
0010
0010
0100
0100
,  // measure 6
1001
0000
0000
0000
,  // measure 7
2000
0000
3000
0000
,  // measure 8
0020
0000
0030
0000
,  // measure 9
0200
0000
0300
0000
,  // measure 10
0002
0000
0003
0000
,  // measure 11
1000
1000
0001
0001
,  // measure 12
1000
1000
0001
0001
,  // measure 13
0100
0100
0010
0010
,  // measure 14
0100
0100
0010
0010
,  // measure 15
0020
0000
0000
0000
,  // measure 16
0000
0000
2030
0000
,  // measure 17
3002
0000
0003
0000
,  // measure 18
2000
0000
0000
0000
,  // measure 19
3001
0001
0100
0100
,  // measure 20
0001
0001
0010
0010
,  // measure 21
0100
0100
1000
1000
,  // measure 22
1001
0000
0000
0000
,  // measure 23
0002
0000
0003
0000
,  // measure 24
0200
0000
0300
0000
,  // measure 25
0020
0000
0030
0000
,  // measure 26
2000
0000
3000
0000
,  // measure 27
0100
0001
0100
0001
,  // measure 28
1000
0010
1000
0010
,  // measure 29
0100
0001
1000
0100
,  // measure 30
0010
0001
0100
0010
,  // measure 31
2000
0000
0000
0000
,  // measure 32
0000
0000
3002
0000
,  // measure 33
0023
0000
0030
0000
,  // measure 34
0200
0000
0000
0000
,  // measure 35
1300
1000
1000
1000
,  // measure 36
1000
1000
1000
1000
,  // measure 37
0010
0010
0010
0010
,  // measure 38
0010
0010
0010
0010
,  // measure 39
0200
0302
0203
0300
,  // measure 40
0020
2030
3020
0030
,  // measure 41
0110
0000
1000
0001
,  // measure 42
1000
0001
1000
0001
,  // measure 43
0100
0100
0100
0100
,  // measure 44
0010
0010
0010
0010
,  // measure 45
1000
1000
1000
1000
,  // measure 46
2000
0000
0000
0000
,  // measure 47
3100
0100
1000
1000
,  // measure 48
0001
0001
0010
0010
,  // measure 49
0001
0001
0100
0100
,  // measure 50
0010
0010
1001
0000
,  // measure 51
0100
0100
0010
0010
,  // measure 52
1000
1000
0001
0001
,  // measure 53
0100
0100
0001
0001
,  // measure 54
2000
0000
0000
0000
,  // measure 55
3001
0001
0001
0001
,  // measure 56
0001
0001
0001
0001
,  // measure 57
0001
0001
0001
0001
,  // measure 58
0001
0001
0001
0001
,  // measure 59
0022
0000
0000
0033
,  // measure 60
1000
0100
1000
0100
,  // measure 61
2200
0000
0000
3300
,  // measure 62
1000
0010
0100
0001
,  // measure 63
2000
0000
0000
0000
,  // measure 64
0000
0000
3020
0000
,  // measure 65
0230
0000
0300
0000
,  // measure 66
0002
0000
0000
0000
,  // measure 67
0013
0000
0000
0000
;
