#TITLE:JUST WANNA LOVE YOU;
#SUBTITLE:(S.T.F Remix);
#ARTIST:DJ KAYA feat. KEEN;
#TITLETRANSLIT:;
#SUBTITLETRANSLIT:;
#ARTISTTRANSLIT:;
#GENRE:;
#CREDIT:;
#BANNER:banner.png;
#BACKGROUND:bg.png;
#LYRICSPATH:;
#CDTITLE:cdtitle.png;
#MUSIC:JUST WANNA LOVE YOU (S.T.F Remix).mp3;
#OFFSET:-0.043000;
#SAMPLESTART:70.361824;
#SAMPLELENGTH:13.693010;
#SELECTABLE:YES;
#BPMS:0.000000=145.000000
;
#STOPS:
;
#BGCHANGES:;
#KEYSOUNDS:;
#ATTACKS:;

//---------------dance-single - ----------------
#NOTES:
     dance-single:
     :
     Hard:
     8:
     0.480392,0.536694,0.493203,0.367660,0.098641,375.000000,320.000000,55.000000,41.000000,0.000000,0.000000,0.480392,0.536694,0.493203,0.367660,0.098641,375.000000,320.000000,55.000000,41.000000,0.000000,0.000000:
0000
0000
0000
0000
,
0000
0000
0000
0000
,
0000
0000
0000
0000
,
0000
0000
0000
0000
,
2000
3100
0020
0031
,
0002
0103
0020
1030
,
1000
0100
0010
0000
0001
0100
0010
0000
,
1000
0000
0001
0000
0010
0000
0100
0000
1000
0000
0000
1001
0000
0000
0100
0000
,
0010
0101
1100
1100
,
0101
0000
0000
0000
0101
0000
0000
0000
1100
0000
0000
1000
0000
0000
0010
0000
,
1010
1010
0011
0011
,
1010
0000
0000
0000
1010
0000
0000
0000
0011
0000
0000
0001
0000
0000
1000
0000
,
1001
0110
1001
0110
,
1100
0000
0000
0000
0110
0000
0000
0000
0101
0000
0000
0010
0000
0000
0100
0000
,
1010
0110
0011
0110
,
2100
3020
0230
0302
,
0023
0000
0031
0000
,
1000
0000
0001
0000
0100
0001
0100
0010
,
1000
0100
0010
0000
0001
0000
0100
0000
,
0010
0000
1000
0000
0100
0010
0100
1000
,
0010
0100
0001
0000
0100
0000
0001
0000
,
0010
0100
1000
0100
0010
0001
0100
0000
,
0010
1000
0100
0010
,
0001
0010
0001
0100
0010
1000
0010
0000
,
0100
0010
0100
0000
1100
0000
0101
0000
,
1000
0010
1000
0000
0001
0100
0001
0000
,
1000
0100
1000
0010
0100
0001
0010
0000
,
0010
0001
0100
0000
0010
1000
0100
0000
,
0100
0010
0100
1000
0001
0100
0010
0000
,
2010
3100
0012
0103
,
0010
1000
0001
0000
0010
0001
1000
0000
,
0102
0013
2100
3010
,
0100
0010
1000
0000
1001
0000
0110
0000
,
2000
3002
0203
0320
,
2030
3200
0302
0203
,
2300
3002
2003
3002
,
0203
0000
0300
0110
,
0020
2030
3002
0023
,
0230
2300
3020
0032
,
0023
2030
3002
0203
,
0320
0000
0030
0110
,
1001
0000
0000
0000
,
0001
0010
0001
0000
1000
0010
1000
0000
,
0001
0100
0001
1000
1000
0100
0100
0000
,
1001
0000
1000
0001
1000
0000
0100
0010
,
0100
0000
0000
0000
0001
0000
1000
0000
0001
0000
0000
0100
0000
0000
0010
0000
,
1000
0010
0100
0000
0100
0001
1000
0000
,
1000
0010
1000
0000
0100
0001
1000
0000
,
0100
0010
0001
0100
0010
1000
0001
0000
,
1000
1010
0100
0101
,
1000
1000
0100
0000
0010
0100
1000
0001
,
0001
0000
0010
0100
0100
0010
0001
1000
,
0001
0000
0100
1000
1000
0100
0001
0100
,
1000
0000
0010
0000
0100
0000
0000
0000
0010
0000
0000
0001
0000
0000
0100
0000
,
0010
1000
0001
0000
0101
0000
0010
0000
,
1100
0000
0010
0000
0001
1000
0010
1000
,
0010
1001
0100
1001
,
2100
0001
0010
0100
,
3010
0000
0000
0010
0000
0000
0010
0000
1000
0000
0000
1000
0000
0000
1000
0000
,
0001
0000
0000
0001
0000
0000
0001
0000
0100
0000
0000
0100
0000
0000
0100
0000
,
0010
0000
0000
1001
0000
0000
0001
0000
0010
0000
0000
0001
0000
0000
0100
0000
,
0010
0000
0000
1001
0000
0000
0100
0000
0010
0000
0000
0001
0000
0000
1000
0000
,
0010
0000
0000
0110
0000
0000
0100
0000
0001
0000
0000
0011
0000
0000
0100
0000
,
1000
0000
0000
1100
0000
0000
1000
0000
0010
0000
0000
0101
0000
0000
1000
0000
,
0100
0000
0000
1001
0000
0000
0100
0000
0010
0000
0000
0110
0000
0000
1000
0000
,
0001
0000
0000
1100
0000
0000
0010
0000
0001
0000
0000
0101
0000
0000
0010
0000
,
2000
0000
3000
0000
;

//---------------dance-single - ----------------
#NOTES:
     dance-single:
     :
     Medium:
     5:
     0.367660,0.414290,0.251085,0.313856,0.008967,287.000000,259.000000,28.000000,35.000000,0.000000,0.000000,0.367660,0.414290,0.251085,0.313856,0.008967,287.000000,259.000000,28.000000,35.000000,0.000000,0.000000:
0000
0000
0000
0000
,
0000
0000
0000
0000
,
0000
0000
0000
0000
,
0000
0000
0000
0000
,
0002
0010
0100
0013
,
2000
0100
0010
3100
,
2000
3100
0002
0103
,
2000
3010
0002
0013
,
0100
0100
0100
1100
,
1000
1000
1000
1010
,
0010
0010
0010
0011
,
0001
0001
0001
0101
,
0100
0110
0010
0110
,
1000
1001
0001
1001
,
1000
0100
0010
0001
,
0001
0100
0010
1000
0001
0000
0110
0000
,
1001
0000
2000
3002
,
0203
0000
0310
1000
,
0010
0000
0100
0000
0001
0100
0001
0000
,
0020
0000
0130
1000
,
0100
0000
0010
0000
0001
0010
0100
1000
,
0002
0000
0023
0000
,
0130
0000
1000
0000
0100
0010
0001
0000
,
0200
0000
0320
0000
,
1030
0000
0100
0000
1000
0010
0100
0001
,
0100
0100
0010
0010
,
1000
0010
0100
0010
1000
0000
0100
0000
,
0010
0001
0010
0100
,
1000
0100
0010
0001
0100
0000
0010
0000
,
1000
0100
0010
0100
,
1000
0010
0100
0001
0010
0000
0100
0000
,
0010
0001
0100
0010
,
1000
0001
0100
0000
0010
0000
0110
0000
,
2000
0010
3010
0100
,
0002
0010
0013
0100
,
0200
0010
0001
0010
,
0302
0000
0103
1001
,
2000
3100
0200
1300
,
2000
3001
0002
0103
,
0110
1001
0110
1001
,
0220
0000
0000
0330
,
1100
0000
0000
0000
,
0001
0100
0001
1000
,
0100
1000
0100
0010
,
0001
1000
1000
0000
0010
0100
0100
0000
,
0001
0010
0010
0000
0100
1000
1000
0000
,
0001
0100
1000
0010
,
0001
0100
0010
1000
,
0010
1000
0100
0000
0010
0001
0100
0000
,
0100
0001
1000
0000
0100
1000
0001
0000
,
0110
0100
0110
0010
,
1010
0100
0011
0100
,
1001
0000
2000
3200
,
2300
3002
0203
0320
,
2030
3000
0001
0001
,
0011
0000
0100
0100
,
1100
0000
1001
0000
,
0220
0000
0300
0000
,
1030
0000
0001
0000
1000
0100
0001
0000
,
0100
0000
1000
0000
0001
0010
1000
0000
,
0010
0000
0001
0000
0100
0010
1000
0000
,
0100
0000
0000
0000
0010
0000
0000
0000
0001
0000
0000
0010
0000
0000
0100
0000
,
1000
0000
0100
0000
0010
0001
1000
0000
,
0010
0000
1000
0000
0001
0100
0010
0000
,
1000
0001
0010
0000
0100
0010
0001
0000
,
0002
0000
0000
0000
0203
0000
0000
0000
0310
0000
0000
1000
0000
0000
0001
0000
,
0110
0000
0000
0000
;

//---------------dance-single - ----------------
#NOTES:
     dance-single:
     :
     Easy:
     4:
     0.251085,0.414290,0.134510,0.197281,0.000000,196.000000,181.000000,15.000000,22.000000,0.000000,0.000000,0.251085,0.414290,0.134510,0.197281,0.000000,196.000000,181.000000,15.000000,22.000000,0.000000,0.000000:
// measure 0
0000
0000
0000
0000
,  // measure 1
0000
0000
0000
0000
,  // measure 2
0000
0000
0000
0000
,  // measure 3
0000
0000
0000
0000
,  // measure 4
0002
0000
0103
0100
,  // measure 5
0200
0000
0310
0010
,  // measure 6
0020
0000
1030
1000
,  // measure 7
2000
0000
3001
0001
,  // measure 8
0100
0100
0001
0001
,  // measure 9
0100
0100
0010
0020
,  // measure 10
1030
1000
0100
0100
,  // measure 11
0010
0010
0001
0002
,  // measure 12
0103
0001
0010
0001
,  // measure 13
0100
0010
1000
0200
,  // measure 14
1300
0010
0100
0001
,  // measure 15
0100
0010
1000
0200
,  // measure 16
0310
0000
0110
0000
,  // measure 17
1000
0000
0001
0000
,  // measure 18
0100
0010
0100
0001
,  // measure 19
0010
0000
0100
0000
,  // measure 20
1000
0100
1000
0100
,  // measure 21
0010
0000
0001
0000
,  // measure 22
0100
0010
0100
0001
,  // measure 23
0010
0000
0100
0000
,  // measure 24
1001
0000
0110
0000
,  // measure 25
1000
1000
0010
0010
,  // measure 26
0100
0001
1000
0000
,  // measure 27
0001
0001
0010
0010
,  // measure 28
0001
0100
0010
0000
,  // measure 29
1000
0100
0001
0100
,  // measure 30
1000
0010
0100
0000
,  // measure 31
0001
0100
1000
0100
,  // measure 32
0001
0010
0100
0000
,  // measure 33
2000
0000
0000
0000
,  // measure 34
3020
0000
0000
0000
,  // measure 35
2030
0000
0000
0000
,  // measure 36
3002
0000
0000
0000
,  // measure 37
0023
0000
0000
0000
,  // measure 38
0230
0000
0000
0000
,  // measure 39
0302
0000
2003
0000
,  // measure 40
3200
0000
0000
0000
,  // measure 41
0310
0000
0000
0000
,  // measure 42
0110
0000
1000
0000
,  // measure 43
0001
0000
1000
0000
,  // measure 44
0100
0000
0010
0000
,  // measure 45
0001
0010
0100
1000
,  // measure 46
0001
0000
0100
0000
,  // measure 47
0010
0000
1000
0000
,  // measure 48
0010
0000
0100
0000
,  // measure 49
0001
0100
0010
1000
,  // measure 50
0100
0000
0010
0001
,  // measure 51
0010
0000
0100
1000
,  // measure 52
0100
0000
0010
1000
,  // measure 53
0001
0000
0010
0001
,  // measure 54
1000
0000
0010
1000
,  // measure 55
0001
0010
0001
0100
,  // measure 56
0010
1000
0100
0010
,  // measure 57
0200
0000
0000
0000
,  // measure 58
1300
0100
0020
0001
,  // measure 59
0031
0100
0020
1000
,  // measure 60
1030
0100
2000
0010
,  // measure 61
3010
0100
0002
0100
,  // measure 62
0103
0110
0010
0110
,  // measure 63
1000
1001
0001
1001
,  // measure 64
1100
0000
0101
0000
,  // measure 65
1001
0110
1001
0110
,  // measure 66
1001
0000
0000
0000
;
