#TITLE:I DON'T KNOW WHAT'S COOL ANYMORE;
#SUBTITLE:(Initial Talk Remix);
#ARTIST:ALPHABEAT;
#TITLETRANSLIT:;
#SUBTITLETRANSLIT:;
#ARTISTTRANSLIT:;
#GENRE:;
#CREDIT:;
#BANNER:banner.png;
#BACKGROUND:bg.png;
#LYRICSPATH:;
#CDTITLE:;
#MUSIC:I DON'T KNOW WHAT'S COOL ANYMORE (Initial Talk Remix).mp3;
#OFFSET:-1.857000;
#SAMPLESTART:35.600002;
#SAMPLELENGTH:14.259999;
#SELECTABLE:YES;
#BPMS:0.000000=139.000000
;
#STOPS:140.000000=1.300000
;
#BGCHANGES:;
#KEYSOUNDS:;
#ATTACKS:;

//---------------dance-single - ----------------
#NOTES:
     dance-single:
     :
     Medium:
     6:
     0.414432,0.423995,0.476741,0.243442,0.000000,286.000000,239.000000,47.000000,24.000000,0.000000,0.000000,0.414432,0.423995,0.476741,0.243442,0.000000,286.000000,239.000000,47.000000,24.000000,0.000000,0.000000:
// measure 0
0000
0000
0000
0000
,  // measure 1
0000
0000
0000
0000
,  // measure 2
0000
0000
0000
0000
,  // measure 3
1001
0000
0010
0010
,  // measure 4
1000
0000
0001
0000
1000
0100
0010
0000
,  // measure 5
0001
0000
0001
0000
0001
0010
0100
0000
,  // measure 6
1000
1100
0001
0101
,  // measure 7
1000
0001
0100
0000
0001
1000
0100
0000
,  // measure 8
1000
0000
0100
0000
0010
0001
0100
0000
,  // measure 9
0010
0000
1000
0000
0001
1000
0010
0000
,  // measure 10
1000
0001
0100
0000
0100
0001
1000
0000
,  // measure 11
1000
0100
0010
0000
1001
0000
0000
0000
,  // measure 12
0102
1003
2100
3001
,  // measure 13
1000
0100
0010
0001
0100
0000
0110
0000
,  // measure 14
2010
3100
0012
0103
,  // measure 15
1000
0010
0100
0001
1000
0000
0110
0000
,  // measure 16
2100
3010
0102
0013
,  // measure 17
1000
0100
0010
0001
0100
0000
1010
0000
,  // measure 18
1000
0100
0010
0100
,  // measure 19
1000
0001
0100
0010
2000
0000
3002
0000
,  // measure 20
0103
0000
0010
0000
1000
0001
0100
0010
,  // measure 21
1000
0000
0100
0000
0010
0001
0100
0001
,  // measure 22
0010
0100
1000
0001
,  // measure 23
0101
1001
1010
1001
,  // measure 24
1000
0000
0100
0000
1000
0010
1000
0001
,  // measure 25
1000
0000
0010
0000
0001
0100
0001
1000
,  // measure 26
0001
0100
1000
0001
,  // measure 27
0101
1001
0011
1001
,  // measure 28
2000
3200
0320
0031
,  // measure 29
0101
1001
0002
0203
,  // measure 30
0320
1030
1100
1001
,  // measure 31
1000
0100
0010
0100
1000
0000
1001
0000
,  // measure 32
2000
3002
0203
0320
,  // measure 33
1030
0011
1001
1010
,  // measure 34
1001
0000
1000
0100
0010
0000
0001
0100
,  // measure 35
0010
0000
1000
0010
0100
0000
0001
0010
,  // measure 36
0100
0000
1000
0000
0001
0000
0100
0010
,  // measure 37
1000
0000
1000
0001
0100
0010
1000
0000
,  // measure 38
1001
0001
1001
0100
,  // measure 39
0110
0000
0001
0010
0100
0000
0100
1000
,  // measure 40
0001
0000
0100
0010
1000
0100
0010
0000
,  // measure 41
0011
1001
1010
1001
,  // measure 42
0011
0000
0001
0100
0010
1000
0000
0001
,  // measure 43
0001
0001
0200
0000
0301
0000
0001
1000
,  // measure 44
0010
1000
1100
0001
,  // measure 45
0101
0000
2000
0000
3100
0000
0010
0001
,  // measure 46
0100
0010
1010
0100
,  // measure 47
0101
2000
3100
0002
,  // measure 48
0103
0000
1000
0001
1000
0100
0010
0000
,  // measure 49
0001
0000
0100
0010
1000
0000
1000
0001
,  // measure 50
0010
1100
0101
0011
,  // measure 51
1010
2002
0000
0000
,  // measure 52
0000
3003
0000
0000
;

//---------------dance-single - ----------------
#NOTES:
     dance-single:
     :
     Easy:
     4:
     0.282567,0.370996,0.243442,0.446311,0.000000,195.000000,171.000000,24.000000,44.000000,0.000000,0.000000,0.282567,0.370996,0.243442,0.446311,0.000000,195.000000,171.000000,24.000000,44.000000,0.000000,0.000000:
// measure 0
0000
0000
0000
0000
,  // measure 1
0000
0000
0000
0000
,  // measure 2
0000
0000
0000
0000
,  // measure 3
2000
0000
0000
0000
,  // measure 4
3001
0000
0100
0000
,  // measure 5
0010
0000
1000
0000
,  // measure 6
1000
0100
0010
0001
,  // measure 7
1001
0000
0100
0000
,  // measure 8
0010
1000
0010
0100
,  // measure 9
0110
0000
1001
0000
,  // measure 10
1000
0100
0001
0100
,  // measure 11
1000
0010
0101
0000
,  // measure 12
2000
3000
0002
0003
,  // measure 13
0200
0300
0002
0003
,  // measure 14
1000
0100
1000
0000
,  // measure 15
0001
0010
0001
0100
,  // measure 16
0020
0030
2000
3000
,  // measure 17
0002
0003
0200
0300
,  // measure 18
0010
0010
0010
0010
,  // measure 19
1001
0000
1001
0000
,  // measure 20
2000
0100
3100
0010
,  // measure 21
0002
0100
0103
0010
,  // measure 22
2000
0010
3010
0100
,  // measure 23
0002
0023
0230
2300
,  // measure 24
3001
0001
1000
1000
,  // measure 25
0010
0010
0100
0100
,  // measure 26
0010
0010
1000
0100
,  // measure 27
0020
0230
2300
3002
,  // measure 28
0103
1001
0010
1001
,  // measure 29
1000
1001
0001
1001
,  // measure 30
0100
0110
0010
0110
,  // measure 31
2000
3002
0023
0230
,  // measure 32
1300
1100
0001
0101
,  // measure 33
1000
1010
0001
0011
,  // measure 34
0100
1001
0010
1001
,  // measure 35
0110
1000
0100
2000
,  // measure 36
3001
0100
0010
0200
,  // measure 37
0310
1000
0010
0100
,  // measure 38
0001
0100
0110
0010
,  // measure 39
0110
2000
3010
0200
,  // measure 40
0301
0001
0100
0010
,  // measure 41
1000
0200
0310
0002
,  // measure 42
1003
0100
0010
1000
,  // measure 43
1000
0002
0203
0320
,  // measure 44
2030
3100
0100
0100
,  // measure 45
0100
2000
3200
0320
,  // measure 46
0032
0103
0100
0100
,  // measure 47
0100
0020
1030
0002
,  // measure 48
0103
1000
0100
0010
,  // measure 49
0001
0200
0310
2000
,  // measure 50
3001
0100
0100
1001
,  // measure 51
1001
0220
0000
0000
,  // measure 52
0000
0330
0000
0000
;

//---------------dance-single - ----------------
#NOTES:
     dance-single:
     :
     Hard:
     7:
     0.459352,0.450495,0.263729,0.192725,0.005072,317.000000,291.000000,26.000000,19.000000,0.000000,0.000000,0.459352,0.450495,0.263729,0.192725,0.005072,317.000000,291.000000,26.000000,19.000000,0.000000,0.000000:
// measure 0
0000
0000
0000
0000
,  // measure 1
0000
0000
0000
0000
,  // measure 2
0000
0000
0000
0000
,  // measure 3
2001
0000
0100
0100
,  // measure 4
3001
0000
0100
0000
0010
1000
0001
0000
,  // measure 5
1000
0100
0010
0001
0100
0010
1000
0000
,  // measure 6
0020
1030
0002
0103
,  // measure 7
0001
0000
0010
0000
0100
1000
0001
0000
,  // measure 8
1000
0100
0010
0100
0010
0001
0100
0000
,  // measure 9
0020
1030
0002
0013
,  // measure 10
0100
1000
0001
0000
0001
1000
0100
0000
,  // measure 11
1000
0100
0001
0100
1000
0010
0200
0000
,  // measure 12
0302
0103
2000
3100
,  // measure 13
1000
0100
0010
0001
0100
0000
1001
0000
,  // measure 14
0010
0010
1000
0000
0001
0001
0100
0000
,  // measure 15
1000
0100
0010
0011
0000
0001
0100
0010
,  // measure 16
1000
0001
0001
0000
0100
0010
0010
1000
,  // measure 17
0000
0001
1000
0100
0010
0100
1000
0000
,  // measure 18
1000
0100
1000
0010
0100
0010
1000
0000
,  // measure 19
1000
0000
1000
0000
0100
0000
0010
0001
0000
0000
0100
0000
0010
0000
1000
0000
,  // measure 20
0002
0000
0203
0000
0320
0000
1030
0001
,  // measure 21
0100
0000
1001
0000
0001
1000
0100
0010
,  // measure 22
0001
0000
1001
0000
1000
0010
0100
0001
,  // measure 23
2000
0000
3100
1000
0000
0010
0000
0100
,  // measure 24
0002
0000
2003
0000
3200
0000
0310
0001
,  // measure 25
0100
0000
1001
0000
0010
1000
0100
1000
,  // measure 26
0001
0000
0011
0000
0001
0010
0100
0010
,  // measure 27
0002
0000
1003
0001
0000
0010
0000
0100
,  // measure 28
1100
0000
1001
0000
0101
0000
1000
0001
,  // measure 29
0100
0010
0100
0000
0001
0010
0100
0010
,  // measure 30
0001
1000
0100
0000
1000
0100
0001
0100
,  // measure 31
2000
0000
3001
0101
0000
1010
0000
0001
,  // measure 32
0011
0000
1001
0000
1010
0000
1000
0001
,  // measure 33
0010
0100
0010
0000
0001
0100
1000
0100
,  // measure 34
0001
0010
0100
0000
1000
0100
0010
0100
,  // measure 35
1001
0000
0110
0000
1000
0100
1000
0010
,  // measure 36
0100
0000
0001
0010
0001
0100
0010
1000
,  // measure 37
0010
0000
0100
0001
1000
0000
0100
1000
,  // measure 38
0001
0000
0100
0001
1000
0010
0100
0001
,  // measure 39
1000
0100
0010
0010
0001
0000
0100
0100
,  // measure 40
0010
0000
1000
0100
1000
0010
0100
0001
,  // measure 41
0010
0000
0100
1000
0100
0010
0001
0100
,  // measure 42
0010
1000
0100
0010
0010
0001
0000
1000
,  // measure 43
0001
0100
0101
0000
1001
0000
0001
1000
,  // measure 44
0010
0000
1000
0001
0100
0010
0100
0001
,  // measure 45
1000
0000
1100
0000
0011
0000
1000
0010
,  // measure 46
0100
0000
0001
0010
0100
1000
0010
0100
,  // measure 47
0010
0000
1000
0100
0010
0001
0100
0010
,  // measure 48
1000
0000
0001
1000
0100
0001
0100
1000
,  // measure 49
0001
0000
1000
0010
0100
0000
0100
0001
,  // measure 50
1000
1100
1001
0101
,  // measure 51
1001
0220
0000
0000
,  // measure 52
0000
0330
0000
0000
;
