#TITLE:HYSTERIA;
#SUBTITLE:(FROM NONSTOP MEGAMIX);
#ARTIST:NAOKI 190;
#TITLETRANSLIT:;
#SUBTITLETRANSLIT:;
#ARTISTTRANSLIT:;
#GENRE:;
#CREDIT:;
#BANNER:banner.png;
#BACKGROUND:bg.png;
#CDTITLE:cdtitle.png;
#LYRICSPATH:;
#MUSIC:HYSTERIA (FROM NONSTOP MEGAMIX).mp3;
#OFFSET:0.057000;
#SAMPLESTART:70.760002;
#SAMPLELENGTH:15.000000;
#SELECTABLE:YES;
#DISPLAYBPM:196.000000;
#BPMS:0.000000=196.199997
,70.000000=392.399994
,78.000000=196.199997
,233.000000=392.399994
,241.000000=196.199997
;
#STOPS:172.000000=0.300000
;
#BGCHANGES:;
#KEYSOUNDS:;
#ATTACKS:;

//---------------dance-single - ----------------
#NOTES:
     dance-single:
     :
     Hard:
     9:
     0.648569,0.645103,0.626902,0.222449,0.000000,449.000000,387.000000,62.000000,22.000000,0.000000,0.000000,0.648569,0.645103,0.626902,0.222449,0.000000,449.000000,387.000000,62.000000,22.000000,0.000000,0.000000:
0000
0000
0000
0000
,
0000
0000
0000
0000
,
0000
0000
1002
0100
,
1003
0000
0000
0001
0100
1000
0100
0000
,
0101
0000
0000
0001
0010
0100
1000
0000
,
1010
0000
0000
1000
0100
1000
0010
0000
,
0011
0000
2010
0100
,
3010
0000
0000
0001
0100
0010
1000
0000
,
0110
0000
0000
1000
0100
0010
0100
0000
,
1001
0000
0000
0001
0100
0010
0100
0000
,
1010
0000
0001
1000
2010
0000
0100
0000
,
0010
0000
3100
0000
0001
0100
0010
1000
,
0001
0000
1000
0000
0100
0010
0001
0100
,
0010
1000
0001
0000
0001
0010
0100
1000
,
0100
0000
1100
0000
0101
0100
0010
1000
,
0100
0010
0001
0000
0001
0100
0010
1000
,
0010
1000
0100
0010
,
0001
0100
2002
0000
,
0000
0000
3000
0000
,
0203
0000
0301
1000
,
1000
0010
0100
0000
0001
0100
0010
1000
,
0100
0010
0001
0000
0001
0000
0100
0010
,
1000
0010
0100
0000
0001
1000
0100
0010
,
0001
1001
1000
0100
,
0010
0100
1000
0000
1000
0010
0100
0001
,
0010
0100
0010
0000
0001
0000
1000
0010
,
0100
0001
0010
0000
1100
0000
0101
0000
,
0011
1010
1001
0100
,
0010
1000
0100
0000
0010
0001
0100
0010
,
1000
1001
0001
0100
,
0010
1000
0100
0000
0010
0001
0100
0010
,
1000
0000
0110
0000
1000
0100
0010
0000
,
0100
0010
0001
0000
0001
0100
0010
0000
,
0100
0010
1000
0000
1000
0001
0100
0000
,
0001
1000
0100
0000
1002
0000
0000
0200
,
0000
0000
0003
0000
0310
0000
1000
0001
,
0000
0001
1000
0000
1000
0100
0010
0001
,
0000
0001
1000
0000
1001
0000
1000
0010
,
0000
0100
0001
0000
0001
0100
0010
1000
,
0000
1000
0100
0000
1000
0100
0010
0000
,
0100
0010
0001
0000
0001
0100
0010
1000
,
0100
0010
0001
0000
0001
0100
0010
1000
,
0100
0010
0001
0100
0001
0100
0001
0100
,
0001
0000
1001
0000
1000
0001
0100
0000
,
0010
1000
0100
0010
0001
0000
0101
0000
,
1100
0000
0000
0000
1000
0100
0010
0000
,
0001
0100
0001
0100
0010
0000
1001
0000
,
0000
0000
0000
0000
1000
0010
0100
0000
,
0100
0001
1000
0100
0010
0000
0011
0000
,
1100
0000
0000
0000
1000
0001
0100
0010
,
1000
1100
0101
1001
,
0110
2001
0100
3001
,
0000
1002
0100
1003
,
0000
2001
0010
3001
,
0000
1002
0010
1003
,
0000
2001
0010
3100
,
1000
2010
0100
3001
,
0001
0000
0100
0010
1000
0000
1000
0010
,
0100
2001
0000
0000
,
0000
0000
0000
3002
,
0000
0000
0103
0000
0001
0100
0010
0000
,
1000
0000
0100
0010
0001
0000
1100
0000
,
1010
0000
0001
0000
0100
0010
1000
0000
,
1000
0010
0100
0001
1000
0000
1001
0000
,
0000
0000
1000
0100
0010
0000
0001
0100
,
0010
0000
0010
1000
0001
0000
1100
0000
,
0101
0000
1001
0000
1000
0010
0100
0001
,
0010
0000
0100
1000
0001
0000
0110
0000
,
1100
0102
1003
2100
,
3001
0000
1000
0100
0010
0001
0200
0000
,
0310
0000
1000
0001
0010
0000
0001
1000
,
0010
0000
1000
0100
0010
0001
1001
0000
,
0110
0102
0013
2100
,
3010
0000
0001
1000
0010
0000
1000
0001
,
0010
0000
0001
1000
0010
0100
0002
0000
,
0013
0000
0100
1000
0100
1100
0000
0000
,
0001
0010
0001
0011
0000
0000
1001
0000
,
0110
0000
0100
0001
0010
1100
0000
0000
,
0100
0010
1000
0101
0000
0000
1001
0000
,
0110
0000
1000
0001
0001
0000
1010
0000
;

//---------------dance-single - ----------------
#NOTES:
     dance-single:
     :
     Medium:
     7:
     0.483899,0.564465,0.546012,0.495455,0.000000,335.000000,281.000000,54.000000,49.000000,0.000000,0.000000,0.483899,0.564465,0.546012,0.495455,0.000000,335.000000,281.000000,54.000000,49.000000,0.000000,0.000000:
0000
0000
0000
0000
,
0000
0000
0000
0000
,
0000
0000
0002
0000
,
0103
0000
0020
0000
,
1030
0000
2000
0000
,
3100
0000
0020
0000
,
0031
0000
0002
1000
,
1003
0000
2000
0001
,
3001
0000
0100
0010
,
1000
0100
0010
0001
,
1000
0000
0010
0100
0002
0000
1003
0000
,
2000
3100
0020
0031
,
1001
0000
0002
0103
,
0020
1030
2000
3001
,
0110
0000
0002
0013
,
0002
0013
2000
3100
,
2000
3100
1000
1100
,
0001
0101
2002
0000
,
0000
0000
0000
0000
,
3003
0000
0010
1000
,
0001
0000
0010
0000
0100
1000
0100
0000
,
0010
0001
0010
0000
0001
0000
1001
0000
,
1000
0000
1001
0000
1000
0001
0010
0000
,
0110
0000
1000
0010
,
1000
0000
0001
0000
0001
0010
0100
0000
,
1000
0100
0010
0000
1000
0000
1010
0000
,
0100
0101
2000
3200
,
0320
0032
0203
0310
,
2000
0000
3001
0000
1000
0001
1000
0001
,
1000
0000
0002
0013
,
0200
0000
1300
0000
0001
0010
0100
1000
,
0001
0000
1100
0001
,
1100
0001
0101
1000
,
0101
1000
0110
0100
,
0110
0100
0110
0010
,
0110
0000
1000
0100
,
1000
0010
0100
0001
,
0010
0100
1001
0000
,
0110
0000
1001
0000
,
0110
0000
1000
0100
,
0001
0010
1000
0100
,
0001
0010
0100
1000
,
0010
0000
0100
0000
0001
0000
1000
0001
,
1001
2010
3100
0012
,
0103
0000
1000
0000
0100
0000
0010
0001
,
0100
0210
0301
1020
,
0130
0000
1000
0001
0010
0000
1001
0000
,
0000
2100
3001
0102
,
1003
0000
1000
0000
0001
0000
0001
0010
,
0100
2001
3100
1002
,
0103
0000
1000
0001
0100
0010
1000
0000
,
0002
0203
0000
0310
,
0000
2000
0000
3001
,
0000
0020
0000
0130
,
0000
2000
0000
3100
,
0000
0002
0103
2000
,
3100
0002
0013
2000
,
3010
1000
0100
0010
,
0001
2002
0000
0000
,
0000
0000
0000
3003
,
0000
1001
0110
1001
,
0110
1000
0100
1000
,
0000
0101
1100
0101
,
1100
0001
1000
0010
,
0000
0101
0011
1100
,
1010
1000
0100
0010
,
0000
0101
0011
1010
,
1001
1000
0001
1001
,
0000
1000
1000
0100
,
0100
0000
1000
0100
0010
0001
0100
0000
,
1001
0001
0001
0100
,
0100
0000
0001
0100
0010
1000
0001
0000
,
0000
1000
0100
0010
,
0001
0100
0001
0010
,
0100
0000
1000
0100
1000
0000
0001
0100
,
0001
0000
2000
0000
0000
3010
0000
0000
,
0002
0000
0000
0103
0000
0000
1001
0000
,
0110
0000
2000
0000
0000
3100
0000
0000
,
0020
0000
0000
0031
0000
0000
1000
0000
,
0001
0000
1000
0001
0100
0000
0110
0000
;

//---------------dance-single - ----------------
#NOTES:
     dance-single:
     :
     Easy:
     5:
     0.332229,0.362870,0.252783,0.262894,0.000000,230.000000,205.000000,25.000000,26.000000,0.000000,0.000000,0.332229,0.362870,0.252783,0.262894,0.000000,230.000000,205.000000,25.000000,26.000000,0.000000,0.000000:
0000
0000
0000
0000
,
0000
0000
0000
0000
,
0000
0000
1001
0000
,
0100
0000
1001
0000
,
0010
0000
1001
0000
,
0100
0000
1001
0000
,
0010
0000
1001
0000
,
1000
0000
1001
0000
,
0001
0000
1001
0000
,
1000
0000
1001
0000
,
0001
2000
3020
0000
,
0130
0000
1000
0100
,
1100
0000
0002
0000
,
0103
0000
0001
0100
,
0101
0000
2000
0000
,
3001
0000
0100
0010
,
0110
0000
0002
0000
,
2003
0000
3002
0000
,
0000
0000
0000
0000
,
1003
0000
0001
0000
,
1000
0000
0100
0010
,
0001
0000
0100
0010
,
1000
0000
1000
0010
,
0100
0001
0010
0100
,
1000
0000
1000
0100
,
0010
0000
0010
0001
,
1000
0000
1000
0100
,
0010
0001
1001
0000
,
0100
0000
0010
0000
,
1000
0000
0001
0100
,
0010
0000
1000
0001
,
0100
0000
0002
0000
,
2003
0000
3020
0000
,
0230
0000
0302
0000
,
0023
0000
0130
0000
,
1001
0000
0110
0000
,
1000
0001
0100
0010
,
1000
0000
0100
0000
,
0010
0001
0100
0010
,
1000
0000
0001
0000
,
0100
0010
1000
0001
,
0010
0100
1000
0000
,
0001
0000
0100
0010
,
1001
2000
0000
3010
,
0000
0100
0010
1000
,
0001
0020
0000
0130
,
0000
1000
0100
0010
,
0001
2000
0000
3001
,
0000
0100
0010
1000
,
0001
0020
0000
0130
,
0000
1000
0001
0100
,
0010
0110
0000
1000
,
0000
0110
0000
0001
,
0000
1100
0000
0010
,
0000
0101
0000
0010
,
0000
1000
0100
1000
,
0000
0001
0100
0001
,
0000
1000
0100
0010
,
0001
2000
0000
0000
,
0000
0000
0000
3001
,
0000
0201
0000
0310
,
0000
1200
0000
0310
,
0000
1000
0001
0100
,
0010
1000
0100
0010
,
0000
1002
0000
1003
,
0000
2001
0000
3001
,
0000
0100
0010
1000
,
0100
0010
0001
1001
,
0000
1000
0100
1000
,
0100
0010
0001
0100
,
0000
0010
1000
0001
,
0010
0100
0010
0001
,
0000
1000
0001
0100
,
0010
1000
0100
0010
,
0000
0001
0100
0001
,
0010
0200
0000
0000
,
2300
0000
0000
3001
,
0100
0020
0000
0000
,
0230
0000
0000
0301
,
1000
0001
1000
1001
;
