#VERSION:0.83;
#TITLE:COME AND GET YOUR LOVE;
#SUBTITLE:;
#ARTIST:CHERRI;
#TITLETRANSLIT:;
#SUBTITLETRANSLIT:;
#ARTISTTRANSLIT:;
#GENRE:;
#ORIGIN:;
#CREDIT:;
#BANNER:banner.png;
#BACKGROUND:bg.png;
#PREVIEWVID:;
#JACKET:jacket.png;
#CDIMAGE:;
#DISCIMAGE:;
#LYRICSPATH:;
#CDTITLE:cdtitle.png;
#MUSIC:COME AND GET YOUR LOVE.mp3;
#OFFSET:-0.277001;
#SAMPLESTART:37.950020;
#SAMPLELENGTH:14.099999;
#SELECTABLE:YES;
#DISPLAYBPM:140.000000;
#BPMS:0.000=139.970;
#STOPS:;
#DELAYS:;
#WARPS:;
#TIMESIGNATURES:0.000=4=4;
#TICKCOUNTS:0.000=4;
#COMBOS:0.000=1;
#SPEEDS:0.000=1.000=0.000=0;
#SCROLLS:0.000=1.000;
#FAKES:;
#LABELS:0.000=Song Start;
#BGCHANGES:;
#KEYSOUNDS:;
#ATTACKS:
;

//---------------dance-single - ----------------
#NOTEDATA:;
#CHARTNAME:;
#STEPSTYPE:dance-single;
#DESCRIPTION:;
#CHARTSTYLE:;
#DIFFICULTY:Hard;
#METER:8;
#RADARVALUES:0.533607,0.484140,0.332457,0.117338,0.200452,382.000000,348.000000,34.000000,12.000000,0.000000,0.000000,0.000000,0.000000,0.000000,0.533607,0.484140,0.332457,0.117338,0.200452,382.000000,348.000000,34.000000,12.000000,0.000000,0.000000,0.000000,0.000000,0.000000;
#CREDIT:;
#DISPLAYBPM:140.000000;
#NOTES:
// measure 0
0000
0000
0000
0000
,  // measure 1
0000
0000
0000
0000
,  // measure 2
1000
0000
0100
0000
0010
0000
0001
0100
0000
0100
0000
0100
0001
0000
1000
0000
,  // measure 3
0100
0000
0100
0000
1000
0000
0001
0000
0010
0000
0000
0100
0000
0000
1000
0000
,  // measure 4
0001
0000
1000
0000
0010
0000
0100
0001
0000
0001
0000
0001
1000
0000
0100
0000
,  // measure 5
0010
0001
1000
0010
0100
0000
1001
0000
,  // measure 6
0001
0000
0010
0000
0100
0000
1000
0010
0000
0010
0000
0010
1000
0000
0001
0000
,  // measure 7
0010
0000
0001
0000
0100
0000
0010
0000
1000
0000
0000
0001
0000
0000
0010
0000
,  // measure 8
0100
0000
1000
0100
1000
0000
1001
0000
,  // measure 9
0001
0000
1000
0001
0000
1000
0001
0000
0100
0000
0100
0000
0002
0000
0000
0000
,  // measure 10
1003
0001
0000
1000
0000
0001
0000
1000
,  // measure 11
0000
0001
0000
1000
0000
0010
0010
0010
,  // measure 12
0010
0100
0000
0001
0000
0100
0000
0010
,  // measure 13
0000
1000
0000
0001
0010
0001
0100
0001
,  // measure 14
0010
0100
0000
1000
0000
0100
0000
0010
,  // measure 15
0000
0001
0000
0100
0000
0010
0010
0010
,  // measure 16
0010
1000
0000
0001
0000
0010
0000
0001
,  // measure 17
1000
0100
0010
0001
0010
0001
1000
0000
,  // measure 18
0012
1000
0100
1003
,  // measure 19
0100
0001
0100
0000
0100
0010
0100
0000
,  // measure 20
2100
0001
0100
3010
,  // measure 21
1001
0000
0000
0020
,  // measure 22
1030
0100
1000
0010
0100
0001
0010
0001
,  // measure 23
0100
0010
1000
0001
0100
0000
0101
0000
,  // measure 24
1000
0100
0010
0000
0100
0010
0001
0000
,  // measure 25
0001
0100
0010
0000
0110
0000
1001
0000
,  // measure 26
1000
0100
0001
0100
1000
0010
0001
0010
,  // measure 27
1000
0100
0010
0001
1000
0000
1001
0000
,  // measure 28
1000
0100
1000
0010
0100
0001
0010
0001
,  // measure 29
0100
1001
0010
1001
,  // measure 30
0010
0000
1000
0000
0001
0000
0100
0001
0000
0001
0000
0001
1000
0000
0100
0000
,  // measure 31
1000
0000
0100
0000
0010
0000
0100
0000
0010
0000
0000
0001
0000
0000
1000
0000
,  // measure 32
0001
0000
1000
0000
0010
0000
0100
0010
0000
0010
0000
0010
1000
0000
0001
0000
,  // measure 33
0010
0100
1000
0100
1000
0000
1001
0000
,  // measure 34
1000
0000
0001
0000
0100
0000
0010
1000
0000
1000
0000
1000
0001
0000
0010
0000
,  // measure 35
0001
0000
0100
0000
0010
0000
0100
0000
0001
0000
0000
1000
0000
0000
0100
0000
,  // measure 36
0010
0000
1000
0001
0101
0000
1010
0000
,  // measure 37
1000
0000
0100
0010
0000
0010
0001
0000
1000
0000
0010
0000
0200
0000
0000
0000
,  // measure 38
0301
0100
0001
0100
0001
0100
0001
0000
,  // measure 39
1001
0110
1001
0110
,  // measure 40
1000
0100
1000
0100
1000
0100
1000
0000
,  // measure 41
2002
0000
0000
3003
0000
0000
0000
0000
,  // measure 42
0001
0010
0001
0100
0010
1000
0001
0010
,  // measure 43
0100
0000
0000
1000
0000
0000
0001
0000
0010
0000
0000
0000
1000
0000
0100
0000
,  // measure 44
0010
0000
0000
0010
0000
0000
0001
0000
0100
0000
0000
0010
0000
0000
1000
0000
,  // measure 45
0001
0000
0000
0100
0000
0000
0010
0000
0110
0000
0000
0000
1001
0000
0000
0000
,  // measure 46
1000
0001
0010
0001
0100
0010
0010
1000
,  // measure 47
0010
0000
0000
0100
0000
0000
0001
0000
1000
0000
0000
0000
0110
0000
0000
0000
,  // measure 48
1000
0000
0000
0100
0000
0000
0010
0000
0001
0000
0000
0100
0000
0000
0010
0000
,  // measure 49
0100
0102
0023
0230
,  // measure 50
1300
0100
1000
0010
0100
0001
1000
0001
,  // measure 51
0010
0000
0000
0110
0000
0000
1000
0000
0100
0000
0000
0000
0010
0000
0001
0000
,  // measure 52
0100
0000
0000
1010
0000
0000
0010
0000
0100
0000
0000
0101
0000
0000
0001
0000
,  // measure 53
1000
0000
0000
1001
0000
0000
0001
0000
0010
0000
0000
0000
0110
0000
0000
0000
,  // measure 54
1000
0010
1000
0100
0010
0001
0010
0001
,  // measure 55
0100
0000
0000
0110
0000
0000
0010
0000
1000
0000
0000
0000
1001
0000
0000
0000
,  // measure 56
1000
0000
0000
1100
0000
0000
0010
0000
0001
0000
0000
0101
0000
0000
0010
0000
,  // measure 57
1000
0000
0000
0000
1001
0000
1000
0000
0001
0000
0000
0100
0000
0000
0010
0000
,  // measure 58
0220
0330
0000
0000
;

//---------------dance-single - ----------------
#NOTEDATA:;
#CHARTNAME:;
#STEPSTYPE:dance-single;
#DESCRIPTION:;
#CHARTSTYLE:;
#DIFFICULTY:Medium;
#METER:6;
#RADARVALUES:0.392522,0.484140,0.381347,0.322678,0.000000,281.000000,242.000000,39.000000,33.000000,0.000000,0.000000,0.000000,0.000000,0.000000,0.392522,0.484140,0.381347,0.322678,0.000000,281.000000,242.000000,39.000000,33.000000,0.000000,0.000000,0.000000,0.000000,0.000000;
#CREDIT:;
#DISPLAYBPM:140.000000;
#NOTES:
// measure 0
0000
0000
0000
0000
,  // measure 1
0000
0000
0000
0000
,  // measure 2
1000
0000
0001
0000
0100
0010
0100
0000
,  // measure 3
0001
0000
0010
0000
0100
1000
0100
0000
,  // measure 4
1000
0000
0001
0000
0100
0010
1000
0000
,  // measure 5
0002
0023
0230
2300
,  // measure 6
3001
0000
0100
0000
0001
0010
0100
0000
,  // measure 7
1000
0000
0100
0000
1000
0010
1000
0000
,  // measure 8
0001
0100
0010
1000
,  // measure 9
1001
0110
1001
0110
,  // measure 10
1000
0100
0010
0001
,  // measure 11
0010
0000
0100
0000
1000
0002
0000
0000
,  // measure 12
0103
0100
0001
0010
,  // measure 13
0001
0000
0100
0000
0010
0010
0010
0000
,  // measure 14
1000
0100
1000
0010
,  // measure 15
0100
0000
0010
0000
0100
0002
0000
0000
,  // measure 16
0103
0010
1000
0100
,  // measure 17
0010
0100
1000
0001
,  // measure 18
2000
3002
0103
0010
,  // measure 19
1000
0000
0100
0000
0010
0001
0100
0000
,  // measure 20
0200
0320
1030
0000
,  // measure 21
1001
0000
0100
1000
0001
0000
1001
0000
,  // measure 22
1000
1000
1000
1001
,  // measure 23
0001
0001
0001
0101
,  // measure 24
0100
0100
0100
0110
,  // measure 25
0010
0010
0010
1010
,  // measure 26
1000
0100
0010
0011
,  // measure 27
0001
0100
0010
1010
,  // measure 28
1000
1000
1000
0000
0001
0001
0001
0000
,  // measure 29
0100
0100
0100
0000
0010
0010
0010
0000
,  // measure 30
1000
0000
0001
0000
0100
0010
0100
0000
,  // measure 31
0001
0000
0010
0000
0100
1000
0001
0000
,  // measure 32
1000
0000
0010
0000
1000
0010
1000
0000
,  // measure 33
0001
0000
0100
0000
0001
0100
0001
0000
,  // measure 34
1000
0000
0100
0000
0010
0100
1000
0000
,  // measure 35
0001
0000
0100
0000
0001
0100
0001
0000
,  // measure 36
0001
1001
1000
1001
,  // measure 37
1000
0100
0010
0001
1000
0000
0110
0000
,  // measure 38
0002
0203
0320
2030
,  // measure 39
3001
0000
1001
0000
,  // measure 40
2000
3200
0320
0032
,  // measure 41
0203
0000
0000
0300
,  // measure 42
0001
0011
0100
1100
,  // measure 43
1000
1001
0010
0110
,  // measure 44
0101
0101
1100
1100
,  // measure 45
1001
0110
1001
0000
,  // measure 46
1000
0110
0001
0110
,  // measure 47
0100
1001
0010
1001
,  // measure 48
1010
1010
0101
0101
,  // measure 49
2000
3200
0302
0023
,  // measure 50
0130
1000
0002
0103
,  // measure 51
0010
1000
0001
0000
0101
0000
2000
0000
,  // measure 52
3001
0000
2000
0000
3010
0000
0100
0001
,  // measure 53
0100
0110
0110
0000
,  // measure 54
1000
0000
0100
0000
0010
0001
0100
0000
,  // measure 55
0001
0000
0100
0000
0010
1000
0001
0000
,  // measure 56
2000
3200
0320
0032
,  // measure 57
0203
0000
0301
0000
0100
0001
0100
0000
,  // measure 58
0220
0330
0000
0000
;

//---------------dance-single - ----------------
#NOTEDATA:;
#CHARTNAME:;
#STEPSTYPE:dance-single;
#DESCRIPTION:;
#CHARTSTYLE:;
#DIFFICULTY:Easy;
#METER:4;
#RADARVALUES:0.272391,0.284788,0.078225,0.127116,0.000000,195.000000,187.000000,8.000000,13.000000,0.000000,0.000000,0.000000,0.000000,0.000000,0.272391,0.284788,0.078225,0.127116,0.000000,195.000000,187.000000,8.000000,13.000000,0.000000,0.000000,0.000000,0.000000,0.000000;
#CREDIT:;
#DISPLAYBPM:140.000000;
#NOTES:
// measure 0
0000
0000
0000
0000
,  // measure 1
0000
0000
0000
0000
,  // measure 2
0001
0100
0001
0100
,  // measure 3
0001
1000
0001
1000
,  // measure 4
0100
1000
0100
1000
,  // measure 5
0001
1000
1001
0000
,  // measure 6
1000
0010
1000
0010
,  // measure 7
0100
0001
0100
0001
,  // measure 8
0010
0100
1000
0001
,  // measure 9
1000
0001
0100
0110
,  // measure 10
0000
1000
0000
0001
,  // measure 11
0000
0100
0000
0020
,  // measure 12
1030
0001
0000
0100
,  // measure 13
0000
0010
0000
1000
,  // measure 14
1001
0001
0000
0100
,  // measure 15
0000
0001
0000
2000
,  // measure 16
3001
0010
0000
0100
,  // measure 17
1000
0100
0010
0001
,  // measure 18
1001
0000
1000
0000
,  // measure 19
0001
0000
1000
0000
,  // measure 20
0110
0000
0001
0000
,  // measure 21
2000
0000
0000
3010
,  // measure 22
0100
0100
0001
0001
,  // measure 23
1000
1000
0020
1030
,  // measure 24
1000
0001
0001
0100
,  // measure 25
0100
0010
0010
0000
,  // measure 26
1000
1000
0100
0100
,  // measure 27
0010
0020
0031
0000
,  // measure 28
0001
0001
1000
1000
,  // measure 29
0010
0000
0100
0100
,  // measure 30
0001
1000
0001
1000
,  // measure 31
0010
0100
0010
0100
,  // measure 32
0001
1000
0100
0010
,  // measure 33
1000
0001
0010
0100
,  // measure 34
1000
0100
1000
0001
,  // measure 35
0100
0001
0010
0100
,  // measure 36
0010
0001
0100
0010
,  // measure 37
1000
0001
0100
1001
,  // measure 38
0020
0000
0000
0000
,  // measure 39
1030
1000
1000
1000
,  // measure 40
0200
0000
0000
0000
,  // measure 41
0301
0000
0000
0000
,  // measure 42
1000
0100
1000
0100
,  // measure 43
0010
0001
0010
0100
,  // measure 44
1000
0010
0100
0001
,  // measure 45
1000
0010
0110
0000
,  // measure 46
0001
0010
0001
0100
,  // measure 47
0010
1000
0001
0000
,  // measure 48
1000
0100
1000
0010
,  // measure 49
0200
0001
0001
0001
,  // measure 50
0301
0100
0001
0100
,  // measure 51
0010
0020
1030
1000
,  // measure 52
0001
0100
0001
0010
,  // measure 53
0100
1000
1001
0000
,  // measure 54
1000
0100
0010
0001
,  // measure 55
0100
0020
1030
0000
,  // measure 56
1000
0100
0001
0100
,  // measure 57
2000
0000
3020
0000
,  // measure 58
0230
0300
0000
0000
;
