#TITLE:BUTTERFLY;
#SUBTITLE:(Delaction Remix);
#ARTIST:SMiLE.dk;
#TITLETRANSLIT:;
#SUBTITLETRANSLIT:;
#ARTISTTRANSLIT:;
#GENRE:;
#CREDIT:;
#BANNER:banner.png;
#BACKGROUND:bg.png;
#LYRICSPATH:;
#CDTITLE:cdtitle.png;
#MUSIC:Butterfly (Delaction Remix).mp3;
#OFFSET:0.011000;
#SAMPLESTART:33.099998;
#SAMPLELENGTH:11.900000;
#SELECTABLE:YES;
#BPMS:0.000000=144.960007
;
#STOPS:
;
#BGCHANGES:;
#KEYSOUNDS:;
#ATTACKS:;

//---------------dance-single - ----------------
#NOTES:
     dance-single:
     :
     Hard:
     9:
     0.586733,0.540514,0.435899,0.019373,0.203419,424.000000,379.000000,45.000000,2.000000,0.000000,0.000000,0.586733,0.540514,0.435899,0.019373,0.203419,424.000000,379.000000,45.000000,2.000000,0.000000,0.000000:
// measure 0
0000
0000
0000
0000
,  // measure 1
0000
0000
0000
0000
,  // measure 2
1000
0100
1000
0001
,  // measure 3
1000
0001
0010
0001
0100
0000
0110
0000
,  // measure 4
0010
0000
0000
0000
1000
0000
0000
0000
0100
0000
1000
0100
0010
0000
0001
0000
,  // measure 5
1000
0010
0100
0000
0010
0000
1000
0000
0001
0000
0000
1000
0001
0000
0100
0000
,  // measure 6
0010
0000
0000
0000
1000
0000
0000
0000
0100
0000
0000
1000
0100
0000
1000
0000
,  // measure 7
0001
0100
0010
0000
1000
0000
0001
0000
1000
0000
0000
0000
1001
0000
1000
0000
,  // measure 8
0001
0000
0000
0000
0100
0000
0000
0000
0010
0000
0000
1000
0010
0000
1000
0000
,  // measure 9
0001
1000
0100
0000
1000
0000
0001
0000
0100
0000
0000
0000
0110
0000
0000
0000
,  // measure 10
0101
0000
0000
0000
1100
0000
0000
0000
1001
0000
0000
0001
0100
0000
0010
0000
,  // measure 11
1000
0100
0010
0000
0100
0000
1000
0000
0001
0000
0000
0000
1000
0000
0010
0000
,  // measure 12
0100
0000
0000
0001
0100
0000
0001
0000
1000
0000
0000
0000
1100
0000
0000
0000
,  // measure 13
1000
0000
0000
1000
0100
0000
0010
0000
0001
0000
0000
0000
0101
0000
0000
0000
,  // measure 14
1000
0100
0001
0100
1000
0100
0010
0000
,  // measure 15
0001
0100
1000
0100
0001
0100
0010
0000
,  // measure 16
1000
0000
0000
0001
0100
0000
0010
0000
0100
0000
0000
0000
0011
0000
0000
0000
,  // measure 17
1000
0000
0000
1000
0100
0000
1000
0000
0001
0000
0000
0000
1100
0000
0000
0000
,  // measure 18
1000
0010
0100
0010
1000
0100
1000
0000
,  // measure 19
0001
0010
0100
0010
0001
0100
0001
0000
,  // measure 20
1000
1100
1000
1001
,  // measure 21
0001
0101
0001
0000
,  // measure 22
1000
1010
1000
1001
,  // measure 23
0001
0000
0000
0000
0011
0000
0000
0000
0001
0000
0000
1000
0001
0000
0100
0000
,  // measure 24
0010
0110
1001
0110
,  // measure 25
0010
0110
1001
0000
,  // measure 26
1100
0000
0101
0000
1100
0000
1000
0001
,  // measure 27
0100
1000
0100
0010
2000
0000
0000
0000
,  // measure 28
3100
0000
0000
0000
0001
0000
0000
0000
0010
0000
0001
0010
0100
0000
1000
0000
,  // measure 29
0001
0100
0010
0000
0100
0000
0001
0000
1000
0000
0000
0001
1000
0000
0010
0000
,  // measure 30
0100
0000
0000
0000
0001
0000
0000
0000
0010
0000
0000
0001
0010
0000
0001
0000
,  // measure 31
1000
0010
0100
0000
0001
0000
1000
0000
0001
0000
0000
0000
1001
0000
0001
0000
,  // measure 32
1000
0000
0000
0000
0010
0000
0000
0000
0100
0000
0000
0001
0100
0000
0001
0000
,  // measure 33
1000
0001
0010
0000
0001
0000
1000
0000
0010
0000
0000
0000
0110
0000
0000
0000
,  // measure 34
1010
0000
0000
0000
0011
0000
0000
0000
1001
0000
0000
1000
0010
0000
0100
0000
,  // measure 35
0001
0010
0100
0000
0010
0000
0001
0000
1000
0000
0000
0000
0001
0000
0100
0000
,  // measure 36
0010
0000
0000
1000
0010
0000
1000
0000
0001
0000
0000
0000
0011
0000
0000
0000
,  // measure 37
0001
0000
0000
0001
0010
0000
0100
0000
1000
0000
0000
0000
1010
0000
0000
0000
,  // measure 38
0001
0010
1000
0010
0001
0010
0100
0000
,  // measure 39
1000
0010
0001
0010
1000
0010
0100
0000
,  // measure 40
0001
0000
0000
1000
0010
0000
0100
0000
0010
0000
0000
0000
1100
0000
0000
0000
,  // measure 41
0001
0000
0000
0001
0010
0000
0001
0000
1000
0000
0000
0000
0011
0000
0000
0000
,  // measure 42
0001
0100
0010
0100
0001
0010
0001
0000
,  // measure 43
1000
0100
0010
0100
1000
0010
1000
0000
,  // measure 44
1000
0100
0010
0100
1000
0100
0010
0001
,  // measure 45
1000
0001
0010
0001
1000
0000
0000
0000
,  // measure 46
0001
0010
0100
0010
0001
0010
0100
1000
,  // measure 47
0001
0000
1000
0000
0100
0000
1000
0000
0001
0000
0000
1000
0010
0000
0100
0000
,  // measure 48
0001
0100
1000
0100
0001
0100
1000
0000
,  // measure 49
1001
0110
1001
0000
,  // measure 50
1000
0100
0001
0100
1000
0100
0001
0000
,  // measure 51
0110
1001
0110
0000
,  // measure 52
1000
0000
0000
1000
0010
0000
0000
0000
0100
0000
0000
0100
0001
0000
0000
1000
,  // measure 53
0100
0000
0000
0001
0100
0000
0000
1000
0100
0000
0000
0000
1001
0000
0000
0000
,  // measure 54
0010
0000
0000
0000
1000
0000
0000
0000
0100
0000
1000
0100
0010
0000
0001
0000
,  // measure 55
1000
0010
0100
0000
0010
0000
1000
0000
0001
0000
0000
1000
0001
0000
0100
0000
,  // measure 56
0010
0000
0000
0000
1000
0000
0000
0000
0100
0000
0000
1000
0100
0000
1000
0000
,  // measure 57
0001
0100
0010
0000
1000
0000
0001
0000
1000
0000
0000
0000
1001
0000
1000
0000
,  // measure 58
0001
0000
0000
0000
0100
0000
0000
0000
0010
0000
0000
1000
0010
0000
1000
0000
,  // measure 59
0001
1000
0100
0000
1000
0000
0001
0000
0100
0000
0000
0000
0110
0000
0000
0000
,  // measure 60
0101
0000
0000
0000
1100
0000
0000
0000
1001
0000
0000
0001
0100
0000
0010
0000
,  // measure 61
1000
0100
0010
0000
0100
0000
1000
0000
0002
0000
0000
0000
0000
0000
0000
0000
,  // measure 62
0003
0000
0000
0000
;

//---------------dance-single - ----------------
#NOTES:
     dance-single:
     :
     Medium:
     5:
     0.326578,0.420400,0.193733,0.029060,0.000000,236.000000,216.000000,20.000000,3.000000,0.000000,0.000000,0.326578,0.420400,0.193733,0.029060,0.000000,236.000000,216.000000,20.000000,3.000000,0.000000,0.000000:
// measure 0
0000
0000
0000
0000
,  // measure 1
0000
0000
0000
0000
,  // measure 2
0110
0000
0100
0000
,  // measure 3
0010
0000
0100
0000
,  // measure 4
1000
0000
1000
0000
1000
0000
1000
0001
,  // measure 5
0010
0001
0100
0010
,  // measure 6
1000
0000
0001
0000
0100
0000
0100
0001
,  // measure 7
0010
0100
1000
0000
,  // measure 8
1100
0000
1001
0000
0101
0000
1000
0001
,  // measure 9
1000
0000
0100
0010
0100
0000
0000
0000
,  // measure 10
1010
1001
0011
1000
,  // measure 11
0100
0000
0010
0001
0100
0000
0000
0000
,  // measure 12
0001
0000
1000
0000
0010
0000
1000
0010
,  // measure 13
0100
0000
0001
0000
0010
0000
0100
1000
,  // measure 14
0001
0000
1001
0000
,  // measure 15
1000
0000
1001
0000
,  // measure 16
0001
0000
0100
0000
0001
0010
0100
0000
,  // measure 17
1000
0000
0100
0000
1000
0010
0100
0000
,  // measure 18
0100
0000
0110
0000
,  // measure 19
0010
0000
0110
0000
,  // measure 20
1000
0100
0001
0100
,  // measure 21
1000
0010
0001
0000
,  // measure 22
0010
1000
0100
1000
,  // measure 23
0001
0010
0100
0000
,  // measure 24
1000
0100
1000
0001
,  // measure 25
0010
0001
1000
0000
,  // measure 26
0010
0100
0010
0100
,  // measure 27
0001
0100
0020
0000
,  // measure 28
1030
0100
1000
0001
,  // measure 29
0001
0000
1000
0001
0100
0000
0000
0000
,  // measure 30
1000
0100
1000
0100
,  // measure 31
0010
0000
0001
0100
0001
0000
0000
0000
,  // measure 32
1000
0001
1000
0001
,  // measure 33
0010
0000
0100
0010
0001
0000
0000
0000
,  // measure 34
0001
1000
0001
1000
,  // measure 35
0010
0000
1000
0010
0100
0000
0000
0000
,  // measure 36
0001
0000
1000
0001
0100
0000
0000
0000
,  // measure 37
0010
1000
0001
0000
,  // measure 38
1001
0000
0110
0000
,  // measure 39
1001
0000
0110
0000
,  // measure 40
1000
0000
0001
1000
0010
0000
0000
0000
,  // measure 41
0100
0001
1000
0000
,  // measure 42
1001
0000
0110
0000
,  // measure 43
1001
0000
0110
0000
,  // measure 44
0001
0010
1000
0010
,  // measure 45
0001
0100
1000
0000
,  // measure 46
0100
0001
0010
0001
,  // measure 47
1000
0100
0010
0000
,  // measure 48
0001
0010
0001
1000
,  // measure 49
0100
1000
0001
0000
,  // measure 50
0100
0010
0100
0010
,  // measure 51
1000
0010
0200
0000
,  // measure 52
0301
1000
0100
0010
,  // measure 53
0100
0100
0100
1001
,  // measure 54
0001
0010
0001
1000
,  // measure 55
1000
0000
0001
1000
0010
0000
0000
0000
,  // measure 56
0001
0010
0001
0010
,  // measure 57
0100
0000
1000
0010
1000
0000
0000
0000
,  // measure 58
0001
1000
0001
1000
,  // measure 59
0100
0000
0010
0100
1000
0000
0000
0000
,  // measure 60
1000
0001
1000
0001
,  // measure 61
0100
0000
0001
0100
0020
0000
0000
0000
,  // measure 62
0030
0000
0000
0000
;

//---------------dance-single - ----------------
#NOTES:
     dance-single:
     :
     Easy:
     3:
     0.253236,0.300286,0.067806,0.077493,0.000000,183.000000,176.000000,7.000000,8.000000,0.000000,0.000000,0.253236,0.300286,0.067806,0.077493,0.000000,183.000000,176.000000,7.000000,8.000000,0.000000,0.000000:
// measure 0
0000
0000
0000
0000
,  // measure 1
0000
0000
0000
0000
,  // measure 2
1001
0000
0000
0000
,  // measure 3
0000
0000
0000
0000
,  // measure 4
0010
0010
0010
0000
,  // measure 5
1000
0000
1000
0000
,  // measure 6
0001
0001
0001
0000
,  // measure 7
0100
0010
0100
0010
,  // measure 8
1000
0000
1000
0000
,  // measure 9
0100
0100
0100
0000
,  // measure 10
0010
0000
0010
0000
,  // measure 11
0001
0100
0010
0000
,  // measure 12
1000
0000
0010
0000
,  // measure 13
0010
0000
0100
0000
,  // measure 14
0001
0100
1000
0100
,  // measure 15
0001
0010
1000
0000
,  // measure 16
0010
0000
0001
0000
,  // measure 17
0100
0000
0001
0000
,  // measure 18
1000
0010
0001
0010
,  // measure 19
1000
0100
0001
0000
,  // measure 20
0100
1000
1000
0001
,  // measure 21
0100
0010
1000
0000
,  // measure 22
1000
0001
0100
0001
,  // measure 23
0010
0100
1000
0000
,  // measure 24
0001
1000
0001
0100
,  // measure 25
0010
0100
0001
0000
,  // measure 26
1000
0100
0010
0000
,  // measure 27
0001
1000
1001
0000
,  // measure 28
1000
0010
1000
0000
,  // measure 29
0001
0100
0001
0000
,  // measure 30
1000
0000
0001
0000
,  // measure 31
1100
0000
0101
0000
,  // measure 32
1000
0001
0100
0010
,  // measure 33
1000
0100
0010
0000
,  // measure 34
0001
0010
0002
0000
,  // measure 35
1003
0100
2000
0000
,  // measure 36
3010
0010
0010
0000
,  // measure 37
0100
0100
0100
0000
,  // measure 38
0001
0100
1000
0100
,  // measure 39
0001
0010
1000
0000
,  // measure 40
0010
0001
1000
0000
,  // measure 41
1000
0010
0100
0000
,  // measure 42
0100
0001
0010
0001
,  // measure 43
0100
1000
0010
0000
,  // measure 44
1000
0100
0010
0001
,  // measure 45
1000
0001
0200
0000
,  // measure 46
0310
1000
0001
0000
,  // measure 47
1000
1000
2000
0000
,  // measure 48
3001
0001
0100
0000
,  // measure 49
0010
0010
1000
0000
,  // measure 50
1000
0100
0100
0010
,  // measure 51
0001
0001
1000
0000
,  // measure 52
2000
0000
3002
0000
,  // measure 53
0103
0100
0100
1001
,  // measure 54
0010
1000
0010
0010
,  // measure 55
0100
0001
0100
0000
,  // measure 56
1000
0100
0010
0010
,  // measure 57
0100
1000
0002
0000
,  // measure 58
1003
0000
1000
0000
,  // measure 59
0010
0000
0010
0000
,  // measure 60
0101
0000
1010
0000
,  // measure 61
1000
0001
0200
0000
,  // measure 62
0300
0000
0000
0000
;

//---------------dance-single - ----------------
#NOTES:
     dance-single:
     :
     Challenge:
     9:
     0.643469,0.630600,0.038747,0.145300,0.242166,465.000000,461.000000,4.000000,15.000000,0.000000,0.000000,0.643469,0.630600,0.038747,0.145300,0.242166,465.000000,461.000000,4.000000,15.000000,0.000000,0.000000:
// measure 0
0000
0000
0000
0000
,  // measure 1
0000
0000
0000
0000
,  // measure 2
1001
0000
0100
0000
,  // measure 3
0010
1000
0010
1000
0020
0000
1000
0000
,  // measure 4
0230
0000
0000
0000
0001
0000
0000
0000
0310
0000
0000
1000
0010
0000
0100
0000
,  // measure 5
0010
1000
0100
0000
0010
0000
0001
0000
0100
0000
0100
0001
0010
0000
0100
0000
,  // measure 6
2000
0000
0000
0000
0010
0000
0000
0000
3001
0000
0001
1000
0010
0000
0100
0000
,  // measure 7
0001
0010
0100
0000
1000
0000
0001
0000
0100
0000
0000
0000
1001
0000
0000
0000
,  // measure 8
0200
0000
0000
0000
0001
0000
0000
0000
0310
0000
0000
1000
0010
0000
0100
0000
,  // measure 9
0010
1000
0100
0000
0010
0000
0001
0000
0100
0000
0100
0001
0010
0000
0100
0000
,  // measure 10
2000
0000
0000
0000
0010
0000
0000
0000
3001
0000
0001
1000
0010
0000
0100
0000
,  // measure 11
0001
0010
0100
0000
1000
0000
0001
0000
0100
0000
0000
0000
0001
0000
0100
0000
,  // measure 12
0010
0000
1000
0010
0100
0000
0001
0000
0010
0000
0100
0000
1000
0000
0000
0000
,  // measure 13
1000
0000
0100
0000
0010
0000
0001
1000
0010
0000
0100
0000
0001
0000
0000
0000
,  // measure 14
1000
0000
0100
0000
0001
0000
0100
1000
0010
0000
1000
0000
0100
0000
0000
0000
,  // measure 15
0001
0000
0100
0000
1000
0000
0100
0001
0010
0000
0001
0000
0100
0000
0000
0000
,  // measure 16
1000
0000
0010
0000
0100
0000
0001
0100
0001
0000
1000
0000
0100
0000
0000
0000
,  // measure 17
0001
0000
0100
0000
0010
0000
1000
0010
1000
0000
0001
0000
0010
0000
0000
0000
,  // measure 18
1000
0001
1000
0001
1000
0001
1000
0010
,  // measure 19
0100
0000
0010
0000
0100
0000
0010
0000
0100
0000
0010
0100
0010
0000
0000
0000
,  // measure 20
1000
0100
0010
0001
0010
0001
0100
0010
,  // measure 21
1000
0010
0100
0001
0010
0100
0010
0001
,  // measure 22
0100
0010
0100
0001
0010
0100
1000
0010
,  // measure 23
1000
0000
0100
0000
0001
0000
0100
0000
1000
0000
0010
0100
0001
0000
0010
0000
,  // measure 24
0100
1000
0010
1000
0100
0010
0100
1000
,  // measure 25
0010
0100
0001
0010
0001
0100
0010
1000
,  // measure 26
0100
1000
0010
0100
0001
0010
0100
1000
,  // measure 27
0010
1000
0001
0100
0020
0000
0000
0000
,  // measure 28
0100
0000
0000
0000
1000
0000
0000
0000
0130
0000
0000
0001
0100
0000
0010
0000
,  // measure 29
0100
0001
0010
0000
0100
0000
1000
0000
0010
0000
0010
1000
0100
0000
0010
0000
,  // measure 30
0002
0000
0000
0000
0100
0000
0000
0000
1003
0000
1000
0001
0100
0000
0010
0000
,  // measure 31
1000
0100
0010
0000
0001
0000
1000
0000
0010
0000
0000
0000
1001
0000
0000
0000
,  // measure 32
0020
0000
0000
0000
1000
0000
0000
0000
0130
0000
0000
0001
0100
0000
0010
0000
,  // measure 33
0100
0001
0010
0000
0100
0000
1000
0000
0010
0000
0010
1000
0100
0000
0010
0000
,  // measure 34
0002
0000
0000
0000
0100
0000
0000
0000
1003
0000
1000
0001
0100
0000
0010
0000
,  // measure 35
1000
0100
0010
0000
0001
0000
1000
0000
0010
0000
0000
0000
0001
0000
0100
0000
,  // measure 36
0010
0000
1000
0010
0100
0000
0001
0000
0010
0000
0100
0000
1000
0000
0000
0000
,  // measure 37
1000
0000
0100
0000
0010
0000
0001
1000
0010
0000
0100
0000
0001
0000
0000
0000
,  // measure 38
1000
0000
0100
0000
0001
0000
0100
1000
0010
0000
1000
0000
0100
0000
0000
0000
,  // measure 39
0001
0000
0100
0000
1000
0000
0100
0001
0010
0000
0001
0000
0100
0000
0000
0000
,  // measure 40
1000
0000
0010
0000
0100
0000
0001
0100
0001
0000
1000
0000
0100
0000
0000
0000
,  // measure 41
0001
0000
0100
0000
0010
0000
1000
0010
1000
0000
0001
0000
0010
0000
0000
0000
,  // measure 42
1000
0001
1000
0001
1000
0001
1000
0010
,  // measure 43
0100
0000
0010
0000
0100
0000
0010
0000
0100
0000
0010
0100
0010
0000
0000
0000
,  // measure 44
1000
0100
0010
0001
0010
0001
0100
0010
,  // measure 45
1000
0010
0100
0001
0010
0100
0010
0001
,  // measure 46
0100
0010
0100
0001
0010
0100
1000
0010
,  // measure 47
1000
0000
0100
0000
0001
0000
0100
0000
1000
0000
0010
0100
0001
0000
0010
0000
,  // measure 48
0100
1000
0010
1000
0100
0010
0100
1000
,  // measure 49
0010
0100
0001
0010
0001
0100
0010
1000
,  // measure 50
0100
1000
0010
0100
0001
0010
0100
1000
,  // measure 51
0010
0000
0000
0000
0000
0000
0000
0000
0000
0000
0000
0000
0000
0000
0000
0000
0000
0000
0000
0000
0000
0000
0000
0000
1000
0000
0000
0000
0000
0000
0000
0000
0000
0000
0000
0000
0000
0000
0000
0000
0000
0000
0000
0000
0000
0000
0000
0000
0001
0000
0000
0000
0000
0000
0000
0000
0000
0000
0000
0000
0000
0000
0000
0000
0000
0000
0000
0000
0000
0000
0000
0000
0100
0000
0000
0000
0000
0000
0000
0000
0000
0000
0000
0000
0000
0000
0000
0000
0000
0000
0000
0000
0000
0000
0000
0000
0020
0030
0000
0000
0000
0000
0000
0000
0000
0000
0000
0000
0000
0000
0000
0000
0000
0000
0000
0000
0000
0000
0000
0000
0000
0000
0000
0000
0000
0000
0000
0000
0000
0000
0000
0000
0000
0000
0000
0000
0000
0000
0000
0000
0000
0000
0000
0000
0000
0000
0000
0000
0000
0000
0000
0000
0000
0000
0000
0000
0000
0000
0000
0000
0000
0000
0000
0000
0000
0000
0000
0000
0000
0000
0000
0000
0000
0000
0000
0000
0000
0000
0000
0000
0000
0000
0000
0000
0000
0000
0000
0000
0000
0000
0000
0000
,  // measure 52
1000
0000
0001
1000
0001
0000
1000
0000
0001
0000
1000
0001
1000
0000
0100
0000
,  // measure 53
0010
0000
0100
0010
0100
0000
0100
0000
0010
0000
0100
0010
0100
0000
0001
0000
,  // measure 54
0200
0000
0000
0000
0001
0000
0000
0000
0310
0000
0000
1000
0010
0000
0100
0000
,  // measure 55
0010
1000
0100
0000
0010
0000
0001
0000
0100
0000
0100
0001
0010
0000
0100
0000
,  // measure 56
2000
0000
0000
0000
0010
0000
0000
0000
3001
0000
0001
1000
0010
0000
0100
0000
,  // measure 57
0001
0010
0100
0000
1000
0000
0001
0000
0100
0000
0000
0000
1001
0000
0000
0000
,  // measure 58
0200
0000
0000
0000
0001
0000
0000
0000
0310
0000
0000
1000
0010
0000
0100
0000
,  // measure 59
0010
1000
0100
0000
0010
0000
0001
0000
0100
0000
0100
0001
0010
0000
0100
0000
,  // measure 60
2000
0000
0000
0000
0010
0000
0000
0000
3001
0000
0001
1000
0010
0000
0100
0000
,  // measure 61
0001
0010
0100
0000
1000
0000
0001
0000
0200
0000
0000
0000
0000
0000
0000
0000
,  // measure 62
0300
0000
0000
0000
;
