#TITLE:ARE YOU READY TO FLY;
#SUBTITLE:(Almighty Master Mix);
#ARTIST:ROZALLA;
#TITLETRANSLIT:;
#SUBTITLETRANSLIT:;
#ARTISTTRANSLIT:;
#GENRE:;
#CREDIT:;
#BANNER:banner.png;
#BACKGROUND:bg.png;
#LYRICSPATH:;
#CDTITLE:;
#MUSIC:ARE YOU READY TO FLY (Almighty Master Mix).mp3;
#OFFSET:-0.059000;
#SAMPLESTART:61.338005;
#SAMPLELENGTH:14.219993;
#SELECTABLE:YES;
#DISPLAYBPM:137.000000;
#BPMS:0.000000=137.000000
;
#STOPS:140.000000=1.300000
;
#BGCHANGES:;
#KEYSOUNDS:;
#ATTACKS:;

//---------------dance-single - ----------------
#NOTES:
     dance-single:
     :
     Hard:
     7:
     0.406935,0.445614,0.169221,0.404249,0.150418,303.000000,285.000000,18.000000,43.000000,0.000000,0.000000,0.406935,0.445614,0.169221,0.404249,0.150418,303.000000,285.000000,18.000000,43.000000,0.000000,0.000000:
// measure 0
0000
0000
0000
0000
,  // measure 1
0000
0000
0000
0000
,  // measure 2
0000
0000
0000
0000
,  // measure 3
0000
0000
0000
0000
,  // measure 4
2002
0000
0000
0003
,  // measure 5
0200
0000
0000
0300
,  // measure 6
0020
0000
0000
0030
,  // measure 7
0001
0100
0010
3001
,  // measure 8
0022
0000
0000
0030
,  // measure 9
0200
0000
0000
0300
,  // measure 10
2000
0000
0000
3000
,  // measure 11
0010
1000
0100
0013
,  // measure 12
0001
1000
0001
0010
0100
1000
0100
0000
,  // measure 13
1000
0100
1000
0010
0100
0001
0100
0000
,  // measure 14
0001
0100
0001
0001
1000
0010
1000
0000
,  // measure 15
1010
1100
0101
0011
,  // measure 16
1000
0100
1000
0010
0100
0010
0100
0000
,  // measure 17
0001
1000
0001
0010
0100
0010
0100
0000
,  // measure 18
1000
0100
0001
0100
1000
0010
2000
0000
,  // measure 19
3001
0000
0000
0100
0000
0000
0010
0000
1000
0000
0000
0001
0000
0000
0010
0000
,  // measure 20
0010
0000
0001
0000
0100
0000
0010
0000
1000
0000
0000
0001
0000
0000
1000
0000
,  // measure 21
0010
0000
0000
0100
0000
0000
0010
0000
0100
0000
0000
0001
0000
0000
1000
0000
,  // measure 22
0100
0000
0000
1000
0000
0000
0001
0000
0100
0000
0001
0000
0100
0000
0010
0000
,  // measure 23
0100
0000
0000
0001
0000
0000
1000
0000
1001
0000
0000
0000
0110
0000
0000
0000
,  // measure 24
1000
0000
0100
0000
1000
0000
0010
0000
0100
0000
0000
0001
0000
0000
0010
0000
,  // measure 25
0100
0000
0000
1000
0000
0000
0100
0000
1000
0000
0000
0001
0000
0000
0100
0000
,  // measure 26
0010
0000
0000
0100
0000
0000
0001
0000
1000
0000
0100
0000
0010
0000
0100
0000
,  // measure 27
1000
0000
0000
0010
0000
0000
0100
0000
0020
0000
0000
0000
2030
0000
0000
0000
,  // measure 28
3002
0000
0000
0000
1003
0100
0010
0001
,  // measure 29
0002
0000
0000
0000
0103
0010
1000
0001
,  // measure 30
0200
0000
0000
0000
0310
1000
0002
0000
,  // measure 31
0023
0000
0000
0000
0000
0000
0000
0000
0031
0000
0000
0100
0000
0000
0010
0000
,  // measure 32
2000
0000
0000
0000
3100
0010
0001
0100
,  // measure 33
0020
0000
0000
0000
1030
0100
2000
0000
,  // measure 34
3002
0000
0000
0000
0000
0000
0000
0000
0103
0000
0000
0001
0000
0000
1000
0000
,  // measure 35
1001
0000
1100
0000
2000
0100
3000
0020
,  // measure 36
0001
0030
0200
0010
0300
2000
0001
3000
,  // measure 37
0100
0000
0001
0000
1000
0000
0000
0001
0000
0000
1000
0000
0100
0000
0000
0010
,  // measure 38
0000
0001
0000
0001
0100
0000
0101
0000
,  // measure 39
1010
0000
2000
0100
3000
0200
0010
0300
,  // measure 40
0020
0100
0030
2000
0001
3000
0002
0000
,  // measure 41
0103
0000
0010
0000
1000
0000
0000
0001
0000
0000
0100
0000
0010
0000
0000
1000
,  // measure 42
0000
0000
0001
0000
0101
0000
0000
0000
1000
0000
0010
0000
0100
0000
0000
0001
,  // measure 43
0000
1000
0002
0000
0023
0100
0030
0200
,  // measure 44
1000
0300
2000
0001
3000
0002
0100
0003
,  // measure 45
0100
0000
0010
0000
1000
0000
0000
0010
0000
0000
1000
0000
0001
0000
0000
0100
,  // measure 46
0000
0010
1000
0000
1001
0000
0101
0000
,  // measure 47
0011
0000
0002
0010
0003
0020
0100
0030
,  // measure 48
0200
1000
0300
2000
0001
3000
0002
0100
,  // measure 49
0103
0000
0001
0000
1000
0000
0000
0001
0000
0000
1000
0000
0100
0000
0000
1000
,  // measure 50
0000
0000
0001
0000
0010
0000
0000
0001
0000
0000
0100
0000
0010
0000
0000
0000
,  // measure 51
0110
0000
0000
0000
0010
0000
1000
0000
0100
0000
0010
0000
0001
0000
0000
0001
,  // measure 52
0000
0000
0001
0000
0000
0000
0100
0000
0001
0000
0100
0000
0010
0000
0000
0010
,  // measure 53
0000
0000
0010
0000
0000
0000
1000
0000
0010
0000
1000
0000
0100
0000
0000
0010
,  // measure 54
0000
0001
2000
0000
3002
0000
0203
0000
,  // measure 55
0320
0000
0000
0000
1030
0000
0100
0000
1000
0000
0010
0000
0100
0000
0000
0100
,  // measure 56
0000
0000
0100
0000
0000
0000
0001
0000
0100
0000
0001
0000
0010
0000
0000
0100
,  // measure 57
0000
0000
1000
0000
0000
0000
0100
0000
1000
0000
0010
0000
0100
0000
0000
0001
,  // measure 58
0000
0000
1000
0000
0100
0000
0000
1000
0000
0000
0001
0000
0100
0000
0000
0001
,  // measure 59
0000
0010
0110
0000
0000
0000
0000
0000
;

//---------------dance-single - ----------------
#NOTES:
     dance-single:
     :
     Medium:
     6:
     0.302180,0.362062,0.244430,0.253831,0.009401,225.000000,199.000000,26.000000,27.000000,0.000000,0.000000,0.302180,0.362062,0.244430,0.253831,0.009401,225.000000,199.000000,26.000000,27.000000,0.000000,0.000000:
0000
0000
0000
0000
,
0000
0000
0000
0000
,
0000
0000
0000
0000
,
0000
0000
0000
0000
,
0020
0000
0000
0000
,
2030
0000
0000
0000
,
3200
0000
0000
0000
,
0320
0000
0000
0000
,
0032
0000
0000
0000
,
2003
0000
0000
0000
,
3002
0000
0000
0000
,
0103
0000
0000
0000
,
1000
0001
0100
0010
,
0100
0001
0100
0000
0001
1000
0001
0000
,
1000
0100
1000
0010
,
0100
0001
1000
0000
0100
1000
0001
0000
,
2000
3100
0200
0310
,
0002
0103
0200
0310
,
1000
0010
0100
0000
0100
0001
0010
0000
,
1000
0000
0000
0001
0000
0000
1000
0000
0001
0000
0000
1000
0000
0000
0001
0000
,
0100
0000
0001
0000
0100
0100
0100
0000
,
0010
0000
1000
0000
0010
0010
0010
0000
,
1000
0100
0020
0000
,
0002
0000
0033
0000
,
0001
0000
0010
0000
0100
1000
0001
0000
,
0100
0000
0010
0000
1000
0001
0010
0000
,
0100
0010
0200
0000
,
2000
0000
3300
0000
,
1001
0010
0000
1000
,
1001
0100
0000
0010
,
0110
0100
0000
0001
,
0011
0000
0100
0000
1000
0100
1000
0100
,
1100
0000
0000
1000
,
0101
0001
0000
0001
,
0110
1000
0000
1000
,
1001
1000
0001
1000
,
0001
0000
1000
0100
1000
0000
0001
0100
,
0001
1002
0100
0010
,
1000
2003
0100
0010
,
0001
0000
3100
0000
1000
0000
0001
0100
,
0001
0000
1000
0010
1000
0000
0001
0000
,
0010
0110
0100
0000
,
1001
0110
0000
0000
,
0000
0000
1000
0000
0001
0000
0010
0001
,
0100
0000
0010
1000
0010
0000
0100
0001
,
0100
0120
1000
0100
,
1000
0230
0010
0001
,
0010
0301
0001
0100
,
0100
0100
0100
0110
,
0000
1100
0000
0101
,
0000
1001
0100
0010
,
0100
2001
3100
1002
,
0103
2001
3010
1002
,
0013
1000
0100
0010
,
0001
0000
0100
0001
0100
0000
1001
0000
,
0000
2010
3100
0012
,
0103
2100
3010
0102
,
0013
0001
0010
0100
,
1000
0000
0001
1000
0010
0000
1000
0001
,
0010
0100
0000
0000
;

//---------------dance-single - ----------------
#NOTES:
     dance-single:
     :
     Easy:
     3:
     0.212197,0.334211,0.122215,0.188023,0.000000,158.000000,145.000000,13.000000,20.000000,0.000000,0.000000,0.212197,0.334211,0.122215,0.188023,0.000000,158.000000,145.000000,13.000000,20.000000,0.000000,0.000000:
0000
0000
0000
0000
,
0000
0000
0000
0000
,
0000
0000
0000
0000
,
0000
0000
0000
0000
,
1001
0000
0000
0000
,
0100
0000
0000
0000
,
0001
0000
0000
0000
,
1000
0000
0000
0000
,
0010
0000
0000
0000
,
1000
0000
0000
0000
,
0001
0000
0000
0000
,
0010
0000
0000
0000
,
2000
0000
0000
0000
,
3002
0000
0000
0000
,
0203
0000
0000
0000
,
0320
0000
2030
0000
,
3200
0000
0000
0000
,
0320
0000
0000
0000
,
0032
0000
0000
0000
,
0203
0000
0302
0000
,
1003
0000
0100
1000
,
0100
0000
0010
0001
,
0010
0000
0001
1000
,
0002
0000
0000
0000
,
1003
0000
1000
0010
,
0010
0000
1000
0100
,
0100
0000
0010
0010
,
0002
0000
0000
0000
,
0013
0010
0001
0001
,
0100
0100
0010
0010
,
2000
0000
3002
0000
,
0203
0000
0000
0000
,
0310
0010
1000
1000
,
0100
0100
0010
0010
,
0002
0000
0023
0000
,
0130
1000
1000
1000
,
1000
1000
1000
1000
,
1000
1001
1001
1001
,
0000
0100
0100
0100
,
0000
0001
0001
0001
,
0001
0001
0001
0001
,
0001
1001
1001
1001
,
0000
0010
0010
0010
,
0000
0100
0100
0100
,
0100
0100
0100
0100
,
0100
0110
0110
0110
,
0000
0001
0001
0001
,
0000
0010
0010
0010
,
0010
0010
0010
0010
,
0010
0110
0110
0110
,
0000
1000
1000
1000
,
0000
0001
0100
0001
,
0100
0010
1000
0010
,
1000
0100
1000
0010
,
0100
0002
0000
1003
,
0000
0001
0010
0001
,
0100
0010
0100
0001
,
0010
0100
1000
0100
,
0010
0002
0000
0023
,
0000
0130
0000
0000
;
