#VERSION:0.81;
#TITLE:V;
#SUBTITLE:-conclusion-;
#ARTIST:dj TAKA;
#TITLETRANSLIT:;
#SUBTITLETRANSLIT:;
#ARTISTTRANSLIT:;
#GENRE:;
#ORIGIN:;
#CREDIT:;
#BANNER:V -conclusion-.bn.png;
#BACKGROUND:V -conclusion-.bg.png;
#PREVIEWVID:;
#JACKET:V -conclusion-.jacket.png;
#CDIMAGE:;
#DISCIMAGE:;
#LYRICSPATH:;
#CDTITLE:;
#MUSIC:V -conclusion-.mp3;
#OFFSET:-0.440;
#SAMPLESTART:99.560;
#SAMPLELENGTH:12.000;
#SELECTABLE:YES;
#BPMS:0.000=150.000;
#STOPS:;
#DELAYS:;
#WARPS:;
#TIMESIGNATURES:0.000=4=4;
#TICKCOUNTS:0.000=4;
#COMBOS:0.000=1;
#SPEEDS:0.000=1.000=0.000=0;
#SCROLLS:0.000=1.000;
#FAKES:;
#LABELS:0.000=Song Start;
#BGCHANGES:;
#KEYSOUNDS:;
#ATTACKS:
;

//---------------dance-single - ----------------
#NOTEDATA:;
#CHARTNAME:;
#STEPSTYPE:dance-single;
#DESCRIPTION:;
#CHARTSTYLE:Pad;
#DIFFICULTY:Challenge;
#METER:15;
#RADARVALUES:1.000,1.000,1.000,1.000,1.000,1326.000,428.000,401.000,72.000,150.000,0.000,0.000,0.000,1.000,1.000,1.000,1.000,1.000,1326.000,428.000,401.000,72.000,150.000,0.000,0.000,0.000;
#CREDIT:xXMokou98Xx;
#NOTES:
// measure 0
0000
0000
0000
0000
,  // measure 1
2M22
0033
0000
0000
0000
0000
0000
0000
022M
0330
0000
0000
0000
0000
0000
0000
0M22
0033
0000
0000
0000
0000
0000
0000
02M2
0303
0000
0000
0000
0000
0000
0000
,  // measure 2
0M22
0033
0000
0000
0000
0000
0000
0000
022M
0330
0000
0000
0000
0000
0000
0000
0M22
0033
0000
0000
0000
0000
0000
0000
022M
0330
0000
0000
3001
0000
0000
0000
,  // measure 3
2M22
3003
0000
0000
0000
0000
0000
0000
M202
0303
0000
0000
0000
0000
0000
0000
2M02
3003
0000
0000
0000
0000
0000
0000
220M
3300
0000
0000
0000
0000
0000
0000
,  // measure 4
M202
0303
0000
0000
0000
0000
0000
0000
2M02
3003
0000
0000
0000
0000
0000
0000
M202
0303
0000
0000
0000
0000
0000
0000
220M
3300
0000
0000
0030
0000
0000
0000
,  // measure 5
2M22
3030
0000
0000
0000
0000
0000
0000
M220
0330
0000
0000
0000
0000
0000
0000
22M0
3300
0000
0000
0000
0000
0000
0000
M220
0330
0000
0000
0000
0000
0000
0000
,  // measure 6
2M20
3030
0000
0000
0000
0000
0000
0000
M220
0330
0000
0000
0000
0000
0000
0000
22M0
3300
0000
0000
0000
0000
0000
0000
2M20
3030
0000
0000
0003
0000
0000
0000
,  // measure 7
22M2
3003
0000
0000
0000
0000
0000
0000
202M
3030
0000
0000
0000
0000
0000
0000
20M2
3003
0000
0000
0000
0000
0000
0000
M022
0033
0000
0000
0000
0000
0000
0000
,  // measure 8
202M
3030
0000
0000
0000
0000
0000
0000
M022
0033
0000
0000
0000
0000
0000
0000
202M
3030
0000
0000
0000
0000
0000
0000
20M2
3003
0000
0000
0310
0000
0000
0000
,  // measure 9
22M2
0303
0000
0000
0000
0000
0000
0000
0M22
0033
0000
0000
0000
0000
0000
0000
02M2
0303
0000
0000
0000
0000
0000
0000
022M
0330
0000
0000
0000
0000
0000
0000
,  // measure 10
0M22
0033
0000
0000
0000
0000
0000
0000
02M2
0303
0000
0000
0000
0000
0000
0000
0M22
0033
0000
0000
0000
0000
0000
0000
022M
0330
0000
0000
3000
0000
0000
0000
,  // measure 11
2M22
3003
0000
0000
0000
0000
0000
0000
220M
3300
0000
0000
0000
0000
0000
0000
M202
0303
0000
0000
0000
0000
0000
0000
2M02
3003
0000
0000
0000
0000
0000
0000
,  // measure 12
220M
3300
0000
0000
0000
0000
0000
0000
M202
0303
0000
0000
0000
0000
0000
0000
2M02
3003
0000
0000
0000
0000
0000
0000
M202
0303
0000
0000
1030
0000
0000
0000
,  // measure 13
22M2
3003
0000
0000
0000
0000
0000
0000
M022
0033
0000
0000
0000
0000
0000
0000
20M2
3003
0000
0000
0000
0000
0000
0000
202M
3030
0000
0000
0000
0000
0000
0000
,  // measure 14
20M2
3003
0000
0000
0000
0000
0000
0000
M022
0033
0000
0000
0000
0000
0000
0000
202M
3030
0000
0000
0000
0000
0000
0000
20M2
3003
0000
0000
0310
0000
0000
0000
,  // measure 15
2M22
3030
0000
0000
0000
0000
0000
0000
M220
0330
0000
0000
0000
0000
0000
0000
22M0
3300
0000
0000
0000
0000
0000
0000
M220
0330
0000
0000
0000
0000
0000
0000
,  // measure 16
2M20
3030
0000
0000
0000
0000
0000
0000
M220
0330
0000
0000
0000
0000
0000
0000
22M0
3300
0000
0000
0000
0000
0000
0000
2M20
3030
0000
0000
0103
0000
0000
0000
,  // measure 17
2200
3300
2020
3030
0220
0330
0202
0303
,  // measure 18
2002
3003
2020
3030
0202
0303
0022
0033
,  // measure 19
0220
0330
2200
3300
2002
3003
0202
0303
,  // measure 20
0001
0100
0001
0100
1000
0100
1000
0100
,  // measure 21
0010
1000
0001
0010
0100
1000
0010
0100
,  // measure 22
0001
0010
0001
1000
0010
0100
0001
1000
0100
0010
0001
1000
0001
0010
1000
0010
,  // measure 23
0002
0000
0000
0200
0300
2000
3000
0003
0002
0000
0000
0200
0300
2000
3000
0003
,  // measure 24
0010
1000
0001
1000
0100
0010
0100
1000
0010
1000
0001
1000
0100
0010
0100
1000
,  // measure 25
0001
0100
0001
1000
0001
0100
0001
1000
0001
0100
0001
1000
0001
0100
0001
1000
,  // measure 26
1001
0000
0100
1000
0010
0000
0100
0000
0110
0000
0001
1000
0100
0000
0010
0000
,  // measure 27
0011
0000
0001
1000
0010
0000
0100
0000
0101
0000
0100
0010
1000
0000
0001
0000
,  // measure 28
2000
0000
0000
0020
0030
0002
0003
3000
2000
0000
0000
0020
0030
0002
0003
3000
,  // measure 29
0100
0001
1000
0001
0010
0100
0010
0001
0100
0001
1000
0001
0010
0100
0010
0001
,  // measure 30
1000
0010
1000
0001
1000
0010
1000
0001
1000
0010
1000
0001
1000
0010
1000
0001
,  // measure 31
1001
0000
0010
0001
0100
0000
0010
0000
0110
0000
1000
0001
0010
0000
0100
0000
,  // measure 32
1100
0000
1000
0001
0100
0000
0010
0000
1010
0000
0010
0100
0001
0000
1000
0000
,  // measure 33
0200
0000
0000
0020
0030
0002
0003
0300
0200
0000
0000
0020
0030
0002
0003
0300
,  // measure 34
1000
0010
1000
0001
0100
0001
0010
0001
1000
0010
1000
0001
0100
0001
0010
0001
,  // measure 35
1000
0100
0010
0100
1000
0100
0010
0100
1000
0100
0010
0100
1000
0100
0010
0100
,  // measure 36
1000
0010
1000
0010
1000
0010
1000
0010
1000
0010
1000
0010
1000
0010
1000
0010
0100
0000
0000
0000
0000
0000
0000
0000
0110
0000
0000
0000
0000
0000
0000
0000
,  // measure 37
0111
1101
1011
1111
,  // measure 38
1100
1010
1100
1010
0101
0011
0101
0011
,  // measure 39
1100
0000
0010
0100
0001
0000
1000
0000
0011
0000
1000
0001
0010
0000
0100
0000
,  // measure 40
1100
0000
0010
1000
0001
0000
0010
0000
0011
0000
0100
0010
1000
0000
0100
0000
,  // measure 41
0110
0000
0001
1000
0010
0000
0100
0000
1010
0000
1000
0001
0010
0000
0001
0000
,  // measure 42
0110
0000
0010
1000
0001
0000
1000
0000
1010
0000
1000
0001
0100
0000
0001
0010
,  // measure 43
0100
1000
0010
0100
0001
1000
0100
0010
0100
1000
0010
0100
0001
1000
0001
0010
,  // measure 44
0001
0000
1100
0011
1100
0011
1100
0011
1100
0000
2222
3333
2222
3333
2222
3333
,  // measure 45
1000
0100
0001
0100
1000
0010
0001
0010
,  // measure 46
1000
0000
0011
1100
0011
1100
0011
1100
0011
0000
2222
3333
2222
3333
2222
3333
,  // measure 47
0001
0010
1000
0010
0001
0100
1000
0100
,  // measure 48
0001
0000
1010
0101
1010
0101
1010
0101
1010
0000
2222
3333
2222
3333
2222
3333
,  // measure 49
1000
0010
0001
0010
1000
0100
0001
0100
,  // measure 50
1000
0000
0101
1010
0101
1010
0101
1010
0101
0000
2222
3333
2222
3333
2222
3333
,  // measure 51
0011
0000
0101
0000
1001
0000
1010
0000
1000
0100
0000
1000
0010
0000
1011
0000
,  // measure 52
0100
0010
1000
0001
0100
0001
1000
0100
0010
0001
1000
0010
1000
0001
0100
0010
,  // measure 53
1000
0100
0010
0001
0100
0010
1000
0001
0100
0001
0010
0100
1000
0010
1000
0001
,  // measure 54
0010
0000
0001
1000
0010
0100
0001
1000
0001
0100
0010
0100
0001
0010
0100
0010
,  // measure 55
0001
0100
0010
0100
0001
0010
0100
0010
0001
0100
0010
0100
0001
1000
0100
0010
,  // measure 56
0001
1000
0010
1000
0100
1000
0010
0100
0001
1000
0010
1000
0100
1000
0010
0100
,  // measure 57
0001
0000
0000
0000
MMMM
0000
0000
0000
0000
1000
0000
0000
0010
0000
0000
1000
0000
0000
0001
0000
0000
0010
0000
0000
0100
0000
0000
1000
0000
0000
0010
0000
0000
0100
0000
0000
0010
0000
0000
1000
0000
0000
0100
0000
0000
1000
0000
0000
,  // measure 58
0100
1000
0010
0100
0010
1000
0100
1000
0100
1000
0010
0100
0010
1000
0001
1000
,  // measure 59
0100
1000
0010
1000
0001
0100
0001
0010
0100
1000
0010
1000
0001
0100
0001
0010
,  // measure 60
0100
0000
0000
0000
MMMM
0000
0000
0000
0000
0010
0000
0000
0001
0000
0000
1000
0000
0000
0100
0000
0000
1000
0000
0000
0001
0000
0000
0100
0000
0000
0010
0000
0000
1000
0000
0000
0001
0000
0000
0100
0000
0000
0010
0000
0000
1000
0000
0000
,  // measure 61
0001
0010
0100
1000
0001
0010
0100
1000
0010
0100
0001
1000
0100
0010
0001
1000
,  // measure 62
0010
0100
0010
0100
0001
0100
0001
0100
0001
1000
0001
1000
0100
1000
0100
0010
,  // measure 63
0002
0000
0020
0000
0200
0000
0000
0333
1000
0010
1000
0100
1000
0001
0100
0010
,  // measure 64
2000
0000
0200
0000
0020
0000
0000
3330
0001
0010
0001
0100
0001
0010
0100
1000
,  // measure 65
0010
0100
0001
1000
0001
0010
0100
1000
0010
1000
0001
0010
0100
1000
0010
0100
,  // measure 66
0001
1000
0001
0100
0010
1000
0001
0010
0100
1000
0001
0100
0001
0010
0001
1000
,  // measure 67
0001
0100
0010
1000
0100
1000
0010
0100
0001
0100
0010
1000
0100
1000
0010
0100
,  // measure 68
0011
1100
0011
1100
0011
1100
0011
1100
0011
1100
0011
1100
0011
1100
0011
1100
,  // measure 69
0010
1000
0001
1000
0100
0010
0001
1000
0010
1000
0001
1000
0100
0010
0001
1000
,  // measure 70
0101
1010
0101
1010
0101
1010
0101
1010
0101
1010
0101
1010
0101
1010
0101
1010
,  // measure 71
0001
0100
0001
1000
0010
1000
0100
0010
0001
0100
0001
1000
0010
1000
0100
0010
,  // measure 72
0101
1010
0101
1010
0101
1010
0101
1010
0101
1010
0101
1010
0101
1010
0101
1010
,  // measure 73
0100
1000
0001
0100
0001
0010
0100
0010
0100
1000
0001
0100
0001
0010
0100
0010
,  // measure 74
1100
0011
1100
0011
1100
0011
1100
0011
1100
0011
1100
0011
1100
0011
1100
0011
,  // measure 75
1010
0101
1010
0101
1010
0101
1010
0101
1010
0101
1010
0101
1010
0101
1010
0202
,  // measure 76
2020
0000
0000
0000
0000
0000
0000
3333
,  // measure 77
2020
3000
0000
0000
0000
0000
0000
0000
2200
3300
0000
0000
0000
0000
0000
0000
2002
3003
0000
0000
0000
0000
0000
0000
0202
0303
0000
0000
0030
0000
0000
0000
,  // measure 78
2200
0300
0000
0000
0000
0000
0000
0000
0022
0033
0000
0000
0000
0000
0000
0000
0202
0303
0000
0000
0000
0000
0000
0000
0220
0330
0000
0000
3000
0000
0000
0000
,  // measure 79
0202
0003
0000
0000
0000
0000
0000
0000
2020
3030
0000
0000
0000
0000
0000
0000
0022
0033
0000
0000
0000
0000
0000
0000
2002
3003
0000
0000
0300
0000
0000
0000
,  // measure 80
0022
0003
0000
0000
0000
0000
0000
0000
0202
0303
0000
0000
0000
0000
0000
0000
2002
3003
0000
0000
0000
0000
0000
0000
2200
3300
0000
0000
0030
0000
0000
0000
,  // measure 81
2002
0003
0000
0000
0000
0000
0000
0000
0202
0303
0000
0000
0000
0000
0000
0000
0220
0330
0000
0000
0000
0000
0000
0000
0022
0033
0000
0000
3000
0000
0000
0000
,  // measure 82
1001
0001
1001
1000
1010
0010
0110
0100
,  // measure 83
0101
0001
1001
1000
1100
0100
0110
0010
,  // measure 84
0110
0100
1100
1000
1001
0001
0011
0010
,  // measure 85
0011
0001
0101
0100
0110
0010
1010
1000
,  // measure 86
1001
0001
0101
0100
0101
0011
1001
1100
,  // measure 87
0020
0002
0000
2000
0000
0200
0030
0320
,  // measure 88
0200
3000
2000
0003
0002
0300
0200
0030
,  // measure 89
3020
2000
0003
0302
0203
3002
2030
0320
,  // measure 90
0200
0003
0002
3000
2000
0030
0020
3000
,  // measure 91
2300
0200
0030
0023
3002
2030
0320
0203
,  // measure 92
0002
3000
2000
0030
0020
0300
0200
3333
,  // measure 93
0002
1000
0100
1000
0100
1000
0100
1000
0100
1000
0100
1000
0100
1000
0100
1003
,  // measure 94
0200
0010
1000
0010
1000
0010
1000
0010
1000
0010
1000
0010
1000
0010
1000
0310
,  // measure 95
2000
0001
0100
0001
0100
0001
0100
0001
0100
0001
0100
0001
0100
0001
0100
3001
,  // measure 96
0020
0001
1000
0001
1000
0001
1000
0001
1000
0001
1000
0001
1000
0001
1000
0031
,  // measure 97
0200
0010
0001
0010
0001
0010
0001
0010
0001
0010
0001
0010
0001
0010
0001
0310
,  // measure 98
0002
1000
0010
1000
0010
1000
0010
1000
0010
1000
0010
1000
0010
1000
0010
1003
,  // measure 99
0020
0100
1000
0100
1000
0100
1000
0100
1000
0100
1000
0100
1000
0100
1000
0130
,  // measure 100
2000
0010
0001
0010
0001
0010
0001
0010
0001
0010
0001
0010
0001
0010
0001
3010
,  // measure 101
0101
0010
0101
0010
0101
0010
0101
0010
1100
0001
1100
0001
1100
0001
1100
0001
,  // measure 102
0110
1000
0110
1000
0110
1000
0110
1000
0011
0100
0011
0100
0011
0100
0011
0100
,  // measure 103
1001
0010
1001
0010
1001
0010
1001
0010
0101
1000
0101
1000
0101
1000
0101
1000
,  // measure 104
0110
0001
0110
0001
0110
0001
0110
0001
1010
0100
1010
0100
1010
0100
1010
0100
,  // measure 105
0011
1000
0011
1000
0011
1000
0011
1000
0101
0010
0101
0010
0101
0010
0101
0010
,  // measure 106
1100
0001
1100
0001
1100
0001
1100
0001
1010
0100
1010
0100
1010
0100
1010
0100
,  // measure 107
0011
1100
0011
1100
0011
1100
0011
1100
0011
0100
0011
0100
0011
0100
0011
0100
,  // measure 108
1010
0101
1010
0101
1010
0101
1010
0101
1010
0001
1010
0001
1010
0001
1010
0001
,  // measure 109
1100
0011
1100
0011
1100
0011
1100
0011
1100
0010
1100
0010
1100
0010
1100
0010
,  // measure 110
0101
1010
0101
1010
0101
1010
0101
1010
0200
0000
0002
0000
2000
0000
0020
0000
,  // measure 111
3333
0000
0011
1100
0011
1100
0011
1100
0011
0000
2222
3333
2222
3333
2222
3333
,  // measure 112
0001
0010
1000
0010
0001
0100
1000
0100
,  // measure 113
0001
0000
1100
0011
1100
0011
1100
0011
1100
0000
2222
3333
2222
3333
2222
3333
,  // measure 114
1000
0100
0001
0100
1000
0010
0001
0010
,  // measure 115
1000
0000
0101
1010
0101
1010
0101
1010
0101
0000
2222
3333
2222
3333
2222
3333
,  // measure 116
0001
0100
1000
0100
0001
0010
1000
0010
,  // measure 117
0001
0000
1010
0101
1010
0101
1010
0101
1010
0000
2222
3333
2222
3333
2222
3333
,  // measure 118
1000
0010
0100
0001
1000
0100
0010
0001
1000
0010
0100
0001
1000
0001
0010
0100
,  // measure 119
1000
0000
0001
0100
0010
1000
0001
0100
0010
0000
2020
3030
0202
0303
2020
3030
,  // measure 120
0202
0303
1000
0100
0010
0001
1000
0100
0010
0000
2200
3300
0022
0033
2200
3300
,  // measure 121
0022
0033
1000
0010
0100
0001
1000
0001
0100
0000
2020
3030
0202
0303
2020
3030
,  // measure 122
0202
0303
1000
0100
1000
0100
1000
0100
1000
0000
0002
0000
2000
0000
0020
0000
,  // measure 123
3133
0000
0001
0100
0001
0100
0001
0100
0001
0000
0020
0000
2000
0000
0002
0000
,  // measure 124
3133
0000
1010
0101
1010
0101
1010
0101
1010
0000
1011
0000
1101
0000
0111
0000
,  // measure 125
0000
2222
0000
0000
0000
0000
0000
0000
,  // measure 126
0000
0000
0000
0000
,  // measure 127
3333
0000
0000
0000
;
