#VERSION:0.81;
#TITLE:Tangerine Stream;
#SUBTITLE:-the catastrophe-;
#ARTIST:NAOKIunderground;
#TITLETRANSLIT:;
#SUBTITLETRANSLIT:;
#ARTISTTRANSLIT:;
#GENRE:;
#ORIGIN:;
#CREDIT:xXMokou98Xx;
#BANNER:Tangerine Stream.bn.png;
#BACKGROUND:Tangerine Stream.png;
#PREVIEWVID:;
#JACKET:jacket.png;
#CDIMAGE:;
#DISCIMAGE:;
#LYRICSPATH:;
#CDTITLE:cdtitle.png;
#MUSIC:Tangerine Stream -the catastrophe-.mp3;
#OFFSET:0.250;
#SAMPLESTART:59.610;
#SAMPLELENGTH:15.000;
#SELECTABLE:YES;
#BPMS:0.000=84.010,
36.000=168.020,
68.000=42.005,
70.000=168.020,
190.000=42.000,
198.000=84.010,
214.000=168.020,
325.500=84.010;
#STOPS:;
#DELAYS:;
#WARPS:;
#TIMESIGNATURES:0.000=4=4;
#TICKCOUNTS:0.000=4;
#COMBOS:0.000=1;
#SPEEDS:0.000=1.000=0.000=0;
#SCROLLS:0.000=1.000;
#FAKES:;
#LABELS:0.000=Song Start;
#BGCHANGES:;
#KEYSOUNDS:;
#ATTACKS:
;

//---------------dance-single - xXMokou98Xx----------------
#NOTEDATA:;
#CHARTNAME:;
#STEPSTYPE:dance-single;
#DESCRIPTION:xXMokou98Xx;
#CHARTSTYLE:Pad;
#DIFFICULTY:Challenge;
#METER:15;
#RADARVALUES:0.784,0.825,0.520,0.787,0.387,627.000,78.000,118.000,0.000,0.000,0.000,0.000,0.000,0.784,0.825,0.520,0.787,0.387,627.000,78.000,118.000,0.000,0.000,0.000,0.000,0.000;
#CREDIT:xXMokou98Xx;
#NOTES:
// measure 0
0000
0000
0000
0000
,  // measure 1
1020
0000
0030
1000
0010
0000
0000
0000
0000
0000
0100
0000
0101
0000
0000
0000
,  // measure 2
0012
0000
0003
0010
0100
0000
0000
0000
0120
0000
0030
0100
1000
0000
0000
0000
,  // measure 3
2010
0000
3000
0100
0001
0000
0000
0000
0000
0000
0010
0000
0110
0000
0000
0000
,  // measure 4
2002
0000
0000
0000
0000
0000
0000
0000
0000
3003
0000
0000
1000
0100
0010
0001
,  // measure 5
0200
0000
0000
2300
0000
0000
3020
0000
0002
0030
1000
0000
0013
0000
0220
0000
,  // measure 6
0000
0000
0000
0000
0000
0000
0000
0000
0330
0000
0000
0000
0000
0000
0000
0000
1000
0100
2000
0000
0000
0000
0000
0000
0000
0000
0000
0000
3000
0000
0000
0000
,  // measure 7
0200
0000
0000
2300
0000
0000
3020
0000
0032
0000
0000
0000
0203
0000
0000
0000
,  // measure 8
0020
0000
0000
0000
0000
0000
0000
0000
0000
0000
0000
0000
0330
0000
0000
0000
0101
0000
0001
0100
0001
0000
1010
0000
0100
0000
0101
0000
0011
0000
0000
0000
,  // measure 9
1010
0000
0010
0100
0010
0000
1001
0000
0100
0010
0100
0000
0011
0000
0001
0010
,  // measure 10
0001
0000
0100
0001
0100
0000
0110
0000
0010
1000
0010
0000
1100
0000
1000
0001
,  // measure 11
1000
0000
0001
0100
0001
0000
0110
0000
0010
1000
0010
0000
1100
0000
1000
0001
,  // measure 12
1000
0000
0101
0000
0010
0100
0010
0000
0100
1000
0100
0000
0220
0000
0330
0000
,  // measure 13
1001
0000
0010
1000
0001
0000
1001
0000
0010
0001
1000
0000
0110
0000
0001
0100
,  // measure 14
0010
0000
1000
0010
0100
0000
0101
0000
0010
0100
1000
0000
1100
0000
1000
0100
,  // measure 15
0010
0000
0001
0010
0100
0000
0110
0000
1000
0010
0001
0000
0110
0000
0100
1000
,  // measure 16
1001
0000
0000
0000
0000
0000
1010
0000
0000
0000
0000
0000
0110
0000
0100
0002
,  // measure 17
2000
0000
0000
0000
0000
0000
0000
0000
0000
3003
0000
0000
0000
0010
1000
0010
0100
0000
0000
0000
0000
0000
0000
0000
0001
0000
0000
0000
0010
0000
0000
0000
,  // measure 18
0100
1000
0010
0100
0001
1000
0100
0010
,  // measure 19
0100
1000
0001
0000
0100
0100
0010
0100
,  // measure 20
0100
0001
0010
1000
0010
0100
0010
0001
,  // measure 21
0100
0220
0000
0330
1000
0100
0001
0010
,  // measure 22
1000
0010
0001
0100
1000
0010
0100
0001
,  // measure 23
0010
2200
0000
3300
0010
0100
0001
0100
,  // measure 24
1000
0100
0001
0100
0010
1000
0100
0001
,  // measure 25
0100
2200
0000
3300
0010
0100
0010
1000
,  // measure 26
0001
0100
0010
1000
0100
0001
0010
0100
,  // measure 27
0001
2020
0000
3030
0100
1000
0100
0001
,  // measure 28
0100
0010
0100
1000
0010
0100
0010
1000
,  // measure 29
0001
0010
0100
1000
0001
1000
0100
0010
,  // measure 30
0001
1000
0001
0100
0010
1000
0100
0010
,  // measure 31
1001
0000
0000
0000
1000
0001
1000
0001
1000
0000
0010
0000
1000
0000
0010
0000
,  // measure 32
0100
0010
0100
0010
0001
0010
0001
0010
,  // measure 33
0100
1000
0100
1000
0010
0100
0010
0100
,  // measure 34
0001
0010
0100
1000
0010
0100
0001
0100
,  // measure 35
0010
0000
1000
0000
0100
0010
0100
0010
0001
0000
0100
0000
0001
0000
0100
0000
,  // measure 36
0010
0100
0010
0100
1000
0100
1000
0100
,  // measure 37
0010
0001
0010
0001
0100
0001
0100
0001
,  // measure 38
0010
0100
1000
0001
1000
0100
0010
0001
,  // measure 39
1000
0000
0001
0000
0100
0001
0100
0001
0010
0000
0001
0000
0010
0000
0001
0000
,  // measure 40
0100
0010
0100
0010
0100
1000
0100
1000
,  // measure 41
0010
0100
0010
0100
1000
0100
1000
0010
,  // measure 42
0100
0010
0001
0010
1000
0010
0001
0100
,  // measure 43
0010
0000
1000
0000
0100
0010
0100
0010
0100
0000
0001
0000
0100
0000
0001
0000
,  // measure 44
0100
0010
0100
0010
0100
1000
0100
1000
,  // measure 45
0010
0100
0010
0100
0001
0001
0100
0100
,  // measure 46
1000
1000
0010
0010
0002
0000
2003
0000
,  // measure 47
3002
0000
0000
0000
0000
0000
0000
0000
0003
0000
0000
0000
0000
1000
0100
0010
0001
0000
0000
0000
0001
0000
0000
0000
0001
0000
0000
0000
0001
0000
0000
0000
,  // measure 48
1000
0000
0000
0000
0000
0000
0000
0000
0000
0000
0000
0000
0000
0000
0000
0000
0000
0000
0000
0000
0000
0000
0000
0000
1000
0000
0000
0000
0000
0000
0000
0000
0000
0000
0000
0000
0000
0000
0000
0000
0000
0000
0000
0000
0000
0000
0000
0000
0010
0000
0000
0000
0000
0000
0000
0000
0000
0000
0000
0000
0000
0000
0000
0000
0000
0000
0000
0000
0000
0000
0000
0000
0010
0000
0000
0000
0000
0000
0000
0000
0000
0000
0000
0000
0000
0000
0000
0000
0000
0000
0100
0000
0001
0000
1000
0000
0100
0000
0000
0000
0000
0000
0000
0000
0000
0000
0000
0000
0000
0000
0000
0000
0000
0000
0000
0000
0000
0000
0000
0000
0100
0000
0000
0000
0000
0000
0000
0000
0000
0000
0000
0000
0000
0000
0000
0000
0000
0000
0000
0000
0000
0000
0000
0000
0100
0000
0000
0000
0000
0000
0000
0000
0000
0000
0000
0000
0000
0000
0000
0000
0000
0000
0000
0000
0000
0000
0000
0000
0100
0000
0000
0000
0000
0000
0000
0000
0000
0000
0000
0000
0010
0000
0000
0000
0000
0000
0001
0000
0000
0000
0000
0000
,  // measure 49
1000
0000
0000
0010
0000
0000
0001
0000
0000
0100
0000
0000
1000
0000
0001
0000
0100
0000
0001
0000
0010
0000
0100
0000
0000
0000
1000
0000
0100
0000
0020
0000
,  // measure 50
0000
0032
0000
0203
0000
0320
0000
2030
0000
3002
0000
0023
0000
0230
0000
2300
,  // measure 51
0000
3020
0000
0032
0000
0203
0000
0000
0310
0001
1000
0100
0001
0100
0010
0100
,  // measure 52
1000
0010
0100
0001
1000
0100
0001
0010
0100
0001
0010
0100
0010
0001
0100
0010
,  // measure 53
0000
0000
0000
0000
0010
0000
0000
0000
0100
0000
0000
0000
0001
0000
0000
0000
0010
0000
0000
0000
1000
0000
0000
0000
0010
0000
0000
0000
0001
0000
0000
0000
0100
0000
0000
0000
0000
0000
0000
0000
0010
0000
0000
0000
0000
0000
0000
0000
1000
0000
0000
0000
0000
0000
0000
0000
0001
0010
0000
0000
0000
0000
0000
0000
,  // measure 54
0000
0220
0330
0100
1000
1000
0220
0330
,  // measure 55
0000
0000
0000
0000
0000
0000
0000
0000
0011
0000
0000
0000
0000
0000
0000
0000
0000
0000
0000
0000
0000
0000
0000
0000
0101
0000
0000
0000
0000
0000
0000
0000
0100
0000
0000
0000
0000
0000
0000
0000
0010
0000
0000
0000
0000
0000
0000
0000
1000
0000
0000
0000
0000
0000
0000
0000
0100
1000
0000
0000
0000
0000
0000
0000
,  // measure 56
0000
1100
0000
0010
0001
0001
0010
0001
,  // measure 57
0000
0000
0000
0000
0000
0000
0000
0000
1010
0000
0000
0000
0000
0000
0000
0000
0000
0000
0000
0000
0000
0000
0000
0000
1100
0000
0000
0000
0000
0000
0000
0000
0100
0000
0000
0000
0000
0000
0000
0000
0010
0000
0000
0000
0000
0000
0000
0000
0001
0000
0000
0000
0000
0000
0000
0000
0100
0010
0000
0000
0000
0000
0000
0000
,  // measure 58
0000
0101
0000
0010
0100
0100
0220
0330
,  // measure 59
0000
1100
0000
1001
0000
0100
0001
0100
,  // measure 60
0010
0000
0000
0000
0000
0000
0000
0000
1000
0000
0000
0000
0000
0000
0000
0000
0000
0000
0000
0000
0000
0000
0000
0000
2000
0200
0000
0000
0000
0000
0000
3000
0300
0000
0000
0000
0000
0000
0000
0000
0200
0020
0000
0000
0000
0000
0000
0300
0030
0000
0000
0000
0000
0000
0000
0000
0020
0002
0000
0000
0000
0000
0000
0030
,  // measure 61
0003
0000
0000
0000
0000
0000
0000
0000
0002
0200
0000
0000
0000
0000
0000
0003
0300
0000
0000
0000
0000
0000
0000
0000
0000
0000
0000
0000
0000
0000
0000
0000
0110
0000
0000
0000
0000
0000
0000
0000
0100
0000
0000
0000
0000
0000
0000
0000
0010
0000
0000
0000
0000
0000
0000
0000
1000
0000
0000
0000
0000
0000
0000
0000
,  // measure 62
0001
0010
0000
0100
1000
1000
0220
0330
,  // measure 63
0000
0101
0000
1010
0010
0100
0001
0010
,  // measure 64
0001
1000
0000
0100
0010
0010
0202
0000
,  // measure 65
0303
0220
0000
0330
2200
3300
0202
0303
,  // measure 66
0000
1100
1000
0100
0011
0001
0010
1100
,  // measure 67
1000
0000
0100
0000
0010
0000
0100
0000
1000
0010
0100
0010
0100
0000
0010
0000
,  // measure 68
0000
0001
0010
0100
1000
0100
0001
0100
1000
0010
0100
0001
0010
0100
0000
0100
,  // measure 69
1000
0010
0001
0010
1000
0000
0000
0000
0101
0000
0202
0303
0000
0000
0110
0000
,  // measure 70
0220
0330
0000
0000
1001
0000
2002
3003
0000
0000
1100
0000
2200
3300
0000
0000
,  // measure 71
0010
0000
1000
0001
0110
0100
1000
0110
,  // measure 72
0010
0000
0001
0000
0220
0330
1000
0000
0220
0330
0001
0000
0220
0330
1000
0000
,  // measure 73
0010
0100
0000
0000
0000
0000
0000
0000
0010
0000
0000
0000
0000
0000
0000
0000
1000
0000
0000
0000
0000
0000
0000
0000
0001
0000
0000
0000
0000
0000
0000
0000
0010
0000
0000
0000
0000
0000
0000
0000
0100
0000
0000
0000
0000
0000
0000
0000
2200
0000
0000
0000
0000
0000
0000
0000
0000
0000
0000
0000
0000
0000
0000
0000
,  // measure 74
3300
0010
0001
2200
3300
0220
0330
2002
,  // measure 75
3003
2000
0010
0000
3010
0100
0001
0020
,  // measure 76
0030
0200
0300
2000
3020
0030
0002
0203
,  // measure 77
0300
2000
0002
3003
2002
0000
3003
0010
,  // measure 78
1000
0000
0000
0000
0000
0000
0000
0000
0001
0000
0000
0000
0000
0000
0000
0000
0010
0000
0000
0000
0000
0000
0000
0000
0100
0000
0000
0000
0000
0000
0000
0000
0000
0000
0000
0000
0000
0000
0000
0000
1000
0200
0000
0000
0000
0000
0000
0000
0000
0000
0000
0000
0000
0000
0000
0000
0000
0000
0000
0000
0000
0000
0000
0000
,  // measure 79
0300
0022
0033
0002
0200
0000
0000
0303
,  // measure 80
1000
0000
0001
0000
0100
0010
0100
0000
0020
0000
0100
0000
0100
0000
0030
0000
,  // measure 81
0200
0000
0001
0000
0301
0000
0220
0000
0330
2000
0000
0000
3020
0000
0000
0032
,  // measure 82
0000
0000
0000
0000
0000
0000
0000
0000
0203
0000
0000
0000
0000
0000
0000
0000
2300
0000
0000
0000
3020
0000
0000
0000
0030
0000
0000
0000
0100
0001
0000
0000
0000
0000
0000
0000
0000
0000
0000
0000
0000
0000
0000
0000
0000
0000
0000
0000
0000
0000
0000
0000
0000
0000
0000
0000
0000
0000
0000
0000
0000
0000
0000
0000
;
