#TITLE:SSDX4EVER;
#SUBTITLE:-The Medley of Kirby SSDX Final-;
#ARTIST:hapi=>;
#TITLETRANSLIT:;
#SUBTITLETRANSLIT:;
#ARTISTTRANSLIT:;
#GENRE:;
#CREDIT:xXMokou98Xx & KNS-17;
#BANNER:SSDX4EVER.bn.png;
#BACKGROUND:SSDX4EVER.bg.png;
#LYRICSPATH:;
#CDTITLE:cdtitle.png;
#MUSIC:SSDX4EVER.mp3;
#OFFSET:1.841;
#SAMPLESTART:553.474;
#SAMPLELENGTH:20.000;
#LASTBEATHINT:1.121;
#SELECTABLE:YES;
#BPMS:0.000=80.000
,52.000=180.000
,992.000=120.000
,1240.000=180.000
,1369.000=45.700
,1369.500=45.800
,1370.000=91.600
,1371.000=94.800
,1372.000=99.000
,1373.000=102.000
,1374.000=104.300
,1375.000=106.900
,1376.000=109.400
,1377.000=110.000
,1378.000=115.000
,1379.000=118.000
,1380.000=118.500
,1381.000=119.000
,1382.000=120.000
,1384.000=125.000
,1412.000=100.000
,1414.000=91.000
,1415.000=55.000
,1415.250=43.500
,1415.500=90.000
,1416.000=180.000
,1748.000=66.200
,1749.000=64.000
,1749.500=63.500
,1750.000=63.000
,1750.250=60.000
,1750.500=56.000
,1750.750=52.000
,1751.000=20.000
,1751.500=79.999
,1752.000=160.000
,1753.000=162.000
,1754.000=165.000
,1755.000=167.500
;
#STOPS:
;
#BGCHANGES:2.000=SSDX4EVER.avi=1.000=0=0=1=====,
1768.000=SSDX4EVER.bg.png=1.000=0=0=1=====,
99999=-nosongbg-=1.000=0=0=0 // don't automatically add -songbackground-
;
#KEYSOUNDS:;
#ATTACKS:;

//---------------dance-single - ----------------
#NOTES:
     dance-single:
     :
     Challenge:
     14:
     1.000,1.000,0.466,0.857,0.947,3923.000,310.000,570.000,15.000,0.000,0.000,1.000,1.000,0.466,0.857,0.947,3923.000,310.000,570.000,15.000,0.000,0.000: // measure 0
0000
0000
0000
0000
,  // measure 1
2000
3020
0230
0302
0000
0000
2003
3002
,  // measure 2
0023
0230
2300
3002
0000
0000
0203
0320
,  // measure 3
2030
3200
0320
0230
0000
0000
2300
3002
,  // measure 4
0203
0320
2030
3002
0000
0000
0023
0230
,  // measure 5
2300
0000
0000
3002
0000
0000
0203
0000
0000
0320
0000
0000
2030
0000
3002
0000
,  // measure 6
0023
0000
0000
0230
0000
0000
2300
0000
0000
3020
0000
0000
0230
0000
0302
0000
,  // measure 7
2003
0000
0000
3200
0000
0000
0320
0000
0000
0032
0000
0000
2003
0000
3020
0000
,  // measure 8
0230
0000
0302
0000
,  // measure 9
2003
0000
3020
0000
,  // measure 10
0230
0000
0302
0000
,  // measure 11
2000
0000
0000
0000
,  // measure 12
0000
0000
0000
0000
0000
0000
0000
0000
0000
0000
0000
0000
0000
0000
0000
3003
,  // measure 13
1000
0000
0010
0100
0010
0000
0100
0001
0100
0000
0001
1000
0001
0000
1000
0100
,  // measure 14
1000
0000
0100
0010
0100
0000
0010
0001
0010
0000
0001
0100
0001
0000
0100
0010
,  // measure 15
0100
0000
0010
1000
0010
0000
1000
0001
1000
0000
0001
0100
0001
0000
1000
0010
,  // measure 16
1000
0000
0001
0010
0100
0000
1000
0010
0100
0000
0001
1000
0100
0000
0010
0001
,  // measure 17
0100
0000
0010
1000
0001
0000
0010
0100
1000
0000
0001
0100
0010
0000
1000
0100
,  // measure 18
0010
0000
0100
1000
0010
0000
0100
0001
0010
0000
0100
1000
0001
0000
0100
0010
,  // measure 19
1000
0001
0010
0100
1000
0001
0100
0010
1000
0100
0010
0100
1000
0001
0100
0010
,  // measure 20
1000
0100
0000
1000
0010
0000
1000
0001
0000
0000
0100
0010
0100
0000
0000
0000
,  // measure 21
0001
0101
0101
0101
0101
0101
0101
0101
,  // measure 22
1000
1010
1010
1010
1010
1010
1010
1010
,  // measure 23
0001
1001
1001
1001
0110
1001
0110
1001
,  // measure 24
0000
1100
1100
0011
0110
0000
2000
0000
,  // measure 25
3010
0000
0100
0000
0001
0000
1000
0000
0100
0000
0010
0000
0001
0000
0000
0001
,  // measure 26
0100
0000
0010
0000
1000
0000
0100
0000
0001
0000
0000
0000
0100
0000
0000
0100
,  // measure 27
2000
0000
3000
0000
1000
0000
0000
1000
0020
0000
0030
0000
0010
0000
0000
0010
,  // measure 28
0200
0000
0300
0000
0202
0000
0303
0000
2002
0000
3003
0000
0100
0000
0000
0100
,  // measure 29
1000
0000
0010
0000
1000
0000
0001
0000
0010
0000
0100
0000
1000
0000
0000
1000
,  // measure 30
0001
0000
0010
0000
1000
0000
0010
0000
0001
0000
0000
0000
0100
0000
0000
0100
,  // measure 31
0002
0000
0003
0000
0001
0000
0000
0001
2000
0000
3000
0000
1000
0000
0000
1000
,  // measure 32
0020
0030
2020
3030
2002
3003
0022
0033
,  // measure 33
0100
0000
0000
0100
1000
0000
1100
0000
0000
0000
1010
0000
0110
0000
0101
0000
,  // measure 34
1000
0010
1000
0010
0100
0010
0100
0010
,  // measure 35
0100
0000
0001
0000
0100
0000
0001
0000
0010
0000
0100
0000
1000
0000
0000
0010
,  // measure 36
0100
0000
0000
0000
0001
0000
0000
0010
0100
0000
0000
0000
0010
0000
0000
0001
,  // measure 37
1000
0000
0000
0000
0001
0000
0000
0100
0010
0000
0000
0000
1000
0000
0000
0010
,  // measure 38
0100
0000
0000
0000
0001
0000
0000
1000
0100
0000
0000
0000
0010
0000
0000
0001
,  // measure 39
0100
0000
0000
0000
0010
0000
0000
0000
2020
0000
3030
0000
1000
0000
0000
0001
,  // measure 40
0010
0000
0000
0000
0100
0000
0000
1000
0001
0000
0000
0000
0100
0000
0000
0010
,  // measure 41
1000
0000
0000
0000
0001
0000
0000
0100
0010
0000
0000
0000
1000
0000
0000
0100
,  // measure 42
0010
0000
0000
0000
0001
0000
0000
1000
0100
0000
0000
0000
0010
0000
0000
0001
,  // measure 43
0100
0000
0010
0000
0220
0000
0000
0330
,  // measure 44
2000
3010
0100
0001
0020
0130
0010
0001
,  // measure 45
0200
0301
2000
3001
0020
0130
1000
0010
,  // measure 46
2000
3001
0200
0301
0020
0130
2000
3010
,  // measure 47
0200
0301
0020
0130
0020
0031
0001
0100
,  // measure 48
0002
0013
0100
1000
0002
0103
1000
0100
,  // measure 49
0020
1030
0002
1003
0200
0310
0002
2003
,  // measure 50
3200
1300
0020
1030
0002
0013
0200
1300
,  // measure 51
0002
0103
0020
1030
0002
0000
0000
0003
,  // measure 52
0110
0010
0001
1000
1010
0010
0100
0001
,  // measure 53
1100
0100
0110
0010
0011
0001
1001
1000
,  // measure 54
1010
0010
0100
0010
0110
0100
0001
0010
,  // measure 55
0011
0001
0101
0100
0220
0000
0000
0330
,  // measure 56
1100
1000
0010
1000
1001
0001
0011
0101
,  // measure 57
0110
1000
0101
1000
0011
0100
1010
0001
,  // measure 58
1100
0001
1010
0001
0110
1000
0101
1010
,  // measure 59
2002
0000
0000
0000
0000
3003
0110
0000
,  // measure 60
0011
0000
0001
0010
0001
0000
0100
0000
0101
0000
0001
0100
0001
0000
1000
0000
,  // measure 61
1010
0000
1000
0010
1000
0000
0100
0000
0220
0000
0000
0000
0330
0000
0010
0100
,  // measure 62
0001
0000
1000
0100
0010
0000
0100
0000
1100
0000
1000
0010
0100
0000
0010
0000
,  // measure 63
0110
0000
0100
0001
1000
0000
0001
0000
0202
0000
0000
0000
0303
0000
0010
1000
,  // measure 64
0001
0000
1000
0010
0100
0000
0010
0000
0110
0000
0100
0001
0010
0000
0100
0000
,  // measure 65
1100
0000
1000
0010
0100
0000
0001
0000
0022
0000
0033
0000
2200
0000
3300
0000
,  // measure 66
1010
0000
0100
0001
0010
0000
0100
0000
0110
0000
0010
0100
1000
0000
0001
0000
,  // measure 67
0101
0000
0100
0010
1000
0000
0001
0000
2002
0000
0000
0000
0000
0000
3003
0000
,  // measure 68
1100
0000
1000
0100
1000
0000
0010
0000
1010
0000
1000
0010
1000
0000
0001
0000
,  // measure 69
0101
0000
0001
0100
0001
0000
0010
0000
0220
0000
0000
0000
0330
0000
0100
0010
,  // measure 70
1000
0000
0001
0010
0100
0000
0010
0000
0011
0000
0001
0100
0010
0000
0100
0000
,  // measure 71
0110
0000
0010
1000
0001
0000
1000
0000
2020
0000
0000
0000
3030
0000
0100
0001
,  // measure 72
1000
0000
0001
0100
0010
0000
0100
0000
0110
0000
0010
1000
0100
0000
0010
0000
,  // measure 73
0011
0000
0001
0100
0010
0000
0100
0000
0110
0000
0010
1000
0001
0000
0010
0000
,  // measure 74
1100
1010
0110
1100
1010
0110
1100
1010
,  // measure 75
1100
0011
0101
1010
2002
3003
0220
0330
,  // measure 76
0010
0000
1000
0001
0100
0000
0010
0000
1000
0000
0001
0000
1000
0000
0100
0000
,  // measure 77
0010
0001
0000
0100
0001
0000
1000
0010
,  // measure 78
0100
0000
0001
1000
0010
0000
0100
0000
0001
0000
0010
0000
0100
0000
1000
0000
,  // measure 79
0010
0000
0000
1010
0000
0000
2000
0000
0002
0000
0000
0000
3003
0000
1000
0100
,  // measure 80
0010
0001
0100
0001
1000
0010
0001
0010
,  // measure 81
1000
0100
0000
1000
0010
0000
0100
0001
,  // measure 82
0010
0000
0001
1000
0100
0000
0010
0000
0100
0000
1000
0000
0001
0000
0100
0000
,  // measure 83
0001
0000
0000
0011
0000
0000
0200
0000
0020
0000
0330
0000
0100
0000
1000
0000
,  // measure 84
0001
0000
0100
0001
0010
0000
0001
0000
1000
0000
0010
1000
0100
0000
0010
0000
,  // measure 85
0100
0000
0000
1100
0000
0000
2000
0000
0020
0000
3030
0000
0100
0000
0010
0000
,  // measure 86
0100
0000
0001
1000
0100
0000
1000
0000
0010
0000
0100
0001
0010
0000
0001
0000
,  // measure 87
0100
0000
0000
1010
0000
0000
2000
0000
0002
0000
3003
0000
0100
0000
0010
0000
,  // measure 88
1000
0100
0000
0100
0010
0000
0001
0000
1000
0000
0010
0000
0000
0000
0010
0000
,  // measure 89
0100
0001
0000
0001
0010
0000
0100
0000
1000
0000
0001
0000
0000
0000
0001
0000
,  // measure 90
0010
0100
0000
0100
1000
0000
0010
0000
0100
0000
0010
0000
1000
0000
0100
0000
,  // measure 91
0020
0000
0000
0000
0002
0000
0033
0100
,  // measure 92
0010
1000
0010
1000
0010
1000
0010
1000
0010
0000
0000
0000
2002
0000
3003
0000
,  // measure 93
0010
0000
1000
0000
0010
0000
0100
0000
0001
0000
0010
0000
0001
0100
0010
0000
,  // measure 94
1000
0001
0010
0100
1000
0000
1010
0000
,  // measure 95
0100
0000
0001
0000
0100
0000
0010
0000
1000
0000
0100
0000
1000
0010
0100
0000
,  // measure 96
0001
1000
0100
0010
0001
0000
0101
0000
,  // measure 97
1000
0001
0000
0001
0100
0000
0001
0000
0010
0000
0100
0000
1000
0000
0000
0000
,  // measure 98
0001
0100
0000
0100
0010
0000
1000
0000
0100
0000
0010
0000
0001
0000
0000
0000
,  // measure 99
0100
0010
0000
0010
1000
0000
0001
0000
0010
0000
0100
0000
0010
0000
0001
0000
,  // measure 100
1000
0010
0000
0100
0001
1000
0001
0010
0200
0000
0000
0000
0000
0000
0300
0000
,  // measure 101
1000
0000
0010
0100
0001
0000
1000
0000
0100
0000
0010
0100
1000
0000
0001
0000
,  // measure 102
0100
0000
0010
1000
0001
0000
1000
0000
0100
0000
0010
0001
0100
0000
0010
0000
,  // measure 103
0100
0000
0001
1000
0100
0000
0010
0000
0001
0000
1000
0010
0100
0000
0001
0000
,  // measure 104
1000
0000
0010
0100
0001
0010
0100
1000
0200
0000
0000
0000
0000
0000
0300
0000
,  // measure 105
0010
0000
0001
1000
0010
0000
0100
0000
0001
0000
1000
0100
0010
0000
0100
0000
,  // measure 106
1000
0000
0010
0100
0001
0000
1000
0000
0010
0000
0100
0010
1000
0000
0100
0000
,  // measure 107
0010
0000
0100
1000
0001
0000
0010
0000
0100
0000
1000
0001
0100
0000
0010
0000
,  // measure 108
1000
0000
0001
0010
0100
1000
0010
0100
0020
0000
0000
0000
0000
0000
0030
0000
,  // measure 109
0100
0000
0001
1000
0010
0000
0100
0000
0001
0000
0010
0100
1000
0000
0010
0000
,  // measure 110
0100
0000
0010
0000
1000
0100
0010
0100
1000
0000
1010
0000
0110
0000
0101
0000
,  // measure 111
1000
0000
0100
0010
0001
0000
0100
0000
0010
0000
0100
0001
1000
0000
0100
0000
,  // measure 112
0010
0000
0001
0000
1000
0010
0100
0001
0010
0000
0110
0000
1100
0000
1001
0000
,  // measure 113
0100
0000
0010
1000
0010
0000
1000
0000
0001
0000
0010
0000
0100
0000
1000
0000
,  // measure 114
0001
0000
0100
0010
0100
0000
0001
0000
1000
0000
0100
0000
0010
0000
0100
1000
,  // measure 115
0001
0010
0100
1000
0010
0100
0001
1000
,  // measure 116
0001
0000
0010
0000
0100
0000
0010
0000
0001
0000
1000
0000
0010
0000
0100
0001
,  // measure 117
1000
0100
0010
0100
1000
0001
0100
0010
,  // measure 118
1000
0000
0001
0000
0010
0000
0100
0000
1000
0000
0010
0000
1000
0000
0100
1000
,  // measure 119
0001
0000
0100
0001
1000
0000
0010
1000
0001
0000
0010
0001
1000
0000
0010
0100
,  // measure 120
0001
0010
0100
1000
0001
0100
0010
1000
0100
0000
0011
0000
0202
0000
0303
0000
,  // measure 121
1000
0000
0010
0000
0100
0000
0001
0010
0001
0000
1000
0000
0100
0000
0010
0000
,  // measure 122
0001
0100
0010
1000
0001
0010
0100
1000
,  // measure 123
0001
1000
0010
0100
0001
1000
0100
0010
,  // measure 124
0001
0000
0100
0000
0010
0000
1000
0000
0001
0000
0000
0000
M1MM
0000
0010
1000
,  // measure 125
0010
0000
0100
0000
0001
0000
0010
0100
0010
0000
0001
0000
1000
0000
0010
0000
,  // measure 126
0100
0010
1000
0001
0010
0100
0010
0001
,  // measure 127
1000
0010
0100
0001
1000
0100
0010
0100
,  // measure 128
1000
0000
0001
0000
0100
0001
0010
0100
1000
0000
0001
0000
MM2M
0000
0130
0000
,  // measure 129
1000
0000
0001
0010
0100
0000
0100
0010
0001
0000
1000
0000
0010
0000
1000
0000
,  // measure 130
0001
0000
0010
0100
1000
0001
1000
0010
0100
0000
0010
0000
1000
0000
0001
0000
,  // measure 131
0010
0000
0100
1000
0010
0000
0010
1000
0100
0000
1000
0000
0001
0000
0010
0000
,  // measure 132
0100
0000
0010
0001
1000
0001
0100
0010
1000
0001
0010
0100
1000
0010
0100
0001
,  // measure 133
1000
0000
0010
0100
1000
0000
1000
0100
0010
0000
1000
0000
0001
0000
0010
0000
,  // measure 134
0100
0000
1000
0001
1000
0010
0100
0001
0010
0000
0100
0000
1000
0000
0100
0000
,  // measure 135
0010
0001
0100
0010
1000
0100
0010
0001
1000
0010
1000
0100
0010
0001
1000
0010
,  // measure 136
0100
0001
1000
0100
0010
0100
1000
0001
0100
0000
MMM2
MMM0
MMM3
0000
1000
0000
,  // measure 137
0100
0000
0000
0010
0001
0000
0001
0100
0010
0000
1000
0010
0100
0000
0001
0000
,  // measure 138
1000
0000
0010
0100
0001
1000
0100
0010
0100
0000
1000
0000
0002
0000
0003
0000
,  // measure 139
0100
0000
0010
0100
0001
0000
1000
0100
0010
0000
0001
1000
0010
0000
0100
0000
,  // measure 140
0001
0000
1000
0100
0010
0001
1000
0010
0100
0000
0001
0000
1000
0000
0000
0000
,  // measure 141
0022
0000
0033
0202
0000
0303
1000
0001
0010
0000
0100
0000
2000
0000
3000
0000
,  // measure 142
0110
0000
0100
0001
0010
0100
1000
0010
1000
0001
0010
0100
0020
0000
0030
0000
,  // measure 143
1100
0000
1000
0001
0010
0000
0100
1000
0010
1000
0001
0100
0010
1000
0001
0000
,  // measure 144
0110
0000
0010
0001
0100
0010
1000
0001
2000
0000
0000
0000
0000
0000
3000
0000
,  // measure 145
2002
0000
0000
0000
3003
0000
0010
0100
0010
0000
0001
0000
1000
0000
0010
0000
,  // measure 146
1000
0100
0010
0001
1000
0010
0100
0001
1000
0100
0010
0001
0200
0000
0300
0000
,  // measure 147
2020
0000
0000
0000
3030
0000
0001
0010
0001
0000
0100
0000
0010
0000
1000
0000
,  // measure 148
0001
0010
0100
1000
0001
0100
0010
1000
0001
0010
0100
0010
0001
0000
1000
0000
,  // measure 149
0010
0100
0001
0010
1000
0010
0001
1000
,  // measure 150
0010
0000
0000
0000
0100
0000
0000
0000
0202
0000
0303
0000
1000
0010
0100
0010
,  // measure 151
0100
0001
0000
0001
0010
0000
0010
0100
0000
0100
1000
0000
1000
0010
0100
0001
,  // measure 152
1000
0100
0000
0100
0010
0000
0010
0001
0000
0001
0100
0000
0010
1000
0001
0010
,  // measure 153
0100
1000
0000
1000
0001
0000
0001
0100
0000
0100
0010
0000
1000
0001
0010
0100
,  // measure 154
0010
0001
0000
0001
1000
0000
1000
0010
0000
0010
0100
0001
0010
0100
1000
0001
,  // measure 155
0100
0010
0000
0010
1000
0000
1000
0001
0000
0001
0100
0000
0010
1000
0001
1000
,  // measure 156
0100
0010
0000
0010
0001
0000
0001
0100
0000
0100
0010
0000
1000
0001
0010
0100
,  // measure 157
0010
0001
0000
0001
1000
0000
1000
0010
0000
0010
1000
0000
0001
0100
0010
0100
,  // measure 158
0001
1000
0000
1000
0100
0000
0100
0010
0000
0010
0001
0100
0010
1000
0001
0010
,  // measure 159
0200
0000
0000
0000
0000
0000
0000
0300
,  // measure 160
2000
3020
1030
0001
0010
0200
2300
3002
,  // measure 161
0103
0020
1030
0100
0010
0200
2300
3001
,  // measure 162
0200
0320
0230
0300
0001
0000
1000
0000
0100
0000
0020
0000
0032
0000
2003
0000
,  // measure 163
3001
2000
3020
0130
0020
2030
3001
0020
,  // measure 164
0230
2300
3001
1000
0010
0200
0302
0013
,  // measure 165
2000
3020
0031
0200
0302
0203
0320
2030
,  // measure 166
3002
0023
0130
0010
0001
1000
0020
0032
,  // measure 167
0013
1000
0100
0010
0002
0203
0301
0010
,  // measure 168
0100
1000
0001
1000
0010
0100
0001
0010
,  // measure 169
0001
0100
0000
0220
0000
0000
0330
1000
,  // measure 170
0010
0100
0001
1000
0100
0010
0100
1000
,  // measure 171
0010
0000
0100
0000
0000
0000
0220
0000
0000
0000
0330
0000
0100
0001
0010
0100
,  // measure 172
0020
0000
0000
0030
0002
0003
0200
0300
0020
0000
0030
2000
0000
3000
0002
0003
,  // measure 173
2000
0000
0000
3000
0200
0300
0020
0030
0002
0000
0003
2000
0000
3000
0020
0030
,  // measure 174
0100
0001
0100
0010
1000
0001
0010
0100
1000
0010
0100
0001
1000
0100
0010
0100
,  // measure 175
1000
0001
0100
0010
1000
0001
0010
0100
0010
0001
1000
0010
0100
0001
1000
0100
,  // measure 176
0010
0000
0000
0022
0000
0000
0000
0000
0000
0000
0000
0000
0000
0000
0033
0000
,  // measure 177
0001
0000
0000
0202
0000
0000
0000
0000
0000
0000
0000
0000
0000
0000
0303
0000
,  // measure 178
1000
0000
0000
2020
0000
0000
0000
0000
0000
0000
0000
0000
0000
0000
3030
0000
,  // measure 179
0100
0000
0000
2200
0000
0000
0000
0000
0000
0000
0000
0000
0000
0000
3300
0000
,  // measure 180
0010
0000
0100
0000
0001
0000
1000
0100
0000
0100
1000
0000
0010
0100
0001
0000
,  // measure 181
1000
0100
0000
1000
0000
0010
0100
0000
0002
0000
0000
0000
2000
0000
3003
0000
,  // measure 182
0001
0010
0000
0001
0000
0100
0010
1000
0001
0000
1000
0000
0100
0010
0100
1000
,  // measure 183
0001
0000
0000
0101
0000
0000
1010
0000
0000
1100
0000
0000
0110
0000
1001
0000
,  // measure 184
0010
0000
0001
0000
0100
0000
0010
0100
0000
0100
0001
0000
0010
0100
1000
0000
,  // measure 185
0010
0100
0000
0001
0000
1000
0001
0000
0020
0000
0000
0000
0200
0000
0330
0000
,  // measure 186
1000
0000
0100
0000
1000
0010
0000
0100
0000
0010
0000
1000
0100
1000
0010
0100
,  // measure 187
0001
0010
0100
1000
0001
0100
0010
1000
0100
0010
0100
1000
0001
0100
0010
1000
,  // measure 188
0001
0000
0000
0000
0220
0000
0330
0000
1000
0000
0000
0010
0000
0000
1000
0000
,  // measure 189
0100
0010
0001
1000
0010
1000
0100
0010
,  // measure 190
0100
0000
0000
0000
2200
0000
3300
0000
0001
0000
0000
0100
0000
0000
0001
0000
,  // measure 191
2002
0000
0000
0000
0000
0000
0000
3003
,  // measure 192
1000
0000
0000
1100
0000
0000
1010
0000
0100
0000
0000
0110
0000
0000
1010
0000
,  // measure 193
0001
0000
0000
0011
0000
0000
0101
0000
1000
0000
0000
1100
0000
0000
1001
0000
,  // measure 194
0100
0010
0100
0000
0001
0000
1000
0000
0100
0000
0010
0000
0001
0000
0100
0000
,  // measure 195
0010
1000
0010
0100
0010
0000
0100
0001
0100
0010
0100
0000
0010
1000
0001
1000
,  // measure 196
0200
0000
0000
0000
0000
0000
0000
0300
0020
0000
0000
0000
0000
0000
0000
0030
,  // measure 197
0002
0000
0000
0000
0000
0000
0000
0003
2000
0000
0000
0000
0000
0000
0000
3000
,  // measure 198
0020
0000
0000
0000
0000
0000
0000
0000
0000
0000
0000
0000
0000
0000
0000
0030
,  // measure 199
0200
0000
0000
0000
0000
0000
0000
0300
0002
0000
0000
0000
0000
0000
0000
0003
,  // measure 200
2000
0000
0000
0000
0000
0000
0000
3000
0200
0000
0000
0000
0000
0000
0000
0300
,  // measure 201
0020
0000
0000
0000
0000
0000
0000
0030
0200
0000
0000
0000
0000
0000
0000
0300
,  // measure 202
2000
0000
0000
0000
0000
0000
0000
3000
0002
0000
0000
0000
0000
0000
0000
0003
,  // measure 203
0200
0000
0000
0000
0000
0000
0000
0300
0020
0000
0000
0000
0000
0000
0000
0030
,  // measure 204
2000
3100
1000
0001
1000
0100
1000
0001
,  // measure 205
0200
0310
0100
1000
0200
0310
0100
1000
,  // measure 206
0200
0301
0010
0100
1000
0001
0100
0010
,  // measure 207
2000
3100
0010
0001
2000
3010
0100
0001
,  // measure 208
2000
3100
0001
0100
2000
3010
0001
0010
,  // measure 209
2000
3100
0010
0100
2000
3001
0100
0010
,  // measure 210
0200
0301
0010
0100
2000
3001
0100
0010
,  // measure 211
1000
0100
0010
0001
0100
0010
0100
0001
0010
0000
0100
0000
1000
0000
0000
0000
,  // measure 212
0010
0100
0001
1000
0100
0010
0001
1000
0010
0100
0010
1000
0001
0010
0100
1000
,  // measure 213
0001
1000
0010
0100
0001
1000
0100
0010
0001
1000
0001
0100
0010
1000
0001
0010
,  // measure 214
0100
1000
0100
0010
0001
1000
0010
0100
0001
0100
0010
0100
0001
1000
0100
0010
,  // measure 215
0100
1000
0001
1000
0010
0100
0001
1000
0001
0010
0100
0010
0001
1000
0010
0100
,  // measure 216
0010
1000
0001
1000
0100
0010
0100
1000
0001
0100
0010
0100
1000
0100
0010
0100
,  // measure 217
0001
1000
0100
1000
0001
0010
0100
1000
0001
1000
0100
0010
0001
0100
0010
1000
,  // measure 218
0100
0010
0100
1000
0001
0100
0010
0100
0001
1000
0001
0010
0100
1000
0001
0100
,  // measure 219
0010
1000
0010
0100
0001
0100
0001
1000
0010
0100
0001
1000
0100
0010
0001
1000
,  // measure 220
0001
0100
0001
1000
0010
1000
0100
0010
0100
1000
0001
0100
0010
1000
0010
0100
,  // measure 221
0010
1000
0001
0010
0100
0010
0001
1000
0001
0100
0010
1000
0010
0100
0010
0001
,  // measure 222
0010
0100
0001
1000
0100
0010
0001
0010
0100
1000
0001
0100
0010
1000
0001
1000
,  // measure 223
0100
0010
0001
1000
0010
0100
0001
0010
0100
1000
0010
0100
0010
1000
0001
0010
,  // measure 224
0100
1000
0001
0100
0010
1000
0001
0100
0010
0100
0001
0010
0100
0010
0001
1000
,  // measure 225
0100
0010
0001
1000
0010
0100
0001
1000
0010
1000
0001
1000
0100
0010
0100
1000
,  // measure 226
0001
0100
0001
1000
0010
1000
0100
1000
0001
0100
0010
0100
0001
1000
0100
0010
,  // measure 227
0001
1000
0010
0100
0010
1000
0001
0010
0100
1000
0100
0010
0100
1000
0001
0100
,  // measure 228
0010
1000
0001
0010
0100
0010
0001
0100
0001
0100
0010
1000
0001
1000
0100
1000
,  // measure 229
0001
0100
0010
0100
0001
1000
0100
0010
0100
1000
0001
0100
0010
1000
0001
1000
,  // measure 230
0100
1000
0010
0100
0001
1000
0001
0010
0001
0100
0010
1000
0001
0010
0100
1000
,  // measure 231
0010
0100
0001
1000
0100
0010
0100
1000
0001
0100
0010
1000
0100
0010
0001
1000
,  // measure 232
0010
1000
0001
0100
0010
1000
0001
1000
0100
1000
0010
0100
0001
1000
0100
0010
,  // measure 233
0100
1000
0001
0100
0010
1000
0001
1000
0100
0010
0001
1000
0010
0100
0001
1000
,  // measure 234
0100
1000
0010
0100
0001
0010
0001
0100
0010
1000
0001
0010
0100
0010
0001
1000
,  // measure 235
0010
0100
0001
1000
0001
0010
0001
0100
0010
1000
0010
1000
0100
1000
0001
0100
,  // measure 236
0001
0010
0100
1000
0010
1000
0001
0100
0010
1000
0001
0010
0100
1000
0100
1000
,  // measure 237
0010
0100
0010
1000
0001
1000
0100
1000
0010
0100
0001
0100
0010
1000
0001
0100
,  // measure 238
0001
0010
0100
1000
0010
0100
0001
1000
0100
0010
0100
1000
0001
0010
0100
1000
,  // measure 239
0010
0100
0001
1000
0001
1000
0100
0010
0100
1000
0001
0100
0010
0100
0001
1000
,  // measure 240
0100
0010
0001
1000
0010
0100
0001
1000
0100
0010
0001
1000
0001
0100
0010
1000
,  // measure 241
0001
0010
0100
1000
0010
1000
0001
1000
0100
0010
0001
1000
0010
0100
0001
0100
,  // measure 242
0010
1000
0001
0010
0100
1000
0010
0100
,  // measure 243
0001
0010
0100
1000
0010
0100
0001
1000
0100
0010
0100
1000
0001
0100
0010
0100
,  // measure 244
0002
0000
0000
0000
0010
0000
0000
0003
,  // measure 245
2000
0000
0000
0000
0100
0000
0000
3000
,  // measure 246
0002
0000
0000
0000
0000
0000
0000
0003
,  // measure 247
2000
0000
0000
3000
0020
0000
0000
0030
,  // measure 248
0202
0000
0000
0000
0000
0303
0100
0010
2000
3000
0001
0010
,  // measure 249
0200
0000
0300
0000
0010
0000
0100
0000
2000
0000
0000
0000
0000
0000
0000
0000
0000
0000
0000
0000
0000
3000
0000
0000
,  // measure 250
2020
0000
0000
0000
0000
3030
0100
0001
0020
0030
0100
1000
,  // measure 251
0002
0003
1000
0010
0200
0000
0000
0000
0000
0000
0300
0000
,  // measure 252
0220
0000
0000
0000
0000
0330
0010
1000
0002
0000
0023
0000
,  // measure 253
0230
0000
2300
0000
3020
0000
0000
0000
0230
0000
0000
0300
,  // measure 254
0022
0000
0000
0000
0000
0000
0000
0000
0000
0000
0000
0033
,  // measure 255
1001
0000
0000
0000
0010
1000
0010
0000
0100
0000
0110
0000
0000
0000
0101
0000
0000
0000
1000
0000
0100
1000
0010
0100
,  // measure 256
0002
0023
0230
2300
3020
2030
3002
0203
0320
2030
3002
0023
,  // measure 257
2030
3020
0032
2003
3020
0000
0000
0000
0000
0030
0200
0300
,  // measure 258
0002
2003
3200
0320
0230
2300
3002
0203
0320
2030
3002
2003
,  // measure 259
3200
0320
0032
0023
0230
2300
3002
0203
2300
3200
0302
0023
,  // measure 260
0230
0000
0000
0000
2300
0000
0000
0000
3020
0000
0000
0230
0000
0302
0000
0000
2003
0000
0000
0000
3200
0000
0000
0000
2300
0000
0000
0000
3020
0000
0000
0000
0230
0000
0000
0000
0302
0000
0000
0000
0023
0000
0000
0000
0230
0000
0000
0000
,  // measure 261
2300
0000
0000
0000
3020
0000
0000
0000
0230
0320
2030
3002
,  // measure 262
0023
0000
0000
0000
0230
0000
0000
0000
2300
0000
0000
3200
0000
0320
0000
0000
0032
0000
0000
0000
0203
0000
0000
0000
0302
0000
0000
0000
2003
0000
0000
0000
3200
0000
0000
0000
0320
0000
0000
0000
0032
0000
0000
0000
0203
0000
0000
0000
,  // measure 263
0302
0023
0230
2300
3020
0000
0000
0000
0230
0000
0320
0000
,  // measure 264
1030
0000
0000
0000
0100
0000
0000
0000
1000
0000
0000
0000
0000
0010
0000
0100
0000
0000
0000
0000
0110
0000
0000
0000
0000
0100
0000
0001
0000
0000
0000
0000
0101
0000
0000
0000
0010
0000
0000
0000
1000
0000
0000
0000
0001
0000
0000
0000
,  // measure 265
0010
0000
0000
0000
0100
0000
0000
0000
1000
0000
0000
0000
0001
0000
0000
0000
1000
0000
0000
0000
0100
0000
0000
0000
0000
0010
0000
0001
0000
0000
0000
0000
0011
0000
0000
0000
0000
1000
0000
0001
0000
0000
0000
0000
1001
0000
0000
0000
,  // measure 266
0010
0000
0000
0000
0100
0000
0000
0000
1000
0000
0000
0000
0001
0000
0000
0000
0100
0000
0000
0000
0010
0000
0000
0000
0000
0100
0000
0010
0000
0000
0000
0000
0110
0000
0000
0000
0000
0010
0000
1000
0000
0000
0000
0000
1010
0000
0000
0000
,  // measure 267
0100
0000
0000
0000
0001
0000
0000
0000
1000
0000
0000
0000
0100
0000
0000
0000
0010
0000
0000
0000
0100
0000
0000
0000
0000
1000
0000
0100
0000
0000
0000
0000
1100
0000
0000
0000
0000
0010
0000
0100
0000
0000
0000
0000
0110
0000
0000
0000
,  // measure 268
2000
0000
0000
0000
3020
0000
0000
0000
0230
0000
0000
0302
0000
0023
0000
0000
0230
0000
0000
0000
0320
0000
0000
0000
0032
0000
0000
0000
0203
0000
0000
0000
0320
0000
0000
0000
2030
0000
0000
0000
3200
0000
0000
0000
0320
0000
0000
0000
,  // measure 269
0230
2300
3020
0230
0302
0023
2030
3020
0032
0203
0320
0230
,  // measure 270
0302
0000
0000
0000
2003
0000
0000
0000
3200
0000
0000
0320
0000
0032
0000
0000
2003
0000
0000
0000
3020
0000
0000
0000
0230
0000
0000
0000
0320
0000
0000
0000
2030
0000
0000
0000
3002
0000
0000
0000
0023
0000
0000
0000
0230
0000
0000
0000
,  // measure 271
2300
3020
2030
3002
0203
0000
0000
0000
0320
0000
2030
0000
,  // measure 272
3002
0000
0003
0200
0320
0030
2000
0000
0000
0000
0000
3000
,  // measure 273
0200
0000
0300
2000
3002
0003
0020
0000
0000
0000
0000
0030
,  // measure 274
0200
0300
2000
3000
0020
0030
0002
0003
0020
0030
0200
0300
,  // measure 275
0002
0000
0000
0000
0000
0003
2000
0000
0000
0000
0000
3000
,  // measure 276
0200
0000
0300
0020
0032
0003
2000
0000
0000
0000
0000
3000
,  // measure 277
0020
0000
0030
0200
0302
0003
0200
0000
0000
0000
0000
0300
,  // measure 278
0002
0003
2000
3000
0200
0300
0002
0003
0200
0300
2000
3000
,  // measure 279
0020
0000
0000
0000
0000
0000
0000
0000
0000
0000
0000
0030
,  // measure 280
0100
0001
1000
0001
0010
0100
0010
0001
1000
0010
0100
0001
,  // measure 281
1000
0100
0001
0100
1000
0010
0100
0010
1000
0001
0000
0001
,  // measure 282
0010
0100
1000
0001
0100
0010
0100
0001
1000
0100
0010
0001
,  // measure 283
0100
1000
0100
0001
0010
0100
0010
0001
1000
0010
0100
0001
,  // measure 284
2000
0000
0010
0000
0001
3000
0200
0000
0010
0000
0001
0300
,  // measure 285
0002
0000
0100
0000
1000
0003
0020
0000
0100
0000
1000
0030
,  // measure 286
0200
0300
0020
0030
0002
0003
2000
3000
0002
0003
0200
0300
,  // measure 287
0020
0030
2000
3000
0200
0300
0002
0023
0230
2300
3020
0230
,  // measure 288
0302
0000
0000
0003
1000
0010
1000
0000
0101
0000
0110
0000
,  // measure 289
2020
0000
3030
0001
0010
0000
0022
0000
0000
0000
0000
0033
,  // measure 290
2000
0000
0000
3000
0010
0100
0010
0000
0110
0000
1010
0000
,  // measure 291
2002
0000
3003
1000
0100
0000
2200
0000
0000
0000
3300
0000
,  // measure 292
0010
0100
0001
0100
0010
1000
0001
0010
0100
0010
0001
1000
,  // measure 293
0010
0100
0001
1000
0100
0010
0100
1000
0001
0100
1000
0100
,  // measure 294
0001
0010
0100
1000
0001
0100
0010
1000
0001
0010
0100
0010
,  // measure 295
0001
1000
0100
0010
0001
1000
0010
0100
0010
0100
0001
1000
,  // measure 296
0200
0000
0000
0300
0010
0001
2000
0000
0000
3000
0010
0000
,  // measure 297
2020
3030
2002
3003
0022
0033
0220
0000
0000
0330
1000
0000
,  // measure 298
2200
0000
0000
3300
0002
0003
0200
0300
0002
0003
2000
3000
,  // measure 299
0200
0000
0000
0000
0000
0300
0020
0000
0000
0000
0000
0030
,  // measure 300
0022
0000
0000
0033
1000
0010
0100
0000
0000
0000
0001
0000
,  // measure 301
0022
0033
0202
0303
2020
3030
0220
0000
0000
0330
0001
0000
,  // measure 302
0022
0000
0000
0033
2000
3000
0020
0030
2000
3000
0002
0003
,  // measure 303
0020
0000
0000
0000
0000
0030
0200
0000
0000
0000
0300
0000
,  // measure 304
2002
0000
0000
0000
0000
0000
0000
0000
0000
0000
0000
3003
,  // measure 305
2020
0000
0000
0000
0000
0000
0000
0000
0000
0000
0000
3030
,  // measure 306
0202
0000
0000
0000
0000
0000
0000
0000
0000
0000
0000
0303
,  // measure 307
0022
0000
0000
0000
0000
0033
2002
3003
0202
0303
0220
0330
,  // measure 308
1000
0001
0100
0010
1000
0001
1000
0100
0010
0100
1000
0001
,  // measure 309
0100
0010
0100
0001
1000
0100
0001
0100
1000
0010
0100
0001
,  // measure 310
0010
0100
0010
0001
1000
0010
0100
0001
,  // measure 311
1000
0100
0010
0000
0100
0000
1000
0000
0001
0000
0100
0000
0001
0100
0010
0000
,  // measure 312
1000
0000
0001
0000
0010
0000
0100
0000
1000
0001
0100
0010
1000
0000
0001
0000
,  // measure 313
1000
0100
1000
0010
0100
0000
0010
0000
1000
0000
0001
0000
0010
0000
0100
0000
,  // measure 314
1000
0000
0001
0000
1000
0010
0100
0000
0001
0000
1000
0000
0100
0000
0010
0000
,  // measure 315
0001
0000
0100
0000
0001
0010
0100
0000
0010
0000
0001
0000
1000
0000
0010
0000
,  // measure 316
0100
0001
1000
0000
0100
0000
0010
0000
0001
0000
1000
0000
0010
0100
0001
1000
,  // measure 317
0001
0000
0010
0000
0100
0000
1000
0010
0100
0001
1000
0100
0010
0001
0010
0000
,  // measure 318
0100
0000
1000
0000
0001
0000
0100
0000
0001
0000
0010
0100
1000
0010
0100
0001
,  // measure 319
1000
0000
0010
0000
1000
0001
0100
0010
1000
0000
0001
0000
1000
0100
0010
0000
,  // measure 320
0001
0000
1000
0000
0001
0000
0100
0000
0010
1000
0001
0000
1000
0000
0001
0000
,  // measure 321
0100
0001
0010
0100
0010
0001
1000
0010
0100
0001
1000
0100
0010
0100
1000
0001
,  // measure 322
1000
0100
0010
0001
0100
0010
1000
0001
1000
0000
0010
0000
0200
0000
0310
0000
,  // measure 323
1000
0001
0020
0230
0320
0031
2000
3001
,  // measure 324
0200
0301
0200
0310
2000
3001
0020
0230
,  // measure 325
2300
3001
0200
0310
2000
3100
2000
3001
,  // measure 326
0200
0301
0200
0310
2000
3100
0020
0031
,  // measure 327
0200
0310
2000
3001
0200
0301
0020
0130
,  // measure 328
1000
0000
0000
0000
1010
0000
1000
0100
0010
0000
0001
0000
0011
0000
0000
0000
,  // measure 329
0101
0000
0100
0010
1000
0000
0100
0000
1100
0000
1000
0010
0100
0001
0010
0001
,  // measure 330
1000
0100
0010
0001
1000
0010
0100
0010
1000
0001
0100
0010
1000
0100
0010
0001
,  // measure 331
1000
0000
0010
1000
0010
0000
1000
0000
0110
0000
0101
0000
2002
0000
3003
0000
,  // measure 332
1000
0100
1000
0010
0200
0300
0010
0100
,  // measure 333
0002
0000
0003
0000
1000
0000
0001
0000
0100
0000
0010
0100
0010
0000
1000
0000
,  // measure 334
1100
0011
0101
0100
0001
0010
0100
1000
,  // measure 335
0010
1000
0001
0100
0010
1000
0100
0010
,  // measure 336
0001
1000
0001
0100
0010
1000
0010
0100
,  // measure 337
0001
1000
0100
0010
0100
1000
0001
0100
,  // measure 338
0001
0010
1000
0010
0001
0100
0010
1000
,  // measure 339
0001
0010
0100
0010
0001
1000
0100
0010
,  // measure 340
0001
1000
0010
0100
0001
1000
0001
0010
,  // measure 341
0001
1000
0010
0100
0001
1000
0100
0010
,  // measure 342
0100
0000
1000
0000
0001
0100
0010
1000
0001
0000
0010
0000
0100
0000
1000
0000
,  // measure 343
0001
0100
0010
1000
0001
0010
0100
1000
,  // measure 344
0001
0100
0010
1000
0001
0010
0100
1000
,  // measure 345
0001
1000
0001
0010
0100
1000
0010
0100
,  // measure 346
0001
0000
0100
0000
0101
0000
1000
0100
0010
0000
0100
0000
1100
0000
1000
0000
,  // measure 347
0010
0000
0100
0000
0110
0000
0100
0001
0010
0000
0001
0000
0011
0000
0100
0000
,  // measure 348
0001
1000
1001
0100
0010
1000
1100
0100
,  // measure 349
0010
0000
0001
0000
0101
0000
1000
0000
0001
0010
0100
0010
0001
1000
0010
0100
,  // measure 350
0002
0000
0003
1000
1010
0000
0100
0001
,  // measure 351
1000
0000
0100
0000
0010
0000
0001
0000
1000
0000
0010
1000
0000
0010
0100
0000
,  // measure 352
0100
0010
0100
0001
1000
0100
0001
0100
1000
0010
0100
0001
0010
0100
0010
0001
,  // measure 353
0200
0000
0000
0000
0000
0000
0300
0000
0220
0000
0000
0330
0202
0000
0000
0303
,  // measure 354
2010
0010
0010
0010
,  // measure 355
0010
0000
0001
0000
0001
0000
0001
3000
,  // measure 356
0102
0100
0100
0100
,  // measure 357
1000
0000
1000
0000
1000
0000
1000
0003
,  // measure 358
0010
0100
0001
1000
0100
0010
0100
1000
,  // measure 359
0001
0100
0010
1000
0001
0010
0001
0100
,  // measure 360
0010
1000
0001
0010
0100
0010
0001
1000
0010
1000
0100
0010
0001
1000
0010
0100
,  // measure 361
0010
0100
0001
1001
,  // measure 362
1000
0100
0010
0001
0100
0001
1000
0010
0100
0001
1000
0100
0010
0001
0010
0001
,  // measure 363
0100
0010
0100
0001
1000
0001
0010
0001
0100
0010
1000
0010
0100
0001
1000
0010
,  // measure 364
1000
0100
0010
0001
0100
0010
1000
0001
0010
0100
0010
0001
1000
0100
0010
0001
,  // measure 365
0100
0010
1000
0001
1000
0001
0010
0100
0010
0001
1000
0010
0100
0010
1000
0001
,  // measure 366
0010
0000
0100
0010
0100
0000
0011
0000
1001
0000
1000
0010
1000
0000
1010
0000
,  // measure 367
0110
0000
0100
0001
0100
0000
0101
0000
0022
0000
0033
0000
2200
0000
3300
0000
,  // measure 368
1010
0000
0010
0100
0010
0000
0110
0000
0101
0000
0001
0010
0001
0000
0011
0000
,  // measure 369
0110
0000
0100
1000
0010
0100
0001
0010
0100
0000
1000
0000
0010
1000
0001
0100
,  // measure 370
0010
0000
1000
0001
1000
0100
0010
0100
1000
0000
0001
0100
0010
0000
0000
0000
,  // measure 371
1001
0000
0100
0010
1000
0010
0100
0001
0010
0000
0110
0000
2200
0000
3300
0000
,  // measure 372
1010
0000
1000
0100
0010
0001
1000
0010
0100
0000
0010
0100
0001
0000
0000
0000
,  // measure 373
1100
0000
0010
0001
0100
0010
1000
0001
1000
0000
0110
0000
0011
0000
0101
0000
,  // measure 374
1000
0010
0000
0010
0100
0000
0001
0000
0011
0000
0101
0000
1010
0000
0000
0000
,  // measure 375
0100
0001
0000
0001
0010
0000
0100
0000
1100
0000
1010
0000
1001
0000
0000
0000
,  // measure 376
0010
0100
0000
0100
0001
0000
1000
0000
0011
0000
1100
0000
1010
0000
0110
0000
,  // measure 377
0101
0000
0110
0000
1001
1000
0010
0100
,  // measure 378
0001
0000
1000
0100
0010
0000
0001
0000
1010
0000
0110
0000
0101
0000
0011
0000
,  // measure 379
1001
1100
0010
0101
0110
1000
0110
1010
,  // measure 380
0001
0000
0010
0100
1000
0000
0010
0000
0110
0000
0101
0000
1001
0000
1100
0000
,  // measure 381
0011
1001
0010
0110
0101
1000
0100
1000
,  // measure 382
0010
0100
0001
1000
0001
0000
0010
0100
0010
0001
1000
0000
0010
0100
0001
0010
,  // measure 383
0100
1000
0010
0100
0001
0000
1000
0100
0010
0100
1000
0000
0001
0100
0010
1000
,  // measure 384
0001
1000
0100
0010
0100
0000
1000
0010
0100
0001
0010
0000
0100
1000
0100
1000
,  // measure 385
0010
0000
0110
0000
0000
0000
0101
0000
0000
0000
0000
0000
1000
0001
0010
0100
,  // measure 386
1000
0001
0100
0010
1000
0100
0010
0001
0100
0010
0100
0001
1000
0100
0010
0001
,  // measure 387
1000
0010
0100
0001
1000
0010
0100
0010
1000
0100
0010
0100
1000
0001
0010
0100
,  // measure 388
1000
0001
0100
0010
1000
0001
0100
0001
1000
0001
0010
0100
0010
0001
1000
0010
,  // measure 389
1000
0001
0100
0001
0010
0001
1000
0010
0100
0010
1000
0001
0010
0100
1000
0001
,  // measure 390
0100
0010
0100
0001
1000
0100
0010
0001
0010
0100
0010
0001
1000
0010
0100
0001
,  // measure 391
1000
0100
0010
0100
1000
0010
1000
0010
0100
0001
1000
0001
0010
0001
1000
0010
,  // measure 392
0100
0010
1000
0001
0010
0100
0010
0001
1000
0010
0100
0001
1000
0001
0010
0001
,  // measure 393
1000
0010
1000
0001
0100
0010
1000
0001
,  // measure 394
0011
0000
0011
0000
1000
0000
0000
0000
0010
0000
0000
0100
0000
0000
0010
0000
,  // measure 395
1100
1100
0000
0000
0000
0110
0000
0101
,  // measure 396
1001
0000
0000
0000
0010
0000
0000
0000
0100
0000
0000
0001
0000
0000
1000
0000
,  // measure 397
0220
0000
0000
0330
1100
0000
0011
0000
,  // measure 398
0002
0000
0000
0000
0003
0000
1000
0010
0100
0000
0010
0000
0100
0001
1000
0100
,  // measure 399
0020
0000
0000
0030
0001
0100
0001
0100
0020
0000
0000
0000
0030
0000
1000
0001
,  // measure 400
0010
0000
0100
0000
0010
0001
0100
0020
2030
0000
0000
3000
0001
0010
0100
0010
,  // measure 401
0002
0000
0000
0000
0003
0000
1000
0001
0100
0000
0010
0000
1000
0100
0010
0100
,  // measure 402
1000
0000
0000
0000
0011
0000
0000
0000
0110
0000
0000
0000
1000
0010
0100
0010
,  // measure 403
1000
0001
1000
0100
0010
0000
0001
0100
0001
1000
0010
0000
0100
0001
1000
0001
,  // measure 404
0010
0100
1000
0010
0100
0001
1000
0100
0010
0100
1000
0001
1000
0000
0010
0000
,  // measure 405
0100
0001
0100
0010
1000
0000
0010
1000
0010
0100
0001
0000
1000
0100
0010
0001
,  // measure 406
0100
0001
1000
0010
0100
0001
0010
0100
1000
0010
0100
0010
1000
0000
0001
0000
,  // measure 407
0010
0100
0010
0100
1000
0000
0010
0100
0010
0100
0001
0000
1000
0100
0010
0100
,  // measure 408
0000
0000
1100
0000
0000
0000
0000
0000
1010
0000
0000
0110
0000
0000
0101
0000
,  // measure 409
1001
0000
1001
0000
0100
0000
0010
1000
0001
0100
0010
0000
1100
0000
1100
0000
,  // measure 410
0010
0000
0001
0100
0010
1000
0001
0000
0011
0000
0011
0000
1000
0000
0100
1000
,  // measure 411
0010
0100
0001
0000
0101
0000
0101
0000
1000
0000
0010
0100
0001
0010
0100
0000
,  // measure 412
0110
0000
0110
0000
0001
0000
1000
0100
1000
0010
0100
0000
0101
0000
0101
0000
,  // measure 413
0010
0000
0100
0001
1000
0100
1000
0000
1010
0000
1010
0000
0001
0000
1000
0010
,  // measure 414
0100
0010
1000
0000
0011
0000
0000
0000
1001
0000
0000
0000
1100
0000
0000
0000
,  // measure 415
0010
0000
0001
0010
0001
0000
0100
0000
0010
0000
1000
0000
0010
0000
0000
0000
,  // measure 416
0110
0000
0000
0000
0101
0000
0000
0000
1000
0000
0100
1000
0100
0000
1000
0000
,  // measure 417
0010
0000
0100
0000
0010
0000
0000
0000
1010
0000
0000
0000
1000
0100
1000
0001
,  // measure 418
0100
0010
1000
0001
1000
0100
0010
0100
,  // measure 419
1000
0000
0001
0000
0100
0000
0010
0000
0100
0001
0010
0100
1000
0001
0100
0010
,  // measure 420
0100
0001
1000
0100
0010
0001
1000
0010
0100
0001
1000
0001
0010
0100
0010
0001
,  // measure 421
0100
0000
0010
0000
0100
0000
0001
0010
0100
0000
0010
0000
0001
0000
1000
0000
,  // measure 422
0010
0000
1000
0000
0001
0000
0100
0010
1000
0000
0001
0000
1000
0000
0100
0000
,  // measure 423
1000
0010
0100
0001
0010
0100
1000
0010
0100
0001
1000
0100
0010
0001
1000
0010
,  // measure 424
0200
0000
0000
0300
0202
0000
0000
0303
,  // measure 425
0010
0000
0100
0000
0010
0000
1000
0100
0010
0000
0100
0000
1000
0000
0001
0000
,  // measure 426
0100
0000
0001
0000
1000
0000
0010
0100
0001
0000
1000
0000
0001
0000
0010
0000
,  // measure 427
0001
0100
0010
1000
0100
0010
0001
0100
0010
1000
0001
0010
0100
1000
0001
0100
,  // measure 428
0020
0000
0000
0030
2020
0000
0000
3030
,  // measure 429
0001
0000
1000
0000
0001
0000
0010
0100
1000
0000
0010
0000
1000
0000
0001
0000
,  // measure 430
0010
0000
1000
0000
0010
0000
0001
0100
0010
0000
1000
0000
0001
0000
0010
0000
,  // measure 431
0100
1000
0010
0100
0001
0010
0100
1000
0001
0100
0010
1000
0100
0010
0001
1000
,  // measure 432
0020
0000
0000
0030
2020
0000
0000
3030
,  // measure 433
1000
0000
0001
0000
1000
0000
0100
0010
0001
0000
0100
0000
0001
0000
1000
0000
,  // measure 434
0100
0000
0001
0000
0100
0000
1000
0010
0100
0000
0001
0000
1000
0000
0100
0000
,  // measure 435
0010
0001
0100
0010
1000
0100
0010
0001
1000
0010
0100
0001
0010
0100
1000
0001
,  // measure 436
0100
0010
0100
0001
1000
0100
0010
0001
0010
0100
1000
0010
0100
0001
1000
0100
,  // measure 437
0010
0000
0000
0000
0000
0000
0000
0000
0011
0000
0000
0000
0101
0000
0000
0000
0110
0000
1010
0000
1001
0000
0011
0000
0110
0000
0000
0000
1000
0000
0000
1000
,  // measure 438
0010
0000
0000
0000
0010
0000
0000
0010
0100
0000
0000
0000
0100
0000
0000
0100
,  // measure 439
0001
1000
2002
0000
,  // measure 440
0000
0000
0000
0000
,  // measure 441
0000
0000
0000
3003
;
