#TITLE:SINister Evolution;
#SUBTITLE:;
#ARTIST:TAK;
#TITLETRANSLIT:;
#SUBTITLETRANSLIT:;
#ARTISTTRANSLIT:;
#CREDIT:xXMokou98Xx;
#BANNER:SINister Evolution.bn.png;
#BACKGROUND:SINister Evolution.bg.png;
#LYRICSPATH:;
#CDTITLE:;
#MUSIC:SINister Evolution.mp3;
#OFFSET:1.530;
#SAMPLESTART:97.440;
#SAMPLELENGTH:12.000;
#SELECTABLE:YES;
#BPMS:0.000=149.050;
#STOPS:;
#BGCHANGES:;

//---------------dance-single - ----------------
#NOTES:
     dance-single:
     :
     Challenge:
     16:
     0.867,1.000,0.388,0.890,1.000: // measure 1
0000
0000
0000
0000
,  // measure 2
0010
0010
0010
0010
0000
0000
0220
0000
0330
0220
0000
0330
0220
0000
0330
0000
,  // measure 3
0100
0100
0100
0100
0000
0000
0220
0000
0330
0220
0000
0330
0220
0000
0330
0000
,  // measure 4
0001
1000
0001
1000
0000
0000
2002
0000
3003
2002
0000
3003
2002
0000
3003
0000
,  // measure 5
0020
0000
0000
0000
0130
0001
0100
0001
2000
0000
0000
0000
3100
0010
0100
0010
,  // measure 6
0001
0000
0100
0000
0001
0000
1000
0100
0000
1000
0010
0000
0100
0000
0010
0000
,  // measure 7
0100
0000
0001
0000
1000
0000
0010
0100
0000
0001
0100
0000
0001
0000
0010
0000
,  // measure 8
0220
0000
0000
0330
1000
0100
1000
0010
0100
0001
0010
0100
0010
0001
1000
0100
,  // measure 9
0020
0000
0000
0000
0000
0000
0030
0000
0022
0000
0000
0000
0000
0000
0000
0033
,  // measure 10
0202
0000
0000
0300
2000
0000
0000
3003
,  // measure 11
2200
0000
0000
0000
0000
0000
3000
0000
0020
0000
0000
0300
0002
0000
0033
0000
,  // measure 12
2002
0000
0000
0003
0020
0000
0000
3030
,  // measure 13
0120
0100
0100
0200
0000
0300
0200
0000
0300
0200
0000
0300
0200
0000
0330
0000
,  // measure 14
0202
0000
0000
0300
2000
0000
0000
3003
,  // measure 15
2020
0000
0000
3000
0200
0000
0000
0330
,  // measure 16
0022
0000
0000
0030
0200
0000
0000
0303
,  // measure 17
1000
0100
0010
0001
0100
0010
1000
0100
1000
0001
0010
0100
1000
0001
0100
0010
,  // measure 18
1000
0000
0001
0100
0001
0010
0100
1000
0001
0000
1000
0100
0010
0100
1000
0001
,  // measure 19
1000
0000
0001
0100
0010
1000
0001
0010
0100
0000
0010
0001
1000
0001
0010
0100
,  // measure 20
1000
0000
0010
1000
0001
1000
0100
0010
0001
0000
1000
0010
0100
0001
1000
0001
,  // measure 21
0010
0000
0100
1000
0010
1000
0001
0100
0010
0000
0100
0010
1000
0000
0100
0000
,  // measure 22
0011
0000
0000
0101
0000
0000
0110
0000
0000
1010
0000
0000
1100
0000
0000
1001
,  // measure 23
0000
0000
0101
0000
0000
0011
0000
0000
1100
0000
0000
1010
0000
0000
0101
0000
,  // measure 24
0010
0100
0010
0100
0001
0100
0001
0100
0001
0010
0100
1000
0001
0010
0100
1000
,  // measure 25
0002
0000
0000
0000
0200
0000
0000
0303
,  // measure 26
2002
0000
0000
0003
0020
0000
0000
3030
,  // measure 27
0220
0000
0000
0030
0002
0000
0000
0303
,  // measure 28
0022
0000
0033
0000
1000
0010
0100
0010
0100
0100
0001
0001
2000
0000
0000
3000
,  // measure 29
0220
0000
0000
0300
0002
0000
0000
0033
,  // measure 30
2002
0000
0000
0000
0000
0000
3003
0000
0010
0100
0001
1000
0100
0010
0001
0010
,  // measure 31
0200
0000
0000
0000
2000
0000
0000
3300
,  // measure 32
0200
0000
0000
0302
0000
0000
0203
0000
0000
0302
0000
0000
0203
0000
0000
0302
0000
0000
1003
0000
0000
1000
0000
0000
1100
0000
0000
0000
0000
0000
0000
0000
1000
0000
0000
0000
0000
0000
0000
0000
0010
0000
0000
0000
0000
0000
0000
0000
,  // measure 33
0110
0000
0100
0000
0001
0000
0011
0000
0010
0000
0100
0000
,  // measure 34
1000
0000
0000
0000
1000
0000
0000
0000
1000
0000
0000
0000
2200
0000
0000
0000
0000
0000
0000
0000
0000
3300
0000
0000
,  // measure 35
0022
0000
0000
0030
0200
0000
0000
0303
,  // measure 36
0220
0000
0000
0000
0330
0000
0000
0000
0010
0000
1000
0000
0010
0000
0100
0000
0001
0000
0000
0001
0000
0000
0001
0000
0000
0002
0000
0000
0000
0000
0003
0000
,  // measure 37
1000
0010
0100
0010
0100
0001
0100
0001
0010
0001
0010
0001
1000
0001
1000
0010
,  // measure 38
0100
0001
0010
0100
1000
0010
0100
0010
1000
0001
0010
0100
1000
0010
1000
0001
,  // measure 39
0100
0010
1000
0001
0010
1000
0010
0001
1000
0010
1000
0100
0010
0001
0100
0001
,  // measure 40
2000
0000
0000
0000
0000
0000
0000
3000
,  // measure 41
0002
0000
0000
0003
0120
0130
0201
0301
,  // measure 42
1001
0000
0000
0000
,  // measure 43
0010
0000
0000
0000
,  // measure 44
0100
0000
0000
0000
,  // measure 45
0001
0000
1000
0000
,  // measure 46
0001
0010
0100
0010
0002
0000
0000
2003
,  // measure 47
0000
3010
1000
0100
0020
0000
0000
0030
,  // measure 48
0001
0000
0010
0000
0100
0000
1000
0000
0002
0000
0000
0203
0000
0000
0320
0000
,  // measure 49
1030
0000
0100
0000
1000
0000
0010
0100
0002
0003
0001
0010
0200
0000
0300
0000
,  // measure 50
0010
0001
0010
0100
1000
0001
0010
0100
1000
0001
0100
0010
1000
0100
0010
0100
,  // measure 51
1000
0001
0010
0100
1000
0100
0010
0001
0100
0001
1000
0100
0010
0100
1000
0001
,  // measure 52
0010
0100
1000
0010
0100
0001
1000
0001
0010
0100
1000
0100
0010
0100
1000
0001
,  // measure 53
0100
0010
1000
0001
1000
0100
0010
0001
0010
0100
0010
0001
1000
0010
0100
0001
,  // measure 54
1000
0000
0010
0100
0000
0001
0100
0000
0001
1000
0000
0010
1000
0000
0100
1000
,  // measure 55
0000
0001
0100
0000
0001
0010
0000
0100
1000
0000
0010
0100
0000
0001
0100
0000
,  // measure 56
0010
1000
0010
1000
0100
1000
0100
1000
0100
0010
0001
0010
0100
1000
0001
0010
,  // measure 57
0200
1300
0010
0001
0010
1000
0001
0010
0100
1000
0001
0100
1000
0100
0001
0010
,  // measure 58
0100
1000
0010
0000
0000
0000
0000
0000
0000
0000
0000
0000
0000
0000
0000
0000
,  // measure 59
0200
0000
0000
0000
0000
0000
0000
0300
,  // measure 60
0002
0000
0000
0003
2002
0000
0000
3003
,  // measure 61
0200
0000
0000
0000
0020
0000
0000
0330
,  // measure 62
1000
0100
0010
0100
0010
0001
1000
0100
0010
0100
0010
0001
1000
0010
0100
0001
,  // measure 63
0200
0000
0300
0000
0010
1000
0001
1000
0100
0100
0010
0010
0002
0000
0000
0003
,  // measure 64
1000
0000
0010
0000
1000
0000
0010
0000
1000
0000
0010
0000
1000
0000
0000
0001
0000
0000
0010
0000
0000
0100
0000
0000
0010
0000
0001
0000
0010
0000
0001
0000
0010
0000
0001
0000
0010
0000
0000
0001
0000
0000
1000
0000
0000
0001
0000
0000
,  // measure 65
2000
0000
0000
0000
0000
0000
3000
0000
0001
0100
0001
0100
0010
1000
0010
1000
,  // measure 66
0100
0010
0001
1000
0001
0100
0010
1000
0100
0010
0001
1000
0001
0100
0010
1000
,  // measure 67
0200
0000
0000
2300
0000
0000
3200
0000
0000
2300
0000
0000
3100
0000
0000
0100
0000
0000
0010
0000
0000
0010
0000
0000
0011
0000
0000
0000
0000
0000
0000
0000
0001
0000
0000
0000
0000
0000
0000
0000
1000
0000
0000
0000
0000
0000
0000
0000
,  // measure 68
1010
0000
0010
0000
0100
0000
0101
0000
0001
0000
1000
0000
,  // measure 69
0100
0000
0000
0000
0100
0000
0000
0000
0100
0000
0000
0000
0220
0000
0000
0000
0000
0000
0000
0000
0000
0330
0000
0000
,  // measure 70
0100
0010
0100
0010
0001
1000
0010
0100
0010
0100
0001
1000
0100
0010
0100
0010
,  // measure 71
0002
0000
0000
0000
0003
0000
0000
0000
1000
0000
0100
0000
0010
0000
0100
0000
0010
0000
0000
0010
0000
0000
0010
0000
0000
0020
0000
0000
0000
0000
0030
0000
,  // measure 72
0001
0000
0000
0000
0000
0000
0000
0000
0010
0000
0000
0000
0000
0000
0000
0000
0001
0000
0000
0000
0000
0000
0000
0000
0010
0000
0000
0000
0000
0000
0000
0000
0001
0000
0000
0000
0000
0000
0000
0000
0010
0000
0000
0000
0000
0000
0000
0000
0001
0000
0000
0000
0000
0000
0000
0000
0000
0000
0000
0000
1000
0000
0000
0000
0000
0000
0000
0000
0000
0000
0000
0000
0010
0000
0000
0000
0000
0000
0000
0000
0000
0000
0000
0000
1000
0000
0000
0000
0000
0000
0000
0000
0000
0000
0000
0000
0010
0000
0000
0000
0000
0000
0100
0000
0000
0000
0000
0000
0010
0000
0000
0000
0000
0000
0100
0000
0000
0000
0000
0000
0010
0000
0000
0000
0000
0000
0100
0000
0000
0000
0000
0000
0010
0000
0000
0000
0000
0000
0100
0000
0000
0000
0000
0000
0010
0000
0000
0000
0000
0000
0000
0000
0000
0000
0000
0000
1000
0000
0000
0000
0000
0000
0000
0000
0000
0000
0000
0000
0001
0000
0000
0000
0000
0000
0000
0000
0000
0000
0000
0000
1000
0000
0000
0000
0000
0000
0000
0000
0000
0000
0000
0000
,  // measure 73
0100
0010
0001
0010
0100
1000
0001
0010
0100
1000
0001
0100
0010
0100
0001
1000
,  // measure 74
0010
1000
0100
0010
0001
0010
0100
1000
0001
0010
0100
1000
0001
1000
0100
0010
,  // measure 75
0002
0000
0000
0000
0000
0000
0000
0003
,  // measure 76
0200
0000
0000
0300
0210
0310
1020
1030
,  // measure 77
2002
0000
0000
0000
,  // measure 78
0000
0000
0000
0000
0000
0000
0000
3003
;

//---------------dance-single - ----------------
#NOTES:
     dance-single:
     :
     Hard:
     15:
     0.703,0.978,0.312,0.670,0.749:
0000
0000
0000
0000
,
1000
0010
1000
0010
0000
0000
1010
0000
0000
1010
0000
0000
1010
0000
0000
0000
,
0100
0001
0100
0001
0000
0000
0101
0000
0000
0101
0000
0000
0101
0000
0000
0000
,
0001
1000
0001
1000
0000
0000
1001
0000
0000
1001
0000
0000
1001
0000
0000
0000
,
0002
0000
0000
0003
0100
0010
0100
0010
2000
0000
0000
3000
0100
0010
0100
0010
,
0001
0100
0010
0100
0000
0000
0020
0000
0030
0020
0000
0030
0020
0000
0000
0030
,
1000
0010
0100
0010
0000
0000
0200
0000
0300
0200
0000
0300
0200
0000
0000
0300
,
0002
0000
0000
0003
1000
0100
1000
0100
0010
0100
0010
0100
0010
0001
0010
0001
,
2000
0000
0000
0000
0002
0000
0000
3003
,
0202
0000
0000
0000
0000
0000
0000
0003
,
0020
0000
0000
0000
0000
0300
0200
0330
,
0220
0000
0000
0000
0000
0000
0000
0300
,
1000
1000
1000
1000
0000
0000
2000
0000
3000
2000
0000
3000
2000
0000
0030
3000
,
2020
0000
0000
0000
0000
0000
0000
0030
,
0002
0000
0000
0000
0000
0000
0000
3003
,
0022
0000
0000
0000
0000
0000
0000
0033
,
0100
1000
0010
0100
0001
0010
1000
0010
0001
0100
0010
1000
0100
0010
0100
1000
,
0001
0000
0100
0010
0100
0001
1000
0100
0010
0000
0100
1000
0001
0100
1000
0100
,
0001
0000
0010
0100
0010
0001
0100
0010
1000
0000
0001
1000
0100
0001
0100
1000
,
0010
0000
0100
0001
1000
0001
0010
0100
0010
0000
0001
1000
0001
0100
0010
1000
,
0100
0000
1000
0010
0001
0010
0100
0010
1000
0000
0001
0010
0100
0000
1000
0000
,
0200
0000
0000
1000
0000
0000
1000
0000
0000
1000
0000
0000
1300
0000
0020
0100
,
0000
0000
0100
0000
0000
0100
0000
0000
0100
0000
0000
0100
0030
0000
0001
0000
,
1000
0000
0100
0000
1000
0000
0100
0000
0010
0001
0010
0001
0010
0100
0010
0100
,
2000
0000
0000
0000
0002
0000
0000
3003
,
0200
0000
0000
0300
0220
0000
0000
0330
,
2020
0000
0000
3030
0202
0000
0000
0303
,
2002
0000
3003
0000
0010
0100
0001
1000
0100
0010
0001
1000
0002
0000
0000
0003
,
0100
0010
1000
0010
0100
0010
1000
0010
0100
0001
0100
0010
0100
0001
0100
0010
,
2000
0000
0000
0000
0000
0000
3000
0000
0001
0010
0100
1000
0010
0100
0001
1000
,
0200
0000
0000
0300
0220
0000
0000
0330
,
0002
0000
0000
0000
0000
0000
0000
0000
0000
0000
0000
0000
0000
0000
0000
0000
0000
0000
0010
0000
0000
0013
0000
0000
0100
0000
0000
0000
0000
0000
0000
0000
1000
0000
0000
0000
0000
0000
0000
0000
0010
0000
0000
0000
0000
0000
0000
0000
,
1010
0000
1000
0000
0001
0000
0011
0000
0001
0000
1000
0000
,
1100
0000
0000
1100
0000
0000
1100
0000
0002
0000
0000
0000
0000
0000
0003
0000
,
0202
0000
0000
0003
0020
0000
0000
0330
,
1010
0000
0000
0000
0000
0000
0000
0000
1000
0000
0001
0000
0100
0000
0010
0000
0100
0000
0000
0100
0000
0000
0100
0000
0000
0200
0000
0000
0000
0000
0300
0000
,
0010
1000
0001
1000
0100
1000
0010
0100
0001
0010
0100
0010
0001
1000
0010
0100
,
0020
0000
0000
0030
2020
0000
0000
0030
,
0002
0000
0000
3003
0022
0000
0000
0033
,
2000
0000
0000
0000
,
0200
0000
0000
3300
0021
0031
0102
0103
,
0110
0000
0000
0000
,
0010
0000
0000
0000
,
1000
0000
0000
0000
,
0001
0000
0010
0000
,
0100
0010
0001
0010
0200
0000
0300
0020
,
0030
0001
0100
0010
0200
0000
0000
0300
,
0010
0000
1000
0000
0001
0000
0100
0000
0001
0000
0000
0010
0000
0000
0100
0000
,
1000
0000
0100
0000
1000
0000
0010
0100
0010
0000
0100
0001
0010
0000
0000
0000
,
0010
0000
0001
0100
0010
0000
0100
0000
0010
0000
1000
0001
0100
0000
0010
0000
,
1000
0000
0001
0010
0100
0000
1000
0000
0001
0000
0100
0010
1000
0000
0001
0000
,
1000
0000
0100
0001
0100
0000
1000
0000
0001
0000
0100
1000
0100
0000
0010
0000
,
0100
0000
0001
1000
0100
0000
0010
0000
0001
0000
0100
0010
1000
0000
0010
0000
,
0200
0000
0000
0001
0000
0000
0001
0000
0000
0001
0000
0000
0001
0000
0301
2000
,
0000
0000
0001
0000
0000
0001
0000
0000
0001
0000
0000
0001
0000
0000
3001
0000
,
0100
0010
0100
0010
1000
0010
1000
0010
1000
0100
0010
0001
1000
0100
0010
0001
,
0020
0000
0000
0000
,
0000
0030
0000
0000
0000
0000
0000
0000
,
0200
0000
0000
0000
,
2000
0000
0000
3300
2002
0000
0000
3003
,
0200
0000
0000
0300
0202
0000
0000
0303
,
1000
0010
0100
0010
0100
0001
0010
0100
0010
0100
1000
0001
0100
0010
1000
0001
,
2000
0000
3000
0000
0100
1000
0100
1000
0010
0100
0001
1000
0200
0000
0000
0300
,
0010
0001
0100
0001
0010
0001
0100
0001
1000
0100
1000
0010
1000
0100
1000
0010
,
0200
0000
0000
0000
0000
0000
0300
0000
0010
1000
0100
0010
0001
1000
0001
0010
,
0200
0000
0000
0300
0220
0000
0000
0330
,
0020
0000
0000
0000
0000
0000
0000
0000
0000
0000
0000
0000
0000
0000
0000
0000
0000
0000
0130
0000
0000
0100
0000
0000
0010
0000
0000
0000
0000
0000
0000
0000
0001
0000
0000
0000
0000
0000
0000
0000
0100
0000
0000
0000
0000
0000
0000
0000
,
0101
0000
0001
0000
1000
0000
1100
0000
1000
0000
0001
0000
,
0011
0000
0000
0011
0000
0000
0011
0000
2000
0000
0000
0000
0000
0000
3000
0000
,
0010
0100
0010
1000
0001
0100
0010
0100
0010
1000
0100
0010
0100
1000
0010
0100
,
0002
0000
0000
0000
0003
0000
0000
0000
1000
0000
0100
0000
0010
0000
0001
0000
1000
0000
0000
1000
0000
0000
1000
0000
0000
2000
0000
0000
0000
0000
3000
0000
,
0001
0100
0010
1000
0001
0010
0100
1000
0010
1000
0100
0010
0001
0100
0010
0100
,
0001
0010
0100
1000
0010
1000
0001
0100
0010
1000
0100
0010
0100
1000
0001
0100
,
0010
1000
0100
0001
0100
1000
0010
1000
0010
0100
0010
0100
0001
0010
0100
0010
,
0002
0000
0000
0000
,
0200
0000
0000
0303
0210
0310
1020
1030
,
2002
0000
0000
0000
,
0000
0000
0000
0000
0000
0000
0000
3003
;

//---------------dance-single - ----------------
#NOTES:
     dance-single:
     :
     Medium:
     12:
     0.476,0.533,0.358,0.632,0.091:
0000
0000
0000
0000
,
0100
0000
0000
0100
0000
0000
0010
0000
0000
0010
0000
0000
0010
0000
0000
0000
,
1000
0000
0000
1000
0000
0000
0100
0000
0000
0100
0000
0000
0100
0000
0000
0000
,
0010
0000
0000
0010
0000
0000
0001
0000
0000
0001
0000
0000
0001
0000
0000
0000
,
2000
0000
3010
0100
0002
0000
1003
0100
,
0010
0000
0000
0001
0000
0000
0100
0000
0000
0100
0000
0000
0100
0000
0000
0000
,
0010
0000
0000
1000
0000
0000
0001
0000
0000
0001
0000
0000
0001
0000
0000
0000
,
0020
0000
0130
1000
0001
0100
1000
0100
,
0002
0000
0000
0000
2000
0000
0000
3003
,
2020
0000
0000
0000
0000
0000
0000
3030
,
0220
0000
0000
0000
0000
0030
0002
0303
,
0022
0000
0000
0000
0000
0000
0000
0033
,
2200
0000
0000
0000
0000
0000
0000
3300
,
2020
0000
0000
0000
0000
0000
0000
3030
,
0202
0000
0000
0000
0000
0000
0000
0303
,
2002
0000
0000
0000
0000
0000
0000
3003
,
1000
0010
0100
0010
0100
0001
0010
1000
,
0020
0001
0001
0031
,
0200
0001
0001
0301
,
0020
1000
1000
1030
,
0002
0000
1000
0000
1000
0000
1003
0100
,
1100
0000
0000
1010
0000
0000
0110
0000
,
0000
0101
0000
0000
1001
0000
0000
0011
,
0010
0001
0010
0001
0010
0100
1000
0010
,
0200
0000
0000
0000
0020
0000
0000
0330
,
0202
0000
0000
0300
2000
0000
0000
3003
,
2020
0000
0000
3000
0200
0000
0000
0330
,
0202
0303
1000
0010
0100
0001
0200
0000
,
0310
1000
0001
0010
1000
0010
0001
0100
,
0220
0000
0000
0330
1000
0100
1000
0010
,
0200
0000
0000
0000
0002
0000
0000
0303
,
2002
0000
0000
0000
0000
0000
3003
0000
0000
1000
0000
0000
1010
0000
0000
0000
0010
0000
0000
0000
0010
0000
0000
0000
,
0110
0000
0100
0000
0100
0000
0101
0000
0001
0000
0001
0000
,
0100
0000
0000
0010
0000
0000
1000
0000
2020
0000
0000
0000
0000
0000
3030
0000
,
0001
0010
0001
0100
0010
0100
0010
1000
,
0020
0000
0130
0001
2000
0000
0002
3003
,
0100
0001
0100
0010
1000
0100
0001
0100
,
2000
0000
0000
3000
2200
0000
0000
0300
,
0020
0000
0000
3030
0220
0000
0000
0330
,
0100
0000
0000
0000
,
0010
0000
1000
0001
,
1001
0000
0000
0000
,
1000
0000
0000
0000
,
0100
0000
0000
0000
,
0010
0000
0001
0000
,
1000
0010
0100
0010
1000
0000
0000
0001
,
0000
0010
0100
0010
0001
0000
0000
0000
,
0100
0010
1000
0001
0010
0000
0100
0000
,
1000
0010
0001
0010
1000
0001
1000
0000
,
0102
0103
0210
0310
,
1020
1030
2001
3001
,
0012
0013
0210
0310
,
1200
0000
1300
0000
2010
0000
3010
0100
,
0110
0000
0000
0101
0000
0000
1001
0000
,
0000
0011
0000
0000
0110
0000
0000
1100
,
1000
0100
1000
0010
0100
0010
0100
0001
,
0200
0000
0000
0000
,
0000
0300
0000
0000
,
0020
0000
0000
0000
,
2000
0000
0000
0030
0002
0000
0000
3003
,
0022
0000
0000
0003
0200
0000
0000
0330
,
1000
0100
1000
0001
0100
0001
1000
0100
,
2000
0000
3010
0100
0002
0000
2000
3003
,
1000
0100
0010
0001
1000
0010
0100
0001
,
0202
0000
0000
0303
1000
0100
0001
0100
,
2000
0000
0000
0000
0020
0000
0000
3030
,
0220
0000
0000
0000
0000
0000
0330
0000
0000
0010
0000
0000
0110
0000
0000
0000
0100
0000
0000
0000
0100
0000
0000
0000
,
0101
0000
0001
0000
0001
0000
1001
0000
1000
0000
1000
0000
,
0100
0000
0000
0010
0000
0000
0001
0000
0022
0000
0000
0000
0000
0000
0033
0000
,
1000
0010
0100
0010
0100
0001
0010
0100
,
2000
0000
3001
0010
2000
0000
0020
3030
,
0001
0100
0010
1000
0001
1000
0100
0010
,
0100
1000
0001
0010
1000
0010
0001
0100
,
0001
1000
0100
0010
0001
1000
0010
0100
,
0010
0000
0000
0000
,
0100
0000
0001
1000
,
2002
0000
0000
0000
,
0000
0000
0000
0000
0000
0000
0000
3003
;

//---------------dance-single - ----------------
#NOTES:
     dance-single:
     :
     Easy:
     10:
     0.368,0.444,0.114,0.639,0.000:
0000
0000
0000
0000
,
2000
0000
0000
3000
0020
0000
0000
0030
,
0200
0000
0000
0300
0002
0000
0000
0003
,
2000
0000
0000
3000
0002
0000
0000
0003
,
0020
0000
0130
1000
0200
0000
0310
0001
,
0010
0000
0001
0000
1000
0010
1000
0000
,
0010
0000
0100
0000
0001
0010
0001
0000
,
2002
3003
0100
0000
0010
1000
0010
1000
,
0002
0000
0000
0000
0020
0000
0000
0033
,
0220
0000
0000
0030
2000
0000
0000
0300
,
0002
0000
0000
3000
0200
0000
0000
0303
,
2020
0000
0000
0030
0002
0000
0000
3000
,
0020
0000
0000
0003
0200
0000
0000
0330
,
2200
0000
0000
0300
0002
0000
0000
3000
,
0200
0000
0000
0003
0020
0000
0000
0300
,
2000
0000
0000
0030
0002
0000
0000
3003
,
1000
0100
1000
0100
0010
0000
0001
0000
,
2000
0010
0010
0010
,
3020
0100
0100
0100
,
0230
0001
0001
0001
,
0302
0000
1000
0000
1000
0000
1003
0100
,
1100
1000
0010
0100
,
0001
0010
0100
1000
,
0001
0100
0001
0100
0010
1000
0010
1000
,
0002
0000
0000
0000
0000
0000
0000
0003
,
0200
0000
0000
0300
0220
0000
0000
0300
,
2000
0000
0000
0030
0002
0000
0000
3003
,
0011
0000
1000
0001
1000
0000
0010
0000
,
0200
0000
0000
0300
0002
0000
0000
0003
,
2000
0000
0000
3000
0001
0010
0001
0010
,
0200
0000
0000
0300
2000
0000
0000
3000
,
2020
0000
0000
3030
0100
0000
0001
0000
,
1000
0100
0010
0001
,
1000
0000
0000
0000
2200
0000
0000
3000
,
0020
0000
0000
0300
0002
0000
0000
0030
,
2000
3003
0010
1000
0010
0000
0100
0000
,
0001
0000
1000
0000
,
2200
0000
0000
0300
0020
0000
0000
3030
,
0220
0000
0000
0030
0002
0000
0000
0303
,
1000
0000
0000
0000
,
0001
0000
0010
0100
,
0010
0000
0000
0000
,
0001
0000
0000
0000
,
1000
0000
0000
0000
,
0010
0000
0100
0000
,
0001
0000
0010
0000
0200
0000
0000
0300
,
0010
0000
0100
0000
2000
0000
0000
3000
,
0010
0100
0001
1000
,
0001
0000
0010
0000
0100
1000
0200
0300
,
0010
0001
0010
0001
,
0100
0001
0100
0001
,
0100
0010
0100
0010
,
1000
0000
0010
0000
1000
0000
0001
1000
,
0001
0100
0010
1000
,
0001
0010
1000
0010
,
0001
0100
1000
0100
,
0020
0000
0000
0000
,
0000
0030
0000
0000
0000
0000
0000
0000
,
0200
0000
0000
0000
0000
0000
0000
0300
,
0002
0000
0000
0000
2000
0000
0000
3003
,
0022
0000
0000
0030
2000
0000
0000
3003
,
0010
1000
0020
0030
0100
0010
0200
0300
,
0002
0003
1000
0100
1000
0000
0010
0000
,
0220
0000
0000
0030
0002
0000
0000
0303
,
2000
0000
0000
3000
0100
0010
0100
0010
,
0002
0000
0000
0003
0020
0000
0000
0030
,
0200
0000
0000
0300
1000
0000
0010
0000
,
0001
0010
1000
0100
,
0010
0000
0000
0000
0022
0000
0000
0030
,
2000
0000
0000
0003
0020
0000
0000
3000
,
0200
0330
0010
0100
0010
0000
0100
0000
,
0001
0010
0001
0000
1000
0100
1000
0000
,
0010
0000
0100
0000
0001
1000
0001
0000
,
0010
0000
0100
0000
1000
0001
1000
0000
,
0010
0000
0000
0000
,
0100
0000
0001
1000
,
2002
0000
0000
0000
,
0000
0000
0000
0000
0000
0000
0000
3003
;
