#VERSION:0.81;
#TITLE:One Minute;
#SUBTITLE:(DotEXE 'Dopest Dope' Remix);
#ARTIST:Krewella;
#TITLETRANSLIT:;
#SUBTITLETRANSLIT:;
#ARTISTTRANSLIT:;
#GENRE:;
#ORIGIN:;
#CREDIT:;
#BANNER:One Minute (Dotexe's Dopest Dope Remix)-bn.png;
#BACKGROUND:One Minute (Dotexe's Dopest Dope Remix)-bg.png;
#PREVIEWVID:;
#JACKET:One Minute (Dotexe's Dopest Dope Remix)-jacket.png;
#CDIMAGE:;
#DISCIMAGE:;
#LYRICSPATH:;
#CDTITLE:cdtitle.png;
#MUSIC:One Minute (DotEXE 'Dopest Dope' Remix).mp3;
#OFFSET:-11.380;
#SAMPLESTART:88.618;
#SAMPLELENGTH:12.000;
#SELECTABLE:YES;
#BPMS:0.000=174.000,
192.000=87.000,
193.000=174.000,
198.000=87.000,
199.000=174.000,
204.000=87.000,
205.000=174.000,
218.000=87.000,
219.000=174.000,
224.000=87.000,
225.000=174.000,
230.000=87.000,
231.000=174.000,
244.000=87.000,
245.000=174.000,
250.000=87.000,
251.000=174.000,
256.000=87.000,
257.000=174.000,
268.000=87.000,
269.000=174.000,
274.000=87.000,
275.000=174.000,
280.000=87.000,
281.000=174.000;
#STOPS:193.000=0.086,
193.250=0.086,
193.500=0.086,
193.750=0.086,
199.000=0.172,
199.500=0.086,
199.750=0.086,
205.000=0.086,
205.250=0.086,
205.500=0.086,
205.750=0.086,
219.000=0.086,
219.250=0.086,
219.500=0.086,
219.750=0.086,
225.000=0.172,
225.500=0.086,
225.750=0.086,
231.000=0.086,
231.250=0.086,
231.500=0.086,
231.750=0.086,
245.000=0.086,
245.250=0.086,
245.500=0.086,
245.750=0.086,
251.000=0.172,
251.500=0.086,
251.750=0.086,
257.000=0.086,
257.250=0.086,
257.500=0.086,
257.750=0.086,
266.000=0.086,
266.250=0.086,
266.500=0.086,
266.750=0.086,
267.000=0.172,
267.500=0.086,
267.750=0.086,
269.000=0.086,
269.250=0.086,
269.500=0.086,
269.750=0.086,
275.000=0.086,
275.250=0.086,
275.500=0.172,
281.000=0.086,
281.250=0.086,
281.500=0.086,
281.750=0.086,
304.000=0.172,
304.500=0.172,
319.000=0.172,
319.500=0.172,
334.000=0.172,
334.500=0.172;
#DELAYS:;
#WARPS:;
#TIMESIGNATURES:0.000=4=4;
#TICKCOUNTS:0.000=4;
#COMBOS:0.000=1;
#SPEEDS:0.000=1.000=0.000=0;
#SCROLLS:0.000=1.000;
#FAKES:;
#LABELS:0.000=Song Start;
#BGCHANGES:;
#KEYSOUNDS:;
#ATTACKS:
;

//---------------dance-single - ----------------
#NOTEDATA:;
#CHARTNAME:;
#STEPSTYPE:dance-single;
#DESCRIPTION:;
#CHARTSTYLE:;
#DIFFICULTY:Challenge;
#METER:9;
#RADARVALUES:0.546,0.789,0.303,0.129,0.134,974.000,87.000,37.000,64.000,0.000,73.000,0.000,0.000,0.546,0.789,0.303,0.129,0.134,974.000,87.000,37.000,64.000,0.000,73.000,0.000,0.000;
#CREDIT:;
#NOTES:
// measure 0
0002
0000
0100
0000
,  // measure 1
1000
0000
0100
0003
,  // measure 2
2000
0000
0100
0000
,  // measure 3
0001
0000
0100
3000
,  // measure 4
0002
0000
0100
0000
,  // measure 5
1000
0000
0100
0003
,  // measure 6
2000
0000
0100
0000
,  // measure 7
0001
0000
0100
0000
,  // measure 8
0002
0000
0000
0000
,  // measure 9
0000
0000
0000
3003
,  // measure 10
0001
0000
0010
0000
,  // measure 11
0100
0000
1000
0000
,  // measure 12
0001
0000
0000
0100
0000
0000
0010
0000
0100
0000
0000
0001
0000
0000
1000
0000
,  // measure 13
0100
0000
0000
0010
0000
0000
0001
0000
1000
0000
0000
0010
0000
0000
0100
0000
,  // measure 14
0010
1000
0001
0010
0100
0010
0001
1000
,  // measure 15
0010
0100
0001
1000
0100
0010
0001
0100
0010
1000
0001
0010
0100
0010
0001
1000
,  // measure 16
0002
0003
0200
0300
,  // measure 17
0020
0030
1000
0100
,  // measure 18
0020
0030
0002
0003
,  // measure 19
2000
3000
0010
0100
,  // measure 20
0002
0003
2000
3000
,  // measure 21
0200
0300
0010
0001
,  // measure 22
2000
3000
0020
0030
,  // measure 23
0200
0300
0001
1000
,  // measure 24
0100
0000
1000
0010
0100
0000
0001
0010
,  // measure 25
0100
0000
0010
0001
1000
0000
0010
0000
,  // measure 26
1000
0000
0001
0010
0100
0000
1000
0010
,  // measure 27
0100
0000
0001
1000
0100
0000
0010
0000
,  // measure 28
0001
0000
1000
0010
0100
0000
0001
1000
,  // measure 29
0100
0000
0010
0001
1000
0000
0010
0000
,  // measure 30
0100
0000
0001
1000
0100
0000
0010
0001
,  // measure 31
1000
0000
0010
1000
0100
0000
0010
0000
,  // measure 32
0001
0000
1010
0000
1000
0001
0011
0000
,  // measure 33
0010
0010
0100
0010
0000
0001
0101
0000
,  // measure 34
1000
0000
1100
0000
0001
0100
0101
0000
,  // measure 35
0100
0100
0010
0100
0000
0010
1010
0000
,  // measure 36
1000
0000
1100
0000
0001
0010
0011
0000
,  // measure 37
0001
0001
0100
0001
0000
1000
1100
0000
,  // measure 38
0001
0000
0011
0000
1000
0100
1100
0000
,  // measure 39
1000
0000
1000
0000
0010
0000
1000
0000
0001
0000
0010
0000
0001
1000
0001
0010
,  // measure 40
M200
0000
0000
0300
,  // measure 41
002M
0000
0000
0030
,  // measure 42
M200
0000
0000
0300
,  // measure 43
002M
0000
0000
0030
,  // measure 44
M100
001M
M100
001M
,  // measure 45
M100
001M
M100
001M
,  // measure 46
M100
001M
M100
001M
M100
001M
M100
001M
,  // measure 47
0100
1000
0010
0100
0001
0010
0100
0000
,  // measure 48
0040
0000
0030
0000
0001
0001
0001
0001
1000
0000
0001
0000
0100
0000
0000
0000
,  // measure 49
0110
0000
0000
0000
0010
0000
0000
0000
0400
0000
0300
0000
0001
0000
0010
1000
,  // measure 50
0010
0000
0100
0000
1000
0000
0000
0000
1100
0000
0000
0000
1000
0001
0100
0000
,  // measure 51
0004
0000
0003
0000
0010
0010
0010
0010
0100
0000
0010
0000
0001
0000
0000
0000
,  // measure 52
0011
0000
0010
0001
4000
3000
0010
0100
,  // measure 53
0110
0000
1010
0000
1000
0001
0010
0100
,  // measure 54
0010
0000
0000
0000
0001
0000
1000
0000
0040
0000
0030
0000
0100
0100
0100
0100
,  // measure 55
0010
0100
0001
0000
1001
0000
1000
0000
,  // measure 56
0400
0000
0300
0000
1000
0000
0010
0001
0010
0000
0100
0000
0001
0000
0000
0000
,  // measure 57
0101
0000
0000
0000
0010
1000
0001
0000
0040
0000
0030
0000
0001
0001
0001
0001
,  // measure 58
1000
0001
0010
0000
0011
0000
0001
0000
,  // measure 59
0400
0300
0010
1000
1010
0000
1001
0000
,  // measure 60
0001
0010
0100
1000
0010
0100
0001
0000
,  // measure 61
4000
0000
3000
0000
0001
0010
0001
0010
0001
0000
1000
0000
0010
0000
0000
0000
,  // measure 62
0110
0000
0000
0000
0100
0000
0000
0000
0004
0000
0003
0000
1000
0000
0100
0001
,  // measure 63
0100
0000
1000
0000
0010
0000
0000
0000
1010
0000
0000
0000
1000
0001
0100
0000
,  // measure 64
0004
0000
0003
0000
1000
0100
1000
0100
1000
0000
0001
0000
0010
0000
0000
0000
,  // measure 65
0011
0000
0001
0000
4000
3000
0001
0100
,  // measure 66
0101
0000
0000
0000
1001
0000
0000
0000
1000
0100
0010
0100
1000
0000
0001
0100
,  // measure 67
0040
0000
0030
0000
0100
0001
0100
0001
0100
0000
0010
0000
1000
0000
0000
0000
,  // measure 68
1010
0000
0000
0000
0010
0000
0000
0000
0400
0000
0300
0000
0010
0100
0010
0000
,  // measure 69
0100
0000
0010
0000
0100
0000
0000
0000
0101
0000
0000
0000
0001
1000
0100
0000
,  // measure 70
0040
0000
0030
0000
0001
1000
0001
1000
0001
0000
0010
0000
0100
0000
0000
0000
,  // measure 71
1100
0000
1000
0000
0400
0300
0010
0100
,  // measure 72
1000
0001
0100
0010
1000
0100
0010
0001
,  // measure 73
1000
0010
1000
0000
0404
0000
0000
0303
,  // measure 74
4040
0000
0000
3030
1000
0000
0100
0010
,  // measure 75
0M00
0010
0100
0000
4400
0000
0000
3300
,  // measure 76
0044
0033
0044
0033
1000
0000
0001
0000
1000
0000
0000
0000
1001
0000
0000
0000
,  // measure 77
0110
0000
4040
0000
0000
3030
0404
0000
,  // measure 78
0000
0303
0001
0000
0010
0100
00M0
0100
,  // measure 79
0010
0000
0000
0000
0044
0000
0000
0000
0000
0000
0033
0000
4400
3300
4400
3300
,  // measure 80
0001
1000
00M0
0000
0110
0000
1010
0000
,  // measure 81
4001
0000
0000
3000
0400
0000
0000
0300
,  // measure 82
0010
0000
0001
1000
000M
1000
0001
0000
,  // measure 83
0104
0000
0000
0000
0000
0000
0003
0000
4000
3000
4000
3000
0001
0000
0010
0000
,  // measure 84
0001
0000
0011
0000
1001
0000
0001
0100
,  // measure 85
0010
1000
0001
0010
0100
1000
0001
0100
,  // measure 86
1000
0001
0010
1000
0010
0100
0001
0000
,  // measure 87
0101
0000
1010
0000
1000
0100
0010
0000
,  // measure 88
0100
1000
0000
0001
1000
0000
0001
0100
,  // measure 89
1000
0100
0001
0000
1000
0100
1000
0100
,  // measure 90
0001
0100
0010
0001
0010
0000
0001
0100
,  // measure 91
0010
1000
0001
0000
1000
0100
0010
0001
,  // measure 92
0100
1000
0100
0001
1000
0000
0100
0010
,  // measure 93
0001
1000
0010
0000
0100
0010
1000
0001
,  // measure 94
0010
0100
1000
0010
0100
0000
0010
1000
,  // measure 95
0001
0010
0100
0000
0010
0001
1000
0010
,  // measure 96
0100
0000
0001
0000
1000
0000
0001
0000
0010
0000
0000
0000
0100
0000
0000
1000
,  // measure 97
0010
0000
0100
0000
0001
0000
0000
1000
0100
0000
0010
0000
0001
0000
0000
0100
,  // measure 98
0010
0000
1000
0000
0100
0000
0000
0010
0100
0000
1000
0000
0010
0000
0000
0100
,  // measure 99
0001
1000
0001
0010
0001
0100
1000
0100
,  // measure 100
1000
0000
0100
0000
0010
0000
0100
0000
0001
0000
0000
0000
1000
0000
0000
0100
,  // measure 101
0010
0000
0001
0000
1000
0000
0000
0010
0100
0000
0001
0000
0010
0000
0000
0100
,  // measure 102
0010
0000
0001
0000
1000
0000
0000
0001
0100
0000
0010
0000
0100
0000
0001
0000
,  // measure 103
1000
0100
0001
0100
0010
0001
1000
0010
,  // measure 104
0100
0000
0001
0000
0100
0000
0010
0000
1000
0100
1000
0100
1000
0000
0010
0000
,  // measure 105
0100
0001
1000
0100
0001
0100
1000
0010
,  // measure 106
1000
0001
0010
0100
0010
0000
0001
0100
,  // measure 107
0010
1000
0001
0010
1000
0010
0001
1000
,  // measure 108
0010
1000
0100
0010
0100
0000
0010
0001
,  // measure 109
1000
0010
1000
0100
0001
0100
0010
0001
,  // measure 110
1000
0010
0100
0001
0010
0000
0100
1000
,  // measure 111
0001
0100
1000
0100
0010
1000
0100
0010
,  // measure 112
0001
0000
0010
0000
0100
1000
0010
0100
0001
1000
0100
0010
0001
0000
0000
0000
,  // measure 113
1000
0010
0100
0000
0001
0010
0100
0000
,  // measure 114
0010
0001
1000
0010
0100
0001
1000
0000
,  // measure 115
0001
0010
0100
0000
1000
0010
0100
0000
,  // measure 116
0001
1000
0100
0010
0001
1000
0010
0000
,  // measure 117
0100
0001
1000
0000
0100
0010
0001
0000
,  // measure 118
1000
0010
0100
0001
0010
0001
0100
0000
,  // measure 119
0010
0000
0000
0000
1000
0000
0000
0000
0001
0000
0000
0000
0000
0000
0000
0000
0010
0000
0000
0000
0100
0000
0000
0000
1000
0000
0000
0010
0100
0000
0000
0000
,  // measure 120
0000
0000
0001
0000
0010
0000
0000
0001
0000
0000
0100
0000
0010
0000
0000
0000
,  // measure 121
1000
0000
0001
0000
1000
0100
0001
0100
,  // measure 122
1000
0010
0100
0001
,  // measure 123
0010
0000
0001
0000
1000
0010
0001
0010
,  // measure 124
1000
0100
0010
0100
,  // measure 125
1000
0000
0001
0000
0100
0010
1000
0100
,  // measure 126
0010
0100
1000
0010
,  // measure 127
0100
0000
0001
0000
0010
0100
1000
0010
,  // measure 128
0100
0000
0001
0000
1000
0100
002M
0000
,  // measure 129
0000
0000
0030
M200
,  // measure 130
0000
0000
0300
002M
,  // measure 131
0000
0000
0030
M200
,  // measure 132
0000
0000
0300
001M
,  // measure 133
M100
001M
M100
001M
,  // measure 134
M100
0000
001M
0000
M100
0000
001M
M100
,  // measure 135
001M
M100
001M
M100
001M
M100
0010
0001
,  // measure 136
0100
0010
1000
0100
0010
0000
0400
0300
,  // measure 137
1100
0000
1000
1000
1000
1000
0010
1000
,  // measure 138
0001
0000
0000
0000
0010
0000
0100
0000
0110
0000
0000
0000
0010
0000
0001
0100
,  // measure 139
0001
0000
0010
0000
0011
0000
0000
0000
0001
0000
1000
0000
0010
0100
0001
0000
,  // measure 140
1000
0100
0010
0001
0100
0010
1000
0001
0010
0100
1000
0010
0400
0000
0300
0000
,  // measure 141
0101
0000
0001
0001
0001
0001
1000
0001
,  // measure 142
0010
0000
0100
0010
0110
0000
0400
0300
,  // measure 143
1000
0001
1001
0000
0101
0000
0001
0100
,  // measure 144
1000
0000
0100
0000
0001
0010
0100
1000
0001
0010
0100
1000
0004
0000
0003
0000
,  // measure 145
0101
0000
0100
0100
0100
0100
0010
0100
,  // measure 146
0001
0000
0000
0000
1000
0000
0100
0000
1100
0000
0000
0000
1000
0000
0010
0100
,  // measure 147
0010
1000
1001
0000
0001
0010
0100
0010
,  // measure 148
0110
0010
0000
0001
0101
0000
4000
3000
,  // measure 149
1100
0000
0100
0100
0100
0100
0010
0100
,  // measure 150
1000
0000
0001
0100
0101
0000
0001
1000
,  // measure 151
0100
0010
0001
1000
0010
0001
0010
0100
,  // measure 152
0010
0000
0000
0000
0100
0000
0000
0000
0001
0000
0000
0000
1000
0000
0000
0000
0M00
0M00
0M00
0M00
0M00
0M00
0M00
0000
0044
0000
0000
0000
0000
0000
0000
0000
,  // measure 153
0000
0033
4400
0000
0000
3300
0001
0000
,  // measure 154
0100
0110
0000
0010
0110
0000
0404
0000
,  // measure 155
0000
0303
4040
3030
4040
3030
1000
0100
,  // measure 156
1000
0011
1001
4040
,  // measure 157
0000
3030
0404
0000
0000
0303
1000
0000
,  // measure 158
0100
0010
0M00
0010
0100
0000
4400
0000
,  // measure 159
0000
3300
0044
0033
0044
0033
1000
0010
,  // measure 160
0100
0001
0010
0100
M000
0000
4100
0000
,  // measure 161
0000
0000
3000
0000
0004
0003
1000
0010
1000
0000
0100
0000
0020
0030
0200
0300
,  // measure 162
1000
0010
0M00
0010
1000
0000
1004
0000
,  // measure 163
0000
0003
4000
3000
0100
0010
0001
1000
,  // measure 164
1000
0010
0110
0000
0100
0001
0104
0000
,  // measure 165
0000
0000
0003
0000
4000
3000
0100
0000
0100
0000
0100
0000
1000
0000
0010
0000
,  // measure 166
0100
0001
0M00
0001
0100
0000
0410
0300
,  // measure 167
0010
1000
1001
0000
0001
0001
1000
0100
,  // measure 168
0100
2000
3000
0002
,  // measure 169
0000
0100
0000
1000
,  // measure 170
0000
0100
0003
2000
,  // measure 171
0000
0100
0000
0001
,  // measure 172
0000
0100
3000
0001
,  // measure 173
0100
0110
0010
1000
,  // measure 174
0100
0110
0000
0001
,  // measure 175
0000
0101
0000
1000
,  // measure 176
0000
1100
0000
0002
,  // measure 177
0000
0010
0000
1000
,  // measure 178
0000
0010
0003
2000
,  // measure 179
0000
0010
0000
0001
,  // measure 180
0000
0010
3000
0002
,  // measure 181
0000
0010
0003
2000
,  // measure 182
0000
0010
3000
0002
,  // measure 183
0000
0100
0003
2000
,  // measure 184
0000
0100
0000
0002
,  // measure 185
0000
0000
0000
0000
,  // measure 186
0000
0000
3003
000M
,  // measure 187
M000
000M
M000
000M
,  // measure 188
M000
000M
M000
000M
;
