#TITLE:snow prism;
#SUBTITLE:;
#ARTIST:Qrispy Joybox;
#TITLETRANSLIT:;
#SUBTITLETRANSLIT:;
#ARTISTTRANSLIT:;
#GENRE:;
#CREDIT:;
#BANNER:snow prism.png;
#BACKGROUND:snow prism-bg.png;
#LYRICSPATH:;
#CDTITLE:./CDTITLES/DanceDanceRevolution X3 VS 2ndMIX.png;
#MUSIC:snow prism.ogg;
#OFFSET:0.000;
#SAMPLESTART:13.460;
#SAMPLELENGTH:15.000;
#SELECTABLE:YES;
#BPMS:0.000=196.000
;
#STOPS:
;
#BGCHANGES:;
#KEYSOUNDS:;
#ATTACKS:;

//---------------dance-single - ----------------
#NOTES:
     dance-single:
     :
     Beginner:
     3:
     0.138,0.155,0.027,0.018,0.000,102.000,3.000,2.000,0.000,0.000,0.000,0.138,0.155,0.027,0.018,0.000,102.000,3.000,2.000,0.000,0.000,0.000:
0000
0000
0000
0000
,
0000
0000
0000
0000
,
0000
0000
0000
0000
,
0000
0000
0000
0000
,
0000
0000
0000
0000
,
0100
0000
0000
0000
,
0010
0000
0000
0000
,
2000
0000
0000
0000
0000
0000
0000
3000
,
0000
0000
0000
0000
,
0000
0000
0000
0000
,
0000
0000
0000
0000
,
0001
0000
0001
0000
,
0001
0000
0000
0000
,
1000
0000
1000
0000
,
1000
0000
0000
0000
,
0100
0000
0100
0000
,
0100
0000
0000
0000
,
0010
0000
0010
0000
,
0010
0000
0000
0000
,
0001
0000
0001
0000
,
0001
0000
0000
0000
,
1000
0000
1000
0000
,
1000
0000
0000
0000
,
0100
0000
0100
0000
,
0100
0000
0000
0000
,
0010
0000
0000
0000
,
0000
0000
0000
0000
,
0001
0000
0000
0001
,
0000
0000
0000
0000
,
1000
0000
0000
1000
,
0000
0000
0000
0000
,
0100
0000
0000
0100
,
0000
0000
0000
0000
,
0100
0000
0100
0000
,
0100
0000
0000
0000
,
0010
0000
0010
0000
,
0010
0000
0010
0000
,
0010
0000
0000
0000
,
0000
0000
0000
0000
,
1000
0000
1000
0000
,
0100
0000
0000
0000
,
0001
0000
0001
0000
,
0100
0000
0000
0000
,
1000
0000
1000
0000
,
0100
0000
0000
0000
,
0001
0000
0001
0000
,
0010
0000
0000
0000
,
0001
0000
0001
0000
,
1000
0000
0000
0000
,
1000
0000
1000
0000
,
0001
0000
0000
0000
,
0001
0000
0001
0000
,
1000
0000
1000
0000
,
0001
0000
0000
0000
,
0000
0000
0000
0000
,
0010
0000
0010
0000
,
0010
0000
0000
0000
,
0100
0000
0100
0000
,
0100
0000
0000
0000
,
0010
0000
0010
0000
,
0010
0000
0000
0000
,
0100
0000
0100
0000
,
0100
0000
0000
0000
,
0010
0000
0010
0000
,
0100
0000
0000
0000
,
0001
0000
0001
0000
,
0001
0000
0000
0000
,
0010
0000
0010
0000
,
0100
0000
0100
0000
,
0100
0000
0000
0000
,
0010
0000
0000
0000
,
1001
0000
0000
0000
,
0000
0000
0000
0000
,
0000
0000
0000
0000
,
0000
0000
0000
0000
,
0001
0000
0001
0000
,
0001
0000
0000
0000
,
1001
0000
0000
0000
,
1001
0000
0000
0000
,
1000
0000
0100
0000
,
1000
0000
0000
0000
,
0001
0000
0100
0000
,
0001
0000
0000
0000
,
1000
0000
0001
0000
,
1000
0000
0000
0000
,
0200
0000
0000
0000
0000
0000
0000
0300
;

//---------------dance-single - ----------------
#NOTES:
     dance-single:
     :
     Easy:
     6:
     0.243,0.315,0.045,0.081,0.000,174.000,5.000,9.000,0.000,0.000,0.000,0.243,0.315,0.045,0.081,0.000,174.000,5.000,9.000,0.000,0.000,0.000:
0000
0000
0000
0000
,
0000
0000
0000
0000
,
0000
0000
0000
0000
,
0000
0000
0000
0000
,
0000
0000
0000
0000
,
0010
0000
0100
0000
,
0010
0000
1000
1000
,
0001
0000
0000
0000
0000
0000
0000
0200
,
0000
0000
0000
0000
,
0300
0000
0000
0000
,
0000
0000
0000
0000
,
0001
0001
0001
0000
,
0100
0000
0010
0000
,
1000
1000
1000
0000
,
0001
0000
0100
0000
,
0010
0010
0010
0000
,
1000
0000
0001
0000
,
1000
0000
1000
0000
1000
0000
0000
0100
,
0000
0000
0000
0100
0000
0000
0000
0000
,
0001
0001
0100
0000
,
0010
0000
0100
0000
,
1000
1000
0100
0000
,
0010
0000
0001
0000
,
0010
0010
0100
0000
,
1000
0000
0001
0000
,
0200
0000
0000
0300
,
0000
0000
0000
0000
,
1000
0000
0000
1001
,
0000
0000
0100
0100
,
0100
0000
0000
0110
,
0000
0000
0000
0000
,
0001
0000
0000
1001
,
0000
0000
0100
0100
,
0100
0000
0010
0000
,
1000
0000
0100
0000
,
0001
0000
1000
0000
,
0100
0000
0001
0000
,
2002
0000
0000
3003
,
0000
0000
0000
0000
,
1000
0010
0100
0000
,
0010
0000
1000
0000
,
0010
0001
0100
0000
,
0001
0000
0010
0000
,
1000
0100
0010
0000
,
0100
0000
0001
0000
,
0100
0000
0010
0000
1000
0000
0000
0001
,
0000
0000
0000
1000
0000
0000
0000
0000
,
0001
0010
0100
1000
,
0100
0000
0100
0000
,
0010
0100
0010
0001
,
1000
0000
1000
0000
,
0010
1000
0001
1000
,
0100
0000
0100
0000
,
0020
0000
0000
0030
,
0000
0000
0000
0000
,
0010
0010
0010
0010
,
0010
0010
0010
0000
,
0100
0100
0100
0000
,
1000
0000
0001
0000
,
0010
0010
0010
0010
,
0010
0010
0010
0000
,
1000
0000
1000
0000
1000
0000
0000
0002
,
0000
0000
0000
0003
,
0010
0010
0010
0010
,
0100
0100
0100
0000
,
0001
0001
0001
0001
,
1000
0000
0100
0000
,
0010
0010
0001
0001
,
1000
1000
0010
0000
,
0200
0000
0000
0000
,
0300
0000
0010
0000
,
0020
0000
0000
0000
,
0000
0000
0000
0000
,
0030
0000
0000
0000
,
0000
0000
0000
0000
,
0001
0000
0100
0000
,
1000
0000
0001
0001
,
0100
0000
0010
0000
,
1000
0000
1001
0000
,
0001
0000
0100
0000
,
1000
0000
0010
0010
,
1000
0000
0100
0000
,
0001
0000
1000
1000
,
0100
0000
0010
0000
,
0001
0000
0100
0100
,
0010
0000
0000
0000
0100
0000
0000
0200
,
0000
0000
0000
0000
,
0000
0300
0000
0000
0000
0000
0000
0000
0000
0000
0000
0000
0000
0000
0000
0000
0000
0000
0000
0000
0000
0000
0000
0000
0000
0000
0000
0000
0000
0000
0000
0000
0000
0000
0000
0000
0000
0000
0000
0000
0000
0000
0000
0000
0000
0000
0000
0000
0000
0000
0000
0000
0000
0000
0000
0000
0000
0000
0000
0000
0000
0000
0000
0000
0000
0000
0000
0000
0000
0000
0000
0000
0000
0000
0000
0000
0000
0000
0000
0000
0000
0000
0000
0000
0000
0000
0000
0000
0000
0000
0000
0000
0000
0000
0000
0000
0000
0000
0000
0000
0000
0000
0000
0000
0000
0000
0000
0000
0000
0000
0000
0000
0000
0000
0000
0000
0000
0000
0000
0000
0000
0000
0000
0000
0000
0000
0000
0000
0000
0000
0000
0000
0000
0000
0000
0000
0000
0000
0000
0000
0000
0000
0000
0000
0000
0000
0000
0000
0000
0000
0000
0000
0000
0000
0000
0000
0000
0000
0000
0000
0000
0000
0000
0000
0000
0000
0000
0000
0000
0000
0000
0000
0000
0000
0000
0000
0000
0000
0000
0000
0000
0000
0000
0000
0000
0000
0000
0000
0000
0000
0000
0000
;

//---------------dance-single - ----------------
#NOTES:
     dance-single:
     :
     Medium:
     9:
     0.443,0.550,0.524,0.127,0.014,271.000,58.000,14.000,0.000,0.000,0.000,0.443,0.550,0.524,0.127,0.014,271.000,58.000,14.000,0.000,0.000,0.000:
0000
0000
0000
0000
,
0000
0000
0000
0000
,
0000
0000
0000
0000
,
0000
0000
0000
0000
,
0000
0000
0000
0000
,
1001
0100
1000
0010
,
0001
0100
0010
0010
,
1000
0000
0000
0001
0000
0000
0000
2002
,
0000
0000
0000
0000
,
3003
0000
0000
0000
,
0020
0000
0000
0030
,
0001
0000
0100
0000
1000
0000
0000
0100
,
0000
0010
0000
0100
0000
0000
0000
0000
,
0010
0000
0001
0000
0100
0000
0000
0100
,
0000
0010
0000
0100
0000
0000
0000
0000
,
0001
0000
1000
0000
0100
0000
0000
0100
,
0000
0010
0000
0100
0000
0000
0000
0000
,
0010
0000
0100
0000
1000
0000
0000
0100
,
0000
0010
0000
0100
0000
0110
0000
0000
,
0001
0100
0001
0000
0100
0000
0001
1000
,
0000
0010
0000
0100
0000
0000
0000
0000
,
1000
0010
1000
0000
0100
0000
1000
0001
,
0000
0010
0000
0100
0000
0000
0000
0000
,
0010
1000
0010
0000
1000
0000
0001
1000
,
0000
0010
0000
0100
0000
0001
0000
2002
,
0000
0000
0000
0000
0000
0000
0000
3003
,
0000
0010
0000
0010
0100
0010
0100
0010
,
0100
0000
0000
0001
0000
0000
1000
0000
,
0000
1001
0000
0000
0100
0000
0100
0000
,
0010
0000
0000
0001
0000
0000
1100
0000
,
0000
0000
0000
0010
0100
0000
0000
0000
,
0010
0000
0000
1000
0000
0000
0001
0000
,
0000
0101
0000
0000
0100
0000
0100
0000
,
0001
0100
1000
0000
0100
0000
0010
0000
,
1000
0100
0001
0010
,
1000
0100
0001
0000
0100
0000
0010
0000
,
0001
0100
1000
0010
,
1001
0000
0000
0000
,
0020
0000
0000
0030
,
1000
0000
1100
0000
0001
0000
0010
0100
,
0000
0010
0000
0100
0000
0000
0000
0000
,
0010
0000
1001
0000
0001
0000
0010
0100
,
0000
0010
0000
0100
0000
0000
0000
0000
,
1000
0000
0011
0000
0001
0000
0010
0100
,
0000
0010
0000
0100
0000
0000
0000
0000
,
0001
0000
0110
0000
1000
0000
0010
0100
,
0000
0010
0000
0110
0000
1001
0000
0000
,
1000
0000
1010
0000
0100
0000
1000
0001
,
0000
0010
0000
0100
0000
1000
0000
0001
,
0010
0000
0110
0000
0001
0000
1000
0001
,
0000
0010
0000
0100
0000
1000
0001
0000
,
0010
0001
1000
0000
0001
0000
1000
0001
,
0000
0010
0000
0100
0000
1000
0000
2002
,
0000
0000
0000
0000
0000
0000
0000
3003
,
0000
0010
0000
0010
0100
0010
0100
0000
,
1001
1001
1001
1001
,
1001
0000
0010
0100
0000
0100
0000
0000
,
0100
1000
0001
1000
,
0100
0001
0100
1000
,
0110
0110
0110
0110
,
0110
0000
0010
0100
0000
0010
0000
0000
,
1000
0000
1010
0000
1010
0000
0010
1000
,
0000
0001
0000
1000
0000
1001
0000
0000
,
0011
0011
1001
1001
,
1100
0000
0010
0001
0000
0001
1000
0000
,
0100
1100
1100
1100
,
1100
0000
1000
0000
0001
0100
0001
0000
,
0101
0101
1001
1001
,
1001
0000
0010
0000
0000
0002
0000
2000
,
0000
0000
0000
0000
,
3003
0000
0100
0000
0000
0010
0000
0000
,
2002
0000
0000
0000
,
0000
0000
0000
0000
,
3003
0000
0000
0000
,
0000
0000
0000
0000
,
0001
0100
1000
0010
,
0001
0100
0010
0010
,
1100
0000
0101
0000
,
0110
0000
1001
0000
,
0001
0000
0000
0001
0100
0000
0000
0000
1000
0000
0000
0000
0100
0000
0000
0000
,
0001
0100
0101
0101
,
1000
0000
0000
1000
0100
0000
0000
0000
0001
0000
0000
0000
0100
0000
0000
0000
,
1000
0100
1100
1100
,
0001
0000
0000
0001
0010
0000
0000
0000
1000
0000
0000
0000
0010
0000
0000
0000
,
0001
0010
0011
0011
,
1001
0000
0000
0110
0000
0000
0000
2002
,
0000
0000
0000
0000
,
0000
3003
0000
0000
0000
0000
0000
0000
0000
0000
0000
0000
0000
0000
0000
0000
0000
0000
0000
0000
0000
0000
0000
0000
0000
0000
0000
0000
0000
0000
0000
0000
0000
0000
0000
0000
0000
0000
0000
0000
0000
0000
0000
0000
0000
0000
0000
0000
0000
0000
0000
0000
0000
0000
0000
0000
0000
0000
0000
0000
0000
0000
0000
0000
0000
0000
0000
0000
0000
0000
0000
0000
0000
0000
0000
0000
0000
0000
0000
0000
0000
0000
0000
0000
0000
0000
0000
0000
0000
0000
0000
0000
0000
0000
0000
0000
0000
0000
0000
0000
0000
0000
0000
0000
0000
0000
0000
0000
0000
0000
0000
0000
0000
0000
0000
0000
0000
0000
0000
0000
0000
0000
0000
0000
0000
0000
0000
0000
0000
0000
0000
0000
0000
0000
0000
0000
0000
0000
0000
0000
0000
0000
0000
0000
0000
0000
0000
0000
0000
0000
0000
0000
0000
0000
0000
0000
0000
0000
0000
0000
0000
0000
0000
0000
0000
0000
0000
0000
0000
0000
0000
0000
0000
0000
0000
0000
0000
0000
0000
0000
0000
0000
0000
0000
0000
0000
0000
0000
0000
0000
0000
0000
;

//---------------dance-single - ----------------
#NOTES:
     dance-single:
     :
     Hard:
     12:
     0.600,0.716,0.226,0.217,0.122,416.000,25.000,24.000,0.000,0.000,0.000,0.600,0.716,0.226,0.217,0.122,416.000,25.000,24.000,0.000,0.000,0.000:
0000
0000
0000
0000
,
0000
0000
0000
0000
,
0000
0000
0000
0000
,
0000
0000
0000
0000
,
0000
0000
0000
0000
,
0001
0000
0000
0001
1000
0000
0000
1000
0010
0000
0000
0010
0100
0000
0000
0100
,
0010
0000
0000
0010
1000
0000
0000
1000
0010
0000
0000
0000
0110
0000
0000
0000
,
0001
1000
0001
1000
0001
1000
0000
2002
,
0000
0000
0000
3003
,
0110
0000
0000
0000
,
0010
0000
0000
0001
0000
0100
0000
0000
,
0001
0100
0010
0100
0001
0010
0000
0010
,
0000
0002
0000
2000
0000
0000
3003
0000
,
0100
0010
0001
0010
0100
1000
0000
0100
,
0000
0010
0000
0100
0000
0010
0010
0000
,
1000
0100
0010
0100
1000
0001
0000
0100
,
0000
0200
0000
0002
0000
0000
0303
0000
,
1000
0100
0010
0001
0010
0100
1000
0010
,
0000
0100
0000
0010
0000
2002
3003
0000
,
0001
0100
0010
0100
1000
0100
0010
1000
,
0000
0020
0000
0200
0000
0000
0330
0000
,
0100
0010
0001
0010
1000
0010
0100
0010
,
0000
1000
0000
0001
0000
0010
0010
0000
,
0100
0001
0010
0001
0100
0010
1000
0001
,
0000
0010
0000
1000
0000
0100
0000
0001
,
0010
0100
1000
0100
0010
0100
1000
0100
,
0000
0100
0010
0100
0010
0100
0010
0010
,
0001
0000
0000
1001
0000
0000
0110
0000
,
0000
1001
0000
0000
0010
0000
0100
0000
,
0110
0000
0000
1001
0000
0000
0110
0000
,
0000
0000
0000
1000
1001
0000
0000
0000
,
1010
0000
0000
0110
0000
0000
0011
0000
,
0000
0110
0000
0000
0001
0000
1000
0000
,
0001
0010
0001
0000
0001
0100
0001
0000
,
1000
0100
1000
0000
1000
0010
1000
0000
,
0001
0010
0100
0000
1000
0100
0010
0000
,
0001
0010
0100
1000
0010
0100
1000
0100
,
0001
0000
0000
0000
,
0010
0000
0000
1000
0000
0100
0000
0000
,
1000
0100
0010
0100
1000
0010
0000
0100
,
0000
1000
0000
0001
0000
0010
0000
0010
,
0100
0001
0100
0010
0001
0100
0000
1000
,
0000
0010
0000
0001
0000
0010
0010
0000
,
0001
0100
0010
0100
0001
1000
0000
0010
,
0000
0100
0000
1000
0000
0010
0000
0010
,
1000
0100
0010
0001
0010
0100
0000
1000
,
0000
1001
0000
0010
0000
2002
3003
0000
,
1000
0100
0010
0100
0001
0100
0010
0001
,
0000
0010
0000
0100
0000
0010
0000
0010
,
0100
0010
1000
0010
0001
0010
0100
0010
,
0000
1000
0000
0001
0000
0010
0010
0000
,
0100
1000
0010
1000
0100
0010
0001
1000
,
0000
0010
0000
0100
0000
0001
0000
1000
,
1000
0010
0100
0001
1000
0010
0100
0001
,
0000
0001
1000
0001
0020
0000
0030
0000
,
0100
0010
0100
0010
0100
0010
0100
0010
,
0001
0010
0100
1000
0000
0020
0000
0130
,
0000
0001
1000
0001
1000
0010
0000
0200
,
0000
0310
1000
0010
0000
0100
0001
0000
,
0010
0100
0010
0100
0010
0100
0010
0100
,
1000
0100
0010
0001
0000
0010
0000
0100
,
0000
1000
0001
1000
0001
1000
0100
0010
,
0000
0100
0000
0110
0000
2002
3003
0000
,
0100
0010
0100
0010
0100
0010
0100
0100
,
0001
0010
0100
1000
0000
0002
0000
0103
,
0000
0010
0100
0010
0100
0010
0100
0100
,
1000
0100
0010
0001
0000
0100
0010
0000
,
0100
0001
0100
0100
0010
1000
0010
0010
,
0100
0010
0100
0100
0000
0002
0000
2000
,
0000
0000
0000
0000
,
3003
0000
0010
0000
0000
0100
0000
0000
,
2002
0000
0000
0000
,
0000
0000
0000
0000
,
3003
0000
0000
0000
,
0000
0000
0000
0000
,
1000
0100
0001
1000
,
0001
0010
1000
0010
,
0001
1000
0001
1000
0001
1000
0001
1000
,
0010
0100
0010
0100
0110
0000
0000
0000
,
1000
0000
0000
1000
0100
0000
0000
0100
0010
0000
0000
0010
0001
0000
0000
0001
,
0100
0000
0000
0100
0010
0000
0000
0010
0100
0000
0000
0000
1001
0000
0000
0000
,
0001
0000
0000
0001
0100
0000
0000
0100
0010
0000
0000
0010
0001
0000
0000
0001
,
0010
0000
0000
0010
1000
0000
0000
1000
0001
0000
0000
0000
1001
0000
0000
0000
,
0100
0000
0000
0100
0010
0000
0000
0010
0001
0000
0000
0001
0100
0000
0000
0100
,
0001
0000
0000
0001
1000
0000
0000
1000
0010
0000
0000
0000
1001
0000
0000
0000
,
0010
0000
0000
0010
1000
0000
0000
1000
0001
0000
0000
0001
1000
0000
2002
0000
,
0000
0000
0000
0000
,
0000
0000
0000
0000
,
3003
0000
0000
0000
;

//---------------dance-double - ----------------
#NOTES:
     dance-double:
     :
     Easy:
     6:
     0.272,0.318,0.063,0.099,0.000,193.000,7.000,11.000,0.000,0.000,0.000,0.272,0.318,0.063,0.099,0.000,193.000,7.000,11.000,0.000,0.000,0.000:
00000000
00000000
00000000
00000000
,
00000000
00000000
00000000
00000000
,
00000000
00000000
00000000
00000000
,
00000000
00000000
00000000
00000000
,
00000000
00000000
00000000
00000000
,
00001000
00000000
00010000
00000000
,
00001000
00000000
00000010
00000010
,
00000100
00000000
00000000
00000000
00000000
00000000
00000000
00000020
,
00000000
00000000
00000000
00000000
,
00000030
00000000
00000000
00000000
,
00000000
00000000
00000000
00000000
,
00001000
00001000
00010000
00010000
,
00100000
00000000
01000000
00000000
,
10000000
10000000
01000000
01000000
,
00010000
00000000
00001000
00000000
,
00010000
00010000
00000100
00000100
,
00000010
00000000
00000100
00000000
,
00000001
00000000
00000001
00000000
00000001
00000000
00000000
00000200
,
00000000
00000000
00000000
00000300
,
00000001
00000001
00000100
00000100
,
00000010
00000000
00001000
00000000
,
00010000
00010000
00001000
00001000
,
00100000
00000000
00010000
00000000
,
10000000
10000000
00010000
00010000
,
00100000
00000000
00100000
00000000
,
02000000
00000000
00000000
00000000
,
03000000
00000000
00000000
00000000
,
00010000
00000000
00000000
00011000
,
00000000
00000000
00000010
00000010
,
00000100
00000000
00000000
00001001
,
00000000
00000000
00000000
00000000
,
00001000
00000000
00000000
00011000
,
00000000
00000000
00100000
00100000
,
01000000
00000000
00100000
00000000
,
10000000
00000000
01000000
00000000
,
00010000
00000000
00001000
00000000
,
00000100
00000000
00000001
00000000
,
00002002
00000000
00000000
00003003
,
00000000
00000000
00000000
00000000
,
00000010
00000010
00000100
00000100
,
00001000
00000000
00001000
00000000
,
00010000
00010000
00001000
00001000
,
00100000
00000000
01000000
00000000
,
10000000
10000000
00100000
00100000
,
01000000
00000000
00010000
00000000
,
00100000
00000000
00100000
00000000
00100000
00000000
00000000
02000000
,
00000000
00000000
00000000
03000000
,
00100000
00100000
00001000
00001000
,
00010000
00001000
00010000
00000000
,
00010000
00010000
00000010
00000010
,
00001000
00000100
00001000
00000000
,
00000010
00000010
00001000
00001000
,
00000001
00000100
00000010
00000000
,
00000200
00000000
00000000
00000000
,
00000300
00000000
00000000
00000000
,
00001000
00001000
00001000
00001000
,
00001000
00010000
00000000
00010000
,
00001000
00001000
00001000
00000000
,
00100000
00000000
01000000
00000000
,
00100000
00100000
00100000
00100000
,
00100000
00100000
00010000
00000000
,
00100000
00000000
00100000
00000000
00100000
00000000
00000000
02000000
,
00000000
00000000
00000000
03000000
,
00100000
00100000
00100000
00100000
,
00100000
01000000
10000000
01000000
,
00100000
00100000
00100000
00100000
,
00100000
00001000
00010000
00001000
,
00010000
00010000
00010000
00010000
,
00010000
00010000
00001000
00000000
,
00000100
00000000
00000010
00000000
,
00000100
00000000
00000001
00000000
,
00002002
00000000
00000000
00000000
,
00000000
00000000
00000000
00000000
,
00003003
00000000
00000000
00000000
,
00000000
00000000
00000000
00000000
,
00000001
00000000
00000100
00000000
,
00001000
00010000
00001000
00010000
,
00001000
00000000
00010000
00000000
,
00011000
00000000
00011000
00000000
,
00010000
00000000
01000000
00000000
,
10000000
00100000
01000000
00100000
,
10000000
00000000
01000000
00000000
,
00010000
00001000
00010000
00010000
,
00001000
00000000
00000100
00000000
,
00000001
00000100
00000010
00000100
,
00000001
00000000
00000000
00000000
00001000
00000000
00000000
00000200
,
00000000
00000000
00000000
00000000
,
00000000
00000000
00000000
00000000
,
00000300
00000000
00000000
00000000
;

//---------------dance-double - ----------------
#NOTES:
     dance-double:
     :
     Medium:
     9:
     0.427,0.517,0.307,0.145,0.000,281.000,34.000,16.000,0.000,0.000,0.000,0.427,0.517,0.307,0.145,0.000,281.000,34.000,16.000,0.000,0.000,0.000:
00000000
00000000
00000000
00000000
,
00000000
00000000
00000000
00000000
,
00000000
00000000
00000000
00000000
,
00000000
00000000
00000000
00000000
,
00000000
00000000
00000000
00000000
,
00001000
00000100
00000001
00000100
,
00001000
00010000
00011000
00011000
,
00100000
00000000
00000000
01000000
00000000
00000000
00000000
20020000
,
00000000
00000000
00000000
30030000
,
00100000
00000000
00000000
00000000
,
00001000
00000000
00000000
00010000
00000000
00000000
00000000
00000000
,
00000100
00000000
00000110
00000000
00000010
00000000
00000010
00000001
,
00000000
00001000
00000000
00000001
00000000
00000000
00000000
00000000
,
00000100
00000000
00000110
00000000
00000010
00000000
00000010
00001000
,
00000000
00000100
00000000
00001000
00000000
00000000
00000000
00000000
,
00001000
00000000
00011000
00000000
00010000
00000000
00010000
00001000
,
00000000
00100000
00000000
01000000
00000000
00000000
00000000
00000000
,
00100000
01000000
00100000
00000000
00010000
00000000
00000000
01000000
,
00000000
00010000
00000000
00001000
00000000
00000010
00000000
00000000
,
00000001
00000000
00000101
00000000
00000100
00000000
00000010
00001000
,
00000000
00000100
00000000
00000010
00000000
00000001
00000000
00000000
,
00000100
00000000
00001100
00000000
00001000
00000000
00000100
00010000
,
00000000
00001000
00000000
00010000
00000000
00001000
00000000
00000000
,
00001000
00000000
00101000
00000000
00100000
00000000
00010000
10000000
,
00000000
00100000
00000000
01000000
00000000
00010000
00000000
20020000
,
00000000
00000000
00000000
00000000
00000000
00000000
00000000
30030000
,
00000000
10000000
00000000
01000000
10000000
01000000
10000000
00000000
,
01000000
00000000
00000000
00010000
00000000
00000000
00001000
00000000
,
00000000
00011000
00000000
00000000
00000010
00000000
00000010
00000000
,
00000001
00000000
00000000
00000100
00000000
00000000
00000110
00000000
,
00000000
00000000
00000000
00000001
00001000
00000000
00000000
00000000
,
00000100
00000000
00000000
00001000
00000000
00000000
00010000
00000000
,
00000000
00011000
00000000
00000000
00100000
00000000
00100000
00000000
,
00010000
10000000
00010000
00000000
10000000
00000000
00100000
00000000
,
00010000
00000100
00000010
00001000
,
00000010
00000100
00000010
00000000
00000001
00000000
00000100
00000000
,
00001000
00000000
00010000
00000000
00100000
00000000
01000000
00100000
,
01000000
00000000
00000000
00000000
,
10000000
00000000
00000000
01000000
00000000
00000000
00000000
00000000
,
00100000
01000000
00100000
00000000
01000000
00000000
00100000
01000000
,
00000000
00010000
00000000
00001000
00000000
00000000
00000000
00000000
,
00010000
00000100
00010000
00000000
00000100
00000000
00001000
00000100
,
00000000
00000010
00000000
00000001
00000000
00000000
00000000
00000000
,
00000010
00001000
00000010
00000000
00000100
00000000
00000100
00001000
,
00000000
00010000
00000000
00001000
00000000
00000000
00000000
00000000
,
00100000
00010000
00100000
00000000
00010000
00000000
00010000
00100000
,
00000000
00010000
00000000
00110000
00000000
00011000
00000000
00000000
,
00010000
00001000
00010000
00000000
00000100
00000000
00000010
00000100
,
00000000
00001000
00000000
00000001
00000000
00000100
00000000
00000100
,
00000010
00000100
00000010
00000000
00000100
00000000
00001000
00010000
,
00000000
00100000
00000000
01000000
00000000
00010000
10000000
00000000
,
00100000
10000000
00100000
00000000
01000000
00000000
00010000
00100000
,
00000000
00001000
00000000
00010000
00000000
00000100
00000000
00002002
,
00000000
00000000
00000000
00000000
00000000
00000000
00000000
00003003
,
00000000
00000010
00000100
00000010
00000100
00000000
00000010
00000000
,
00002000
00000100
00000001
00003010
,
00001000
00000010
00000100
00001000
,
00010000
00000000
00001000
00000000
00010000
00001000
00010000
00000000
,
00001000
00000000
01000000
00000000
01000000
00100000
01000000
00000000
,
00020000
01000000
10000000
00130000
,
00010000
00100000
01000000
10000000
,
01000000
00000000
00010000
00000000
00001000
00000000
00000000
00010000
,
00000000
00001000
00000000
00000010
00000000
00000001
00000000
00000000
,
00002000
00000100
00000001
00000010
,
00010000
00003010
00000100
00001000
,
00010000
00000000
00001000
00000000
00010000
00001000
00010000
00000000
,
00001000
00000000
01000000
00000000
00100000
01000000
00010000
00000000
,
00020000
01000000
10000000
00100000
,
00001000
00000000
00130000
00000000
00000000
00002000
00000000
00020000
,
00000000
00000000
00000000
00000000
,
00033000
00000000
00000100
00000000
00000000
00000010
00000000
00000000
,
00002002
00000000
00000000
00000000
,
00000000
00000000
00000000
00000000
,
00003003
00000000
00000000
00000000
,
00000000
00000000
00000000
00000000
,
00000001
00000100
00001000
00010000
,
00100000
01000000
01100000
01100000
,
11000000
00000000
01010000
00000000
,
00011000
00000000
00001100
00000000
,
00000101
00000100
00001000
00010000
,
01000000
10000000
11000000
11000000
,
10100000
00100000
00010000
00001000
,
00000010
00000001
00000011
00000011
,
00000101
00000100
00001000
00010000
,
00100000
10000000
10100000
10100000
,
10010000
00000000
00000000
00100000
00000000
00000000
00000000
00022000
,
00000000
00000000
00000000
00000000
,
00000000
00000000
00000000
00000000
,
00033000
00000000
00000000
00000000
;

//---------------dance-double - ----------------
#NOTES:
     dance-double:
     :
     Hard:
     12:
     0.573,0.636,0.226,0.190,0.063,398.000,25.000,21.000,0.000,0.000,0.000,0.573,0.636,0.226,0.190,0.063,398.000,25.000,21.000,0.000,0.000,0.000:
00000000
00000000
00000000
00000000
,
00000000
00000000
00000000
00000000
,
00000000
00000000
00000000
00000000
,
00000000
00000000
00000000
00000000
,
00000000
00000000
00000000
00000000
,
01000000
00000000
00000000
01000000
10000000
00000000
00000000
00000000
00100000
00000000
00000000
00100000
00010000
00000000
00000000
00000000
,
00000100
00000000
00000000
00000100
00001000
00000000
00000000
00000000
00000010
00000000
00000000
00000000
00000110
00000000
00000000
00000000
,
00000001
00000100
00001000
00000100
00000001
00000100
00000000
00022000
,
00000000
00000000
00000000
00033000
,
00011000
00000000
00000000
00000000
,
00100000
00000000
00000000
00010000
00000000
01000000
00000000
00000000
,
00100000
10000000
00100000
01000000
00010000
00000000
00100000
01000000
,
00000000
00020000
00000000
00031000
00000000
00000000
00000000
00000000
,
00000100
00001000
00000100
00000010
00000001
00000000
00000100
00000010
,
00000000
00002000
00000000
00003100
00000000
00010000
00010000
00000000
,
00010000
00000100
00010000
00001000
00100000
00000000
01000000
00100000
,
00000000
02000000
00000000
03010000
00000000
00000000
00000000
00000000
,
01000000
00010000
10000000
01000000
00100000
00010000
00000000
00100000
,
00000000
00011000
00000000
00000100
00000000
00011000
00000000
00000000
,
00010000
00000100
00010000
00001000
00000100
00000010
00000100
00000001
,
00000000
00000020
00000000
00000130
00000000
00000000
00000000
00000000
,
00001000
00010000
00001000
00100000
00010000
01000000
00100000
00010000
,
00000000
00100000
00000000
01000000
00000000
00010000
00010000
00000000
,
00100000
01000000
00010000
00100000
00001000
00010000
00000100
00000010
,
00000000
00000001
00000000
00000010
00000000
00001000
00000000
00010000
,
00001000
00000100
00000010
00000100
00001000
00010000
00001000
01000000
,
00000000
00010000
10000000
00010000
10000000
00010000
00100000
01000000
,
00100000
00000000
00000000
11000000
00000000
00000000
00110000
00000000
,
00000000
11000000
00000000
00000000
00010000
00000000
00001000
00000000
,
00000101
00000000
00000000
00001010
00000000
00000000
00000101
00000000
,
00000000
00000000
00000000
00010000
00011000
00000000
00000000
00000000
,
01100000
00000000
00000000
01001000
00000000
00000000
00011000
00000000
,
00000000
00010100
00000000
00000000
00000100
00000000
00000010
00000000
,
00000001
00000100
00001000
00000000
00010000
00000000
00000100
00000000
,
00000010
00001000
00010000
00000000
00100000
00000000
01000000
00000000
,
00010000
00100000
10000000
00000000
00010000
00000000
01000000
00000000
,
10000000
01000000
00100000
00000000
00100000
00001000
00010000
00000100
,
00001000
00000000
00000000
00000000
,
00000010
00000000
00000000
00001000
00000000
00000100
00000000
00000000
,
00000100
00000010
00000001
00000100
00001000
00010000
00000000
00001000
,
00000000
00020000
00000000
00130000
00000000
00001000
00000000
00001000
,
00100000
00010000
00100000
10000000
00100000
01000000
00000000
00100000
,
00000000
00002000
00000000
00013000
00000000
00001000
00001000
00000000
,
00100000
00010000
10000000
01000000
00010000
00001000
00000000
00000100
,
00000000
00000020
00000000
00000130
00000000
00000001
00000000
00000001
,
00000010
00000100
00001000
00000010
00000100
00001000
00000000
00000100
,
00000000
00011000
00000000
00100000
00000000
00011000
00000000
00000000
,
00000010
00010000
00100000
01000000
00010000
10000000
01000000
00010000
,
00000000
02000000
00000000
03100000
00000000
00001000
00000000
00010000
,
00001000
00000100
00000010
00001000
00000001
00000010
00000100
00001000
,
00000000
00000001
00000000
00001000
00000000
00010000
00010000
00000000
,
00001000
00000010
00000100
00001000
00010000
00001000
00100000
01000000
,
00000000
10000000
00000000
01000000
00000000
00010000
00000000
00001000
,
00010000
00100000
01000000
00100000
00010000
00001000
00010000
00000010
,
00000000
00001000
00000001
00001000
00000010
00000100
00001000
00000000
,
01000000
00010000
00100000
00010000
01000000
00010000
00100000
00010000
,
01000000
00010000
00100000
01000000
00000000
00200000
00000000
01300000
,
00000000
10000000
01000000
00010000
01000000
00100000
00000000
00002000
,
00000000
00013000
00100000
00010000
00000000
00001000
00010000
00000000
,
00000100
00001000
00000010
00001000
00000100
00001000
00000010
00001000
,
00000001
00000010
00000100
00001000
00000000
00000010
00000000
00000100
,
00000000
00000001
00000100
00001000
00000100
00000001
00000100
00001000
,
00000000
00010000
00000000
00100000
00000000
20020000
30030000
00000000
,
01000000
00010000
00100000
00001000
01000000
00010000
00100000
00001000
,
01000000
00010000
00100000
01000000
00000000
20000000
00000000
31000000
,
00000000
00100000
00001000
00010000
00001000
00100000
00001000
00010000
,
00000100
00001000
00000100
00000010
00000000
00000001
00000100
00000000
,
00000010
00001000
00000100
00010000
00000010
00001000
00000100
00010000
,
00000010
00000100
00001000
00010000
00000000
00002000
00000000
00020000
,
00000000
00000000
00000000
00000000
,
00033000
00000000
00100000
00000000
00000000
01000000
00000000
00000000
,
20020000
00000000
00000000
00000000
,
00000000
00000000
00000000
00000000
,
30030000
00000000
00000000
00000000
,
00000000
00000000
00000000
00000000
,
10000000
01000000
00100000
00001000
,
00010000
00001000
00000100
00000100
,
00000001
00000100
00001000
00000100
00000001
00000100
00001000
00000000
,
00000010
00000100
00000010
00000000
00001001
00000000
00000000
00000000
,
00000010
00000000
00000000
00000010
00000001
00000000
00000000
00000000
00000100
00000000
00000000
00000100
00001000
00000000
00000000
00000000
,
00100000
00000000
00000000
00100000
00010000
00000000
00000000
00000000
01000000
00000000
00000000
00000000
10010000
00000000
00000000
00000000
,
00100000
00000000
00000000
00100000
10000000
00000000
00000000
00000000
01000000
00000000
00000000
01000000
00010000
00000000
00000000
00000000
,
00000010
00000000
00000000
00000010
00001000
00000000
00000000
00000000
00000100
00000000
00000000
00000000
00001001
00000000
00000000
00000000
,
00000001
00000000
00000000
00000001
00000010
00000000
00000000
00000000
00001000
00000000
00000000
00001000
00010000
00000000
00000000
00000000
,
00100000
00000000
00000000
00100000
10000000
00000000
00000000
00000000
01000000
00000000
00000000
00000000
10010000
00000000
00000000
00000000
,
10000000
00000000
00000000
10000000
01000000
00000000
00000000
00000000
00010000
00000000
00000000
00010000
00001000
00000000
00022000
00000000
,
00000000
00000000
00000000
00000000
,
00000000
00000000
00000000
00000000
,
00033000
00000000
00000000
00000000
;

//---------------dance-single - ----------------
#NOTES:
     dance-single:
     :
     Edit:
     14:
     0.732,0.835,0.750,0.154,0.199,467.000,83.000,17.000,0.000,0.000,0.000,0.732,0.835,0.750,0.154,0.199,467.000,83.000,17.000,0.000,0.000,0.000:
0000
0000
0000
0000
,
0000
0000
0000
0000
,
0000
0000
0000
0000
,
0000
0000
0000
0000
,
0000
0000
0000
0000
,
0001
0000
0000
0001
0100
0000
0000
0100
1000
0000
0000
1000
0010
0000
0000
0010
,
0100
0000
0000
0100
0001
0000
0000
0001
1000
0000
0000
0000
0110
0000
0000
0000
,
0100
0001
0100
0000
0010
0100
0010
0000
1000
0010
1000
0000
0001
2000
0002
0000
,
0000
0000
0000
3003
,
0220
0000
0000
0000
0000
0000
0000
0000
0000
0000
0000
0000
0330
0000
0010
0100
,
2000
0000
0000
0001
3000
0100
0000
0000
,
0001
0010
0001
0010
1000
0100
1000
0010
,
0000
0101
0000
1010
0000
0110
0000
1001
,
0001
1000
0100
0010
0100
1000
0100
0001
,
0000
0000
1010
0000
0000
0000
0110
0000
0000
0000
0010
0100
0010
0000
0000
0000
,
0001
0100
0001
1000
0010
1000
0001
0010
,
0000
1010
0000
0011
0000
0101
0000
1100
,
0100
1000
0010
0100
0001
1000
0100
0010
,
0000
1100
0000
0011
0000
1001
0000
0000
,
0001
0100
0001
0010
0100
1000
0100
1000
,
0000
0101
0000
0011
0000
1010
0000
1100
,
1000
0010
0001
0010
0100
1000
0001
0010
,
0000
0000
1010
0000
0000
0000
0101
0000
0000
0000
1000
0100
1000
0000
0000
0000
,
0001
0100
0010
0100
0001
1000
0100
1000
,
0000
1010
0000
1001
0000
0011
0000
0110
,
0001
0001
0001
0100
1000
1000
1000
0100
,
0000
0000
0011
0000
0000
0000
0001
0000
0100
0000
0010
0000
0100
0010
0100
0010
,
0100
0000
0000
1010
0000
0000
0110
0000
,
0000
0011
0000
0000
0101
0000
0110
0000
,
1100
0000
0000
1010
0000
0000
0011
0000
,
0000
0000
0000
0000
0000
0000
0010
0100
0010
0000
0000
0000
0000
0000
0000
0000
,
0011
0000
0000
1010
0000
0000
1100
0000
,
0000
0101
0000
0000
0110
0000
1001
0000
,
0001
0010
0001
1000
0001
0100
0001
0000
,
1000
0100
1000
0001
1000
0010
1000
0000
,
0001
0010
0100
1000
0010
0100
0001
0000
,
0001
0000
0010
0000
1000
0000
0010
0000
0100
0000
0001
0000
1000
0100
1000
0100
,
0020
0000
0000
0000
0000
0000
0000
0000
0000
0000
0000
0000
0030
0000
0010
0100
,
0002
0000
0000
1000
0003
0100
0000
0000
,
0001
0100
0010
0100
1000
0010
0001
0100
,
0000
1010
0000
0101
0000
1100
0000
0011
,
0001
0010
0001
1000
0100
1000
0010
1000
,
0000
0000
0110
0000
0000
0000
1001
0000
0000
0000
1000
0010
1000
0000
0000
0000
,
1000
0100
0010
0100
1000
0001
0100
0010
,
0000
0101
0000
1001
0000
1100
0000
0110
,
0100
1000
0100
0001
0010
0100
0010
1000
,
0000
1100
0000
0110
0000
0011
0000
0000
,
0001
0100
0010
0100
1000
0100
0010
1000
,
0000
1010
0000
0101
0000
0011
0000
1100
,
0001
0100
1000
0001
0100
1000
0100
0010
,
0000
0000
1001
0000
0000
0000
0110
0000
0000
0000
0001
0100
0001
0000
0000
0000
,
0010
0001
0100
0001
0010
0100
1000
0001
,
0000
0011
0000
1100
0000
1001
0000
1010
,
0001
0010
0100
1000
0001
0010
0100
1000
,
0000
0001
1000
0100
0020
0000
0000
0000
,
0031
0010
0001
0100
0001
0010
0001
0100
,
0001
0010
0100
1000
0000
1010
0000
0011
,
0001
1000
0100
0001
1000
0010
0000
1001
,
0000
1010
1000
0001
0000
0100
0110
0000
,
1000
0100
1000
0010
1000
0100
1000
0010
,
0100
0001
0010
0100
0000
0011
0000
1001
,
1000
0001
0100
0010
1000
0100
0010
0001
,
0000
0011
0000
1001
0000
1100
0000
0000
,
0001
1000
0001
0010
0100
0010
0001
1000
,
0100
0010
0001
0010
0000
0101
0000
1010
,
0010
0100
0010
1000
0001
0010
0100
0010
,
0001
1000
0100
1001
0000
0100
0110
0000
,
0001
0100
0010
1000
0001
0100
0001
0100
,
0010
1000
0010
1000
0000
0001
0000
1000
,
0100
0000
0001
0000
0100
0000
1000
0000
0001
0000
0010
0000
0100
0010
0100
0000
,
0000
0000
0002
0000
0003
2000
0000
3000
,
0220
0000
0000
0000
,
0000
0000
0000
0000
,
0330
0000
0000
0000
,
0000
0000
0000
0000
,
0021
0000
0100
0000
0001
0000
1030
0100
,
1020
0000
0100
0000
1000
0000
0031
0100
,
0001
0010
0100
1000
0010
0100
0001
1000
,
0010
0001
0001
0001
2000
0000
3000
0000
,
1000
0000
0000
1000
0100
0000
0000
0100
0001
0000
0000
0001
0010
0000
0000
0010
,
0100
0000
0000
0100
0001
0000
0000
0001
1000
0000
0000
0000
0110
0000
0000
0000
,
1000
0000
0000
1000
0100
0000
0000
0100
0010
0000
0000
0010
1000
0000
0000
1000
,
0001
0000
0000
0001
0100
0000
0000
0100
0001
0000
0000
0000
1010
0000
0000
0000
,
0001
0000
0000
0001
1000
0000
0000
1000
0100
0000
0000
0100
1000
0000
0000
1000
,
0010
0000
0000
0010
0100
0000
0000
0100
0001
0000
0000
0000
1010
0000
0000
0000
,
1000
0100
1000
0000
0100
0010
0100
0000
0010
0001
0010
0000
0001
2000
0002
0000
,
0000
0000
0000
0000
,
0000
0000
0000
0000
,
3003
0000
0000
0000
;

//---------------dance-double - ----------------
#NOTES:
     dance-double:
     :
     Edit:
     14:
     0.695,0.835,0.578,0.208,0.149,451.000,64.000,23.000,0.000,0.000,0.000,0.695,0.835,0.578,0.208,0.149,451.000,64.000,23.000,0.000,0.000,0.000:
00000000
00000000
00000000
00000000
,
00000000
00000000
00000000
00000000
,
00000000
00000000
00000000
00000000
,
00000000
00000000
00000000
00000000
,
00000000
00000000
00000000
00000000
,
00010000
00000000
00000000
00010000
01000000
00000000
00100000
00000000
00010000
00000000
00000000
00010000
00000100
00000000
00001000
00000000
,
00000001
00000000
00000000
00000001
00000100
00000000
00000010
00000000
00000011
00000000
00000000
00000000
00001100
00000000
00000000
00000000
,
00000001
00000010
00001000
00000100
00010000
00001000
00010000
00022000
,
00000000
00000000
00000000
00033000
,
00000200
00000000
00000000
00010000
,
00010000
00000000
00000000
01000000
00000300
00001000
00000000
00000000
,
00010000
00100000
10000000
00100000
01000000
00010000
00100000
00001000
,
00000000
00011000
00000000
00010010
00000000
00001010
00000000
00001000
,
00000010
00000100
00001000
00000100
00000001
00000100
00001000
00000010
,
00000000
00000000
00001010
00000000
00000000
00000000
00000011
00000000
00000000
00000000
00001000
00100000
00001000
00000000
00000000
00000000
,
00010000
00001000
00010000
01000000
00100000
01000000
00100000
10000000
,
00000000
01100000
00000000
00011000
00000000
00000110
00000000
00000001
,
00000100
00001000
00000100
00001000
00000010
00000100
00000001
00001000
,
00000000
00010010
00000000
00011000
00000000
00101000
00000000
00000000
,
00010000
10000000
01000000
10000000
01000000
00100000
00001000
00010000
,
00000000
01100000
00000000
00011000
00000000
00000110
00000000
00000001
,
00001000
00000100
00001000
00000010
00000100
00000001
00000100
00001000
,
00000000
00000000
00110000
00000000
00000000
00000000
00101000
00000000
00000000
00000000
00010000
00000010
00010000
00000000
00000000
00000000
,
00001000
01000000
00010000
00100000
00001000
01000000
00100000
00010000
,
00000000
01100000
00000000
00011000
00000000
00000110
00000000
00000001
,
00001000
00000100
00001000
00010000
00100000
00010000
00100000
10000000
,
00000000
00000000
01000000
00000000
00000000
00000000
00010000
00000000
00100000
00000000
00010000
00000000
10000000
00010000
10000000
00010000
,
20000000
00000000
00000000
32000000
00000000
00000000
03200000
00000000
,
00000000
00320000
00000000
00000000
01030000
00000000
00011000
00000000
,
00000200
00000000
00000000
00020300
00000000
00000000
00030020
00000000
,
00000000
00000000
00000000
00000000
00000000
00000000
00001030
00000001
00001000
00000000
00000000
00000000
00000000
00000000
00000000
00000000
,
00000002
00000000
00000000
00000203
00000000
00000000
00020300
00000000
,
00000000
00032000
00000000
00000000
00103000
00000000
00011000
00000000
,
00000100
00000010
00000100
00000010
00000100
00000010
00000100
00000000
,
00100000
01000000
00100000
01000000
00100000
01000000
00100000
00000000
,
10000000
00100000
01000000
00100000
10000000
00010000
00100000
00000000
,
00010000
00000000
00001000
00000000
01000000
00000000
00001000
00000000
00010000
00000000
00000010
00000000
00001000
00000001
00001000
00000001
,
00000200
00000000
00000000
00010000
,
00010000
00000000
00000000
00001000
00000300
00000001
00000000
00000000
,
00001000
00010000
00100000
00010000
00001000
00010000
00000010
00010000
,
00000000
01001000
00000000
00011000
00000000
00010010
00000000
00000001
,
00000100
00010000
00001000
00010000
00000010
00001000
00010000
01000000
,
00000000
00000000
10010000
00000000
00000000
00000000
00011000
00000000
00000000
00000000
00010000
00100000
00010000
00000000
00000000
00000000
,
00001000
00000100
00000010
00010000
00000100
00001000
00000001
00000010
,
00000000
00000110
00000000
00011000
00000000
01100000
00000000
00001000
,
01000000
00010000
00100000
00001000
01000000
00100000
10000000
00010000
,
00000000
01100000
00000000
00011000
00000000
00000110
00000001
00000001
,
00000010
00000100
00001000
01000000
00010000
00100000
00001000
00010000
,
00000000
01100000
00000000
00110000
00000000
00011000
00000000
00000100
,
00010000
00001000
01000000
00010000
00100000
00001000
00010000
00000010
,
00000000
00000000
00000110
00000000
00000000
00000000
00010010
00000000
00000000
00000000
00001000
00010000
00001000
00000000
00000000
00000000
,
00000001
00001000
00000100
00001000
00010000
00100000
00010000
01000000
,
00000000
01010000
00000000
00110000
00000000
00010100
00000000
00001000
,
01000000
00100000
10000000
00010000
00100000
01000000
10000000
00010000
,
00000000
00010000
00010000
00001000
00002000
00000000
00000000
00000000
,
10003000
00100000
10000000
00100000
01000000
00010000
01000000
00010000
,
00100000
00001000
00010000
00000100
00000000
00001100
00000000
00000011
,
00000000
00000100
00000001
00001000
00000010
00000001
00000000
00001100
,
00000000
00001000
00000100
00000001
00000000
00001000
00001001
00000000
,
00010000
01000000
00010000
00100000
00001000
00010000
01000000
00010000
,
00100000
00001000
00000100
00000010
00000000
00001100
00000000
00010100
,
00000000
00010000
00100000
00010000
01000000
00001000
00010000
00001000
,
00000000
00110000
00000000
00011000
00000000
00001100
00000000
00000000
,
00010000
01000000
10000000
00100000
01000000
00100000
00010000
10000000
,
00100000
00010000
00001000
00010000
00000000
00011000
00000000
00000010
,
00000100
00001000
00000010
00000001
00000010
00001000
00000001
00000100
,
00000010
00001000
00000100
00001100
00000000
00010000
00011000
00000000
,
00100000
10000000
00010000
01000000
00100000
00001000
00010000
00000010
,
00001000
00000100
00000010
00000001
00000000
00010010
00000000
00202000
,
00000000
00000000
00000000
00000000
,
00303000
00000000
01100000
00000000
00000000
00011000
00000000
00000000
,
00000220
00000000
00000000
00000000
,
00000000
00000000
00000000
00000000
,
00000330
00000000
00000000
00000000
,
00000000
00000000
00000000
00000000
,
00100000
00010000
01000000
00000000
10000000
01000000
00010000
00000000
,
00000010
00000100
00000001
00000000
00000100
00010000
00001000
00000000
,
00010000
00100000
01000000
10000000
00100000
01000000
00010000
10000000
,
00200000
00000000
00000000
00300000
,
10000000
00000000
00000000
10000000
00100000
00000000
00000000
00100000
01000000
00000000
00000000
01000000
00010000
00000000
00000000
00010000
,
00000100
00000000
00000000
00000100
00001000
00000000
00000000
00001000
00000001
00000000
00000000
00000000
00010010
00000000
00000100
00000000
,
00001000
00000000
00000000
00001000
00010000
00000000
00000000
00010000
00100000
00000000
00000000
00100000
01000000
00000000
00000000
01000000
,
10000000
00000000
00000000
10000000
00100000
00000000
00000000
00100000
00001000
00000000
00000000
00000000
00010100
00000000
00000010
00000000
,
00001000
00000000
00000000
00001000
00000010
00000000
00000000
00000010
00000001
00000000
00000000
00000001
00001000
00000000
00000000
00001000
,
00000100
00000000
00000000
00000100
00000010
00000000
00000000
00000010
00001000
00000000
00000000
00000000
00011000
00000000
00000000
00000000
,
00000001
00000000
00000010
00001000
00000100
00000000
00010000
00001000
00100000
00000000
00010000
10000000
00100000
00000000
02200000
00000000
,
00000000
00000000
00000000
00000000
,
00000000
00000000
00000000
00000000
,
03300000
00000000
00000000
00000000
;

//---------------dance-single - ----------------
#NOTES:
     dance-single:
     :
     Challenge:
     15:
     0.837,1.000,0.741,0.172,0.425,547.000,82.000,19.000,0.000,0.000,0.000,0.837,1.000,0.741,0.172,0.425,547.000,82.000,19.000,0.000,0.000,0.000:
0000
0000
0000
0000
,
0000
0000
0000
0000
,
0000
0000
0000
0000
,
0000
0000
0000
0000
,
0000
0000
0000
0000
,
0001
0000
0000
0001
0100
0000
0010
0000
0100
0000
0000
0010
1000
0000
0100
0000
,
1000
0000
0000
0100
1000
0000
0001
0000
1001
0000
0000
0000
1001
0000
0000
0000
,
0010
1000
0010
1000
0010
1000
0010
1000
0010
1000
0010
1000
0001
0000
2002
0000
,
0000
0000
0000
3003
,
0110
0000
0000
0000
0000
0000
0000
0000
0000
0000
0000
0000
1000
0100
0010
0001
,
1000
0000
0000
0010
0000
0100
0000
0000
,
1001
0000
0001
0000
0010
0000
0001
0000
1000
0000
0100
0010
0100
0000
0010
0100
,
0000
0000
1000
0100
0000
0000
0010
0100
0000
0000
0001
0000
0100
0000
0010
0000
,
0100
0000
0100
0000
0001
0000
1000
0000
0010
0000
0100
0010
0100
0000
0010
0100
,
0000
0000
0001
0100
0000
0000
0010
0100
0000
0000
0001
1000
0010
0000
0000
0000
,
1001
0000
1000
0000
0001
0000
1000
0000
0100
0000
0010
0001
0010
0000
0100
0010
,
0000
0000
0001
0010
0000
0000
0100
1000
0000
0000
0010
0000
0100
0000
0010
0000
,
0100
0100
0010
0001
0100
1000
0010
0110
,
0000
1001
0000
0110
0000
2002
3003
0000
,
1010
0000
1000
0000
0100
0000
0010
0000
0001
0000
0010
0100
0010
0000
0100
0010
,
0000
0000
0001
0100
0000
0000
0100
1000
0100
0000
0010
0000
0100
0000
0010
0000
,
0100
0000
0100
0000
0001
0000
0010
0000
0100
0000
1000
0100
1000
0000
1100
0000
,
0000
0000
0101
0000
0000
0000
1001
0000
0001
0000
1000
0010
1000
0000
0000
0000
,
0101
0000
0100
0000
1000
0000
0100
0000
0001
0000
0010
0100
0010
0000
0100
1000
,
0000
0000
0010
0100
0000
0000
0001
0010
0001
0000
1000
0000
0010
0000
0100
0000
,
0001
0010
0100
1000
0001
0010
0100
1000
,
0000
0000
0100
0000
0010
0000
0100
0000
0010
0000
0100
0010
0100
0010
0100
0010
,
0100
0000
0000
0101
0000
0000
1010
0000
,
0000
1100
0000
0000
0100
0000
0010
0000
,
1100
0000
0000
0011
0000
0000
0101
0000
,
0000
0000
0000
0000
0000
0000
0001
0100
1000
0000
0000
0000
0000
0000
0000
0000
,
0101
0000
0000
0011
0000
0000
1010
0000
,
0000
1100
0000
0000
0100
0000
0010
0000
,
0001
0100
1000
0010
1000
0100
0001
0010
,
1000
0100
1000
0010
0001
1000
0100
0001
,
0010
0001
0100
1000
0010
0001
0100
0001
,
0010
0000
1000
0000
0001
0000
0100
0000
0010
0000
1000
0000
0001
0100
0001
0100
,
0001
0000
0000
0000
0000
0000
0000
0000
0000
0000
0000
0000
0001
0010
0100
1000
,
0001
0000
0000
0100
0000
0010
0000
0000
,
1001
0000
1000
0000
0100
0000
1000
0000
0001
0000
0010
0001
0010
0000
0001
0010
,
0000
0000
0100
0010
0000
0000
0001
1000
0000
0000
0100
0000
0010
0000
0100
0000
,
0010
0000
0010
0000
1000
0000
0100
0000
0001
0000
0100
0010
0100
0000
0010
0100
,
0000
0000
1000
0001
0000
0000
0100
0010
0000
0000
1000
0001
0010
0000
0000
0000
,
1001
0000
0001
0000
0100
0000
0010
0000
0100
0000
0001
1000
0001
0000
1000
0100
,
0000
0000
0010
0001
0000
0000
1000
0010
0000
0000
0100
0000
0010
0000
0100
0000
,
0010
0010
0001
0100
1000
0010
0100
0110
,
0000
1010
0000
0101
0000
2002
3003
0000
,
0101
0000
0100
0000
0001
0000
0010
0000
0001
0000
1000
0001
1000
0000
0010
0100
,
0000
0000
0001
1000
0000
0000
1000
0100
1000
0000
0100
0000
0010
0000
0100
0000
,
1000
0000
1000
0000
0100
0000
0001
0000
1000
0000
0010
0001
0010
0000
0011
0000
,
0000
0000
0110
0000
0000
0000
1001
0000
0000
0000
0001
0100
0001
0000
0000
0000
,
1010
0000
0010
0000
1000
0000
0100
0000
0010
0000
0001
0100
0001
0000
1000
0100
,
0000
0000
0001
0100
0000
0000
0010
1000
0010
0000
0100
0000
0010
0000
1000
0000
,
0001
0010
0100
1000
0001
0010
0100
1000
,
0000
0000
0100
0000
0010
0000
0100
0000
0010
0000
0100
1000
0100
0010
0001
0000
,
0110
0010
0010
0010
0011
0010
0010
0010
,
0010
1000
0100
0001
0100
2010
0000
3100
,
0000
0100
0100
0100
1100
0010
0001
0020
,
0000
0130
1000
0020
0000
0130
0101
0000
,
0110
0010
0010
0010
1010
0010
0010
0010
,
0010
0100
0010
1000
0100
0012
0000
0103
,
0000
1000
1000
1000
1001
0001
0010
0011
,
0000
0110
0000
1010
0000
2002
3003
0000
,
0110
0010
0010
0010
0011
0010
0010
0010
,
1010
0100
0010
0001
0100
0210
0000
1300
,
0000
0001
0001
0001
0101
0001
0001
0001
,
1001
0100
1000
0010
0001
0010
0100
0000
,
0110
0010
0010
0010
1010
0010
0011
0010
,
0110
0001
1000
0100
0010
0021
0000
0200
,
0000
0000
0000
0000
,
0330
0000
0011
0000
0000
1100
0000
0000
,
2002
0000
0000
0000
,
0000
0000
0000
0000
,
3003
0000
0000
0000
,
0000
0000
0000
0000
,
0001
0000
0000
0001
0100
0000
0100
0000
0010
0000
0000
0010
1000
0000
1000
0000
,
0100
0000
0000
0100
1000
0000
0001
0000
1001
0000
0000
0000
1001
0000
0000
0000
,
0010
1000
0010
1000
0010
1000
0010
0000
0100
0010
0100
0010
0100
0010
0100
0000
,
0001
1000
0001
1000
0001
1000
0001
0000
1001
0000
0000
0000
0000
0000
0000
0000
,
0101
0000
0000
0001
1000
0000
0100
0000
1100
0000
0000
0100
0010
0000
0001
0000
,
0011
0000
0000
0001
0010
0000
0100
0000
1001
0000
0000
0000
0110
0000
0000
0000
,
1001
0000
0000
1000
0010
0000
0100
0000
0110
0000
0000
0100
0001
0000
1000
0000
,
1001
0000
0000
1000
0001
0000
0010
0000
0110
0000
0000
0000
1001
0000
0000
0000
,
0110
0000
0000
0001
1000
0000
0100
0000
0110
0000
0000
0001
0010
0000
0100
0000
,
0110
0000
0000
0100
1000
0000
0001
0000
1001
0000
0000
0000
1001
0000
0000
0000
,
0010
0001
0010
0001
0010
0001
0010
0001
0010
0001
0010
0001
1000
0000
2002
0000
,
0000
0000
0000
0000
,
0000
0000
0000
0000
,
3003
0000
0000
0000
;

//---------------dance-double - ----------------
#NOTES:
     dance-double:
     :
     Challenge:
     15:
     0.810,1.000,0.678,0.172,0.312,533.000,75.000,19.000,0.000,0.000,0.000,0.810,1.000,0.678,0.172,0.312,533.000,75.000,19.000,0.000,0.000,0.000: // measure 0
00000000
00000000
00000000
00000000
,  // measure 1
00000000
00000000
00000000
00000000
,  // measure 2
00000000
00000000
00000000
00000000
,  // measure 3
00000000
00000000
00000000
00000000
,  // measure 4
00000000
00000000
00000000
00000000
,  // measure 5
00010000
00000000
00000000
00001000
00010000
00000000
01000000
00000000
10000000
00000000
00000000
10000000
01000000
00000000
00010000
00000000
,  // measure 6
00001000
00000000
00000000
00001000
00000100
00000000
00000001
00000000
00001001
00000000
00000000
00000000
00001001
00000000
00000000
00000000
,  // measure 7
00000010
00001000
00000010
00001000
00000010
00001000
00000010
00001000
00000010
00001000
00000010
00001000
00000001
00000000
00002002
00000000
,  // measure 8
00000000
00000000
00000000
00003003
,  // measure 9
00000110
00000000
00000000
00000000
00000000
00000000
00000000
00000000
00000000
00000000
00000000
00000000
00010000
00001000
00000100
00000010
,  // measure 10
00000001
00000000
00000000
00000010
00000000
00000100
00000000
00000000
,  // measure 11
00001000
00001000
00000100
00000001
00000100
00000010
00000100
00001000
,  // measure 12
00010000
00000000
00001000
00000000
00100000
00000000
00010000
00000000
01000000
00000000
00010000
01000000
00010000
00000000
00010000
00000000
,  // measure 13
10000000
10000000
01000000
00010000
01000000
10000000
00100000
10000000
,  // measure 14
01000000
00000000
00100000
00000000
00001000
00000000
00010000
00000000
00000100
00000000
00001000
00000010
00000100
00000000
00000000
00000000
,  // measure 15
00000100
00000100
00000001
00001000
00000001
00000100
00001000
00010000
,  // measure 16
00001000
00000000
00000100
00000000
00000001
00000000
00000010
00000000
00000100
00000000
00001000
00000100
00001000
00000000
00001000
00000000
,  // measure 17
00000100
00000100
00000010
00001000
00010000
01000000
00100000
01100000
,  // measure 18
00000000
00010000
00000000
01100000
00000000
00022000
00033000
00000000
,  // measure 19
00000110
00000100
00000001
00000010
00001000
00000010
00000001
00000100
,  // measure 20
00001000
00000000
00000001
00000000
00000010
00000000
00000100
00000000
00000010
00000000
00001000
00010000
00001000
00000000
00001000
00000000
,  // measure 21
00010000
00010000
00100000
01000000
00010000
01000000
10000000
11000000
,  // measure 22
00000000
00000000
01010000
00000000
00000000
00000000
00110000
00000000
00001000
00000000
00010000
00000100
00001000
00000000
00000000
00000000
,  // measure 23
00011000
00001000
00000100
00000001
00001000
00000010
00000100
00000001
,  // measure 24
00000010
00001000
00010000
00001000
00000100
00000010
00000100
00000100
,  // measure 25
00001000
00010000
00100000
01000000
00010000
00100000
01000000
10000000
,  // measure 26
00000000
00000000
00100000
00000000
01000000
00000000
00100000
00000000
01000000
00000000
00010000
10000000
00010000
10000000
00010000
00000000
,  // measure 27
11000000
00000000
00000000
00101000
00000000
00000000
00010100
00000000
,  // measure 28
00000000
00000011
00000000
00000000
00000100
00000000
00000010
00000000
,  // measure 29
00000101
00000000
00000000
00010010
00000000
00000000
00101000
00000000
,  // measure 30
00000000
00000000
00000000
00000000
00000000
00000000
00010000
01000000
10000000
00000000
00000000
00000000
00000000
00000000
00000000
00000000
,  // measure 31
11000000
00000000
00000000
00011000
00000000
00000000
00000011
00000000
,  // measure 32
00000000
00011000
00000000
00000000
01000000
00000000
10000000
00000000
,  // measure 33
00100000
01000000
00010000
00001000
00000100
00000010
00001000
00000001
,  // measure 34
00000010
00001000
00010000
00000010
00000100
00010000
00001000
00100000
,  // measure 35
01000000
00010000
00100000
10000000
00010000
00001000
00000100
00000010
,  // measure 36
00001000
00000000
00000001
00000000
00000100
00000000
00001000
00000000
00010000
00000000
00001000
00000000
00100000
00010000
00100000
00010000
,  // measure 37
00100000
00000000
00000000
00000000
00000000
00000000
00000000
00000000
00000000
00000000
00000000
00000000
10000000
01000000
00100000
00010000
,  // measure 38
00001000
00000000
00000000
00010000
00000000
00100000
00000000
00000000
,  // measure 39
01000000
00000000
01000000
00000000
10000000
00000000
00010000
00000000
00100000
00000000
01000000
00000000
00100000
00000000
00001000
00010000
,  // measure 40
00000000
00000000
00000100
00001000
00000000
00000000
00000010
00000100
00000010
00000000
00001000
00000000
00000010
00000000
00000100
00000000
,  // measure 41
00000001
00000000
00000001
00000000
00000010
00000000
00001000
00000000
00000010
00000000
00000001
00000000
00000100
00000000
00000001
00000010
,  // measure 42
00000000
00000000
00000100
00001000
00000000
00000000
00000010
00010000
00000010
00000000
00001000
00000100
00010000
00000000
00000000
00000000
,  // measure 43
00001000
00000000
00001000
00000000
00100000
00000000
00010000
00000000
10000000
00000000
00100000
00000000
00010000
00000000
00001000
00010000
,  // measure 44
00000000
00000000
00100000
10000000
00000000
00000000
01000000
00100000
01000000
00000000
10000000
00000000
00010000
00000000
10000000
00000000
,  // measure 45
00100000
00100000
00010000
00001000
00000100
00000010
00000100
00000110
,  // measure 46
00000000
00001001
00000000
00000110
00000000
00022000
00033000
00000000
,  // measure 47
01100000
00000000
00100000
00000000
00010000
00000000
01000000
00000000
10000000
00000000
01000000
00000000
00010000
00000000
00100000
00010000
,  // measure 48
00000000
00000000
10000000
01000000
00000000
00000000
00100000
00010000
00100000
00000000
00001000
00000000
00000100
00000000
00001000
00000000
,  // measure 49
00000100
00000100
00000010
00001000
00000100
00000010
00000001
00000011
,  // measure 50
00000000
00000000
00001100
00000000
00000000
00000000
00010010
00000000
00001000
00000000
00010000
00001000
00010000
00000000
00000000
00000000
,  // measure 51
00011000
00000000
00010000
00000000
00100000
00000000
10000000
00000000
00010000
00000000
01000000
00000000
00100000
00000000
10000000
00010000
,  // measure 52
00000000
00000000
01000000
00100000
00000000
00000000
00010000
00001000
00010000
00000000
00100000
00000000
01000000
00000000
00100000
00000000
,  // measure 53
00010000
00001000
00000100
00000010
00001000
00000100
00000010
00000001
,  // measure 54
00000000
00000000
00000100
00000000
00000010
00000000
00000100
00000000
00000010
00000000
00001000
00000100
00000010
00000001
00000000
00000000
,  // measure 55
00000100
00000010
00000010
00000010
00000110
00000010
00000010
00000010
,  // measure 56
00000010
00001000
00010000
01000000
00000000
01200000
00000000
10300000
,  // measure 57
00000000
01000000
01000000
01000000
01100000
00100000
01000000
00020000
,  // measure 58
00000000
00031000
00000100
00002000
00000000
00013000
01000000
00000000
,  // measure 59
01000000
00100000
00100000
00100000
01100000
00100000
00100000
00100000
,  // measure 60
00100000
00010000
00001000
00000100
00000000
00000120
00000000
00000031
,  // measure 61
00000000
00001000
00001000
00001000
00001000
00000001
00000010
00000110
,  // measure 62
00000000
00010100
00000000
00011000
00000000
00202000
00303000
00000000
,  // measure 63
01100000
00100000
00100000
00100000
01100000
00100000
00100000
00100000
,  // measure 64
00110000
00010000
01000000
00001000
00000000
00012000
00000000
00003100
,  // measure 65
00000000
00000110
00000010
00000010
00000110
00000010
00000010
00000010
,  // measure 66
00001010
00001000
00000001
00000010
00000000
00000010
00000100
00000000
,  // measure 67
00000110
00000010
00000010
00000010
00000011
00000010
00001010
00000010
,  // measure 68
00000110
00000001
00000100
00000010
00000000
00020010
00000000
00002000
,  // measure 69
00000000
00000000
00000000
00000000
,  // measure 70
00033000
00000000
00101000
00000000
00000000
01010000
00000000
00000000
,  // measure 71
20020000
00000000
00000000
00000000
,  // measure 72
00000000
00000000
00000000
00000000
,  // measure 73
30030000
00000000
00000000
00000000
,  // measure 74
00000000
00000000
00000000
00000000
,  // measure 75
00010000
00000000
00000000
00001000
00010000
00000000
01000000
00000000
10000000
00000000
00000000
10000000
01000000
00000000
00010000
00000000
,  // measure 76
00001000
00000000
00000000
00001000
00000100
00000000
00000001
00000000
00001001
00000000
00000000
00000000
00001001
00000000
00000000
00000000
,  // measure 77
00000010
00001000
00000010
00001000
00000010
00001000
00000010
00000000
00010000
00000100
00010000
00000100
00010000
00000100
00010000
00000000
,  // measure 78
00001000
00100000
00001000
00100000
00001000
00100000
00001000
00000000
01100000
00000000
00000000
00000000
00000000
00000000
00000000
00000000
,  // measure 79
10010000
00000000
00000000
00010000
01000000
00000000
00100000
00000000
10100000
00000000
00000000
10000000
01000000
00000000
00100000
00000000
,  // measure 80
00101000
00000000
00000000
00001000
00010000
00000000
00000100
00000000
00001100
00000000
00000000
00000000
00000110
00000000
00000000
00000000
,  // measure 81
00000011
00000000
00000000
00000001
00000100
00000000
00000010
00000000
00001010
00000000
00000000
00001000
00000100
00000000
00010000
00000000
,  // measure 82
00011000
00000000
00000000
00001000
00100000
00000000
01000000
00000000
01100000
00000000
00000000
00000000
10010000
00000000
00000000
00000000
,  // measure 83
01100000
00000000
00000000
10000000
00010000
00000000
00100000
00000000
01100000
00000000
00000000
00010000
00001000
00000000
00000100
00000000
,  // measure 84
00000110
00000000
00000000
00001000
00010000
00000000
00100000
00000000
01100000
00000000
00000000
00000000
10010000
00000000
00000000
00000000
,  // measure 85
00100000
00010000
00100000
00010000
00100000
00010000
00100000
00010000
00100000
00010000
00100000
00010000
10000000
00000000
20020000
00000000
,  // measure 86
00000000
00000000
00000000
00000000
,  // measure 87
00000000
00000000
00000000
00000000
,  // measure 88
30030000
00000000
00000000
00000000
;
