#VERSION:0.80;
#TITLE:roppongi EVOLVED ver. B;
#SUBTITLE:;
#ARTIST:TAG underground;
#TITLETRANSLIT:;
#SUBTITLETRANSLIT:;
#ARTISTTRANSLIT:;
#GENRE:City Evolution;
#ORIGIN:;
#CREDIT:;
#BANNER:roppongi EVOLVED ver. B.png;
#BACKGROUND:roppongi EVOLVED ver. B-bg.png;
#LYRICSPATH:;
#CDTITLE:./CDTITLES/DanceDanceRevolution X2.png;
#MUSIC:roppongi EVOLVED ver. B.mp3;
#OFFSET:0.977;
#SAMPLESTART:23.000;
#SAMPLELENGTH:15.000;
#SELECTABLE:YES;
#DISPLAYBPM:*;
#BPMS:0.000=170.616,
4.000=169.987,
132.000=85.006,
148.000=169.992;
#STOPS:;
#DELAYS:;
#WARPS:;
#TIMESIGNATURES:0.000=4=4;
#TICKCOUNTS:0.000=4;
#COMBOS:0.000=1;
#SPEEDS:0.000=1.000=0.000=0;
#SCROLLS:0.000=1.000;
#FAKES:;
#LABELS:0.000=Song Start;
#BGCHANGES:;
#KEYSOUNDS:;
#ATTACKS:;

//---------------dance-single - ----------------
#NOTEDATA:;
#CHARTNAME:;
#STEPSTYPE:dance-single;
#DESCRIPTION:;
#CHARTSTYLE:;
#DIFFICULTY:Beginner;
#METER:6;
#RADARVALUES:0.204,0.255,0.052,0.131,0.000,143.000,6.000,15.000,0.000,0.000,0.000,0.000,0.000,0.204,0.255,0.052,0.131,0.000,143.000,6.000,15.000,0.000,0.000,0.000,0.000,0.000;
#CREDIT:;
#OFFSET:0.977;
#BPMS:0.000=170.616
,4.000=169.987
,132.000=85.006
,148.000=169.992
;
#STOPS:;
#DELAYS:;
#WARPS:;
#TIMESIGNATURES:0.000=4=4
;
#TICKCOUNTS:0.000=4
;
#COMBOS:0.000=1
;
#SPEEDS:0.000=1.000=0.000=0
;
#SCROLLS:0.000=1.000
;
#FAKES:;
#LABELS:0.000=Song Start
;
#DISPLAYBPM:170.000;
#NOTES:
0000
0000
0000
0000
,
0000
0000
0000
0000
,
0000
0000
0000
0000
,
0000
0000
0000
0000
,
0000
0000
0000
0000
,
0000
0000
0000
0000
,
0000
0000
0000
0000
,
0000
0000
0000
0000
,
0000
0000
0000
0000
,
0000
0001
0000
0001
,
0000
1000
0000
1000
,
0000
0001
0000
1000
,
0000
0001
0000
1000
,
1000
0000
0000
0000
,
0000
0000
0000
0000
,
0001
0000
1000
0000
,
0001
0001
1000
1000
,
0010
0010
0100
0100
,
0100
0000
0000
0000
,
0010
0010
0100
0100
,
0010
0000
0010
0000
,
1000
1000
0001
0001
,
0001
0000
0000
0000
,
0001
0001
1000
1000
,
0002
0000
0000
0003
,
1000
1000
0100
1000
,
0200
0000
0000
0300
,
0001
0001
0100
0001
,
0200
0000
0000
0300
,
1000
0000
1000
0000
,
0010
0000
0010
0000
,
0001
0000
0001
0000
,
0020
0000
0000
0030
,
0000
1000
0000
1000
,
0000
0001
0000
0001
,
0000
0100
0000
0100
,
0000
0010
0020
0030
,
0000
0010
0001
0100
,
0000
0001
0100
1000
,
0000
0100
1000
0010
,
0000
0001
0000
0001
,
0000
0010
1000
0100
,
0000
1000
0100
0001
,
0000
0100
0001
0010
,
2000
0000
0000
3000
,
1001
0000
0000
0000
,
0000
0000
0000
0000
,
0000
0000
0000
0000
,
0000
0000
0000
0000
,
0000
0000
0000
0000
,
0000
0000
0000
0000
,
0000
0000
0000
0000
,
0000
0000
0000
0000
,
0001
0000
1000
0000
,
2002
0000
0000
3003
,
0001
0001
0100
0001
,
0100
0100
0001
0100
,
0001
0100
1000
0100
,
0001
0100
1000
0100
,
1000
1000
0100
1000
,
0100
0100
1000
0100
,
1000
0100
0001
0100
,
1000
0100
0001
0100
,
1000
0001
1000
0001
,
2002
0000
0000
3003
,
1000
0001
1000
0001
,
2002
0000
0000
3003
,
1000
0100
1000
0000
,
0001
0100
0001
0000
,
0010
0010
0100
0010
,
0200
0000
0000
0300
,
0001
0000
1000
0000
,
2002
0000
0000
3003
,
0000
1001
0000
0000
,
;

//---------------dance-single - ----------------
#NOTEDATA:;
#CHARTNAME:;
#STEPSTYPE:dance-single;
#DESCRIPTION:;
#CHARTSTYLE:;
#DIFFICULTY:Easy;
#METER:8;
#RADARVALUES:0.344,0.383,0.113,0.253,0.004,234.000,13.000,29.000,0.000,0.000,0.000,0.000,0.000,0.344,0.383,0.113,0.253,0.004,234.000,13.000,29.000,0.000,0.000,0.000,0.000,0.000;
#CREDIT:;
#OFFSET:0.977;
#BPMS:0.000=170.616
,4.000=169.987
,132.000=85.006
,148.000=169.992
;
#STOPS:;
#DELAYS:;
#WARPS:;
#TIMESIGNATURES:0.000=4=4
;
#TICKCOUNTS:0.000=4
;
#COMBOS:0.000=1
;
#SPEEDS:0.000=1.000=0.000=0
;
#SCROLLS:0.000=1.000
;
#FAKES:;
#LABELS:0.000=Song Start
;
#DISPLAYBPM:170.000;
#NOTES:
0000
0000
0000
0000
,
0000
0000
0000
0000
,
0000
0000
0000
0000
,
0000
0000
0000
0000
,
0000
0000
0000
0000
,
0000
0000
0000
0000
,
0000
0000
0000
0000
,
1000
0010
0001
0100
,
1000
0000
0000
0001
0000
0000
1001
0000
,
0010
0010
1000
0001
,
0010
0010
0001
1000
,
0010
0010
1000
0001
,
0010
0010
0001
1000
,
0200
0010
0000
0010
,
0000
0010
0000
0310
,
0001
0000
1000
0000
,
0001
0010
1000
1001
,
0001
0010
1000
0100
,
0102
0000
0100
0103
,
1000
0010
0001
0100
,
2100
0000
0100
3100
,
0010
1000
0100
0001
,
1002
0000
1000
1003
,
0001
0010
1000
0100
,
0010
0000
0000
0100
0000
0000
0010
0000
,
0001
0010
0001
0000
1000
0000
0100
0000
,
2000
0000
0001
3001
,
0010
0100
0010
0000
1000
0000
0010
0000
,
0002
0000
0100
0103
,
1000
0010
1000
0000
,
0001
0010
0001
0000
,
0010
0100
0010
0000
,
2000
0000
0000
0002
3003
0000
0110
0000
,
1000
1000
0100
0000
0000
0001
0100
0000
,
0010
0010
0100
0000
0000
0001
0010
0001
,
1000
1000
0010
0000
0000
0100
0010
0000
,
0001
0000
0001
0000
1000
0000
0000
0000
0010
0000
0000
0100
0000
0000
0110
0000
,
2000
0010
0001
3100
,
0010
0100
1000
0000
0010
1000
0100
0000
,
0002
0010
1000
0103
,
0010
0100
0001
0000
0010
0001
0100
0000
,
0001
0200
0010
0000
1000
0000
0301
0000
,
1000
0200
0010
0000
0001
0000
1300
0000
,
0001
0020
0100
0000
0001
0000
1030
0000
,
0001
0000
1000
0001
0000
0100
0010
0000
,
2002
0000
0000
0000
,
0000
3003
0200
0300
,
0020
0000
0000
0030
,
0002
0000
0000
0003
,
0200
0000
0000
0000
,
0000
0300
2000
0000
,
0002
0000
0000
3003
,
0010
0000
0000
0100
0000
0000
0110
0000
,
0001
0000
1000
0000
,
0220
0000
0000
0330
,
1000
0000
0001
0000
0001
0100
1000
0000
,
0001
0000
1000
0000
1000
0100
0001
0000
,
0100
1000
0010
0001
,
0200
1000
0001
1300
,
0001
0000
1000
0000
1000
0100
0001
0000
,
1000
0000
0001
0000
0001
0100
1000
0000
,
0100
0001
0010
1000
,
0100
0000
0000
0010
0000
0000
0110
0000
,
0020
0001
1000
0031
,
0001
0100
0001
0000
1000
0000
1000
0000
,
0020
1000
0001
1030
,
0200
0000
0000
0300
,
0010
0010
1000
1000
,
0100
0100
0001
0001
,
0010
1000
0100
0001
,
0010
0000
0000
0001
0000
0000
1000
0000
,
0001
0000
1000
0000
,
0220
0000
0000
0330
,
0100
1001
0000
0000
,
;

//---------------dance-single - ----------------
#NOTEDATA:;
#CHARTNAME:;
#STEPSTYPE:dance-single;
#DESCRIPTION:;
#CHARTSTYLE:;
#DIFFICULTY:Medium;
#METER:11;
#RADARVALUES:0.483,0.543,0.166,0.166,0.057,350.000,19.000,19.000,0.000,0.000,0.000,0.000,0.000,0.483,0.543,0.166,0.166,0.057,350.000,19.000,19.000,0.000,0.000,0.000,0.000,0.000;
#CREDIT:;
#OFFSET:0.977;
#BPMS:0.000=170.616
,4.000=169.987
,132.000=85.006
,148.000=169.992
;
#STOPS:;
#DELAYS:;
#WARPS:;
#TIMESIGNATURES:0.000=4=4
;
#TICKCOUNTS:0.000=4
;
#COMBOS:0.000=1
;
#SPEEDS:0.000=1.000=0.000=0
;
#SCROLLS:0.000=1.000
;
#FAKES:;
#LABELS:0.000=Song Start
;
#DISPLAYBPM:170.000;
#NOTES:
0000
0000
0000
0000
,
0000
0000
0000
0000
,
0000
0000
0000
0000
,
0000
0000
0000
0000
,
0000
0000
0000
0000
,
0000
0000
0000
0000
,
0000
0000
0000
0000
,
0010
0001
0100
0010
1000
0100
0010
0000
,
1001
0000
0000
0110
0000
0000
1001
0000
,
0010
1000
0100
0000
0100
1000
0010
0000
,
0010
0001
1000
0000
1000
0001
0010
0000
,
0100
0010
1000
0000
1000
0010
0100
0000
,
0001
1000
0100
0000
0100
1000
0001
0000
,
0020
0100
0000
0100
,
0000
0000
0100
0000
0000
0000
0130
0001
,
1000
1100
0001
0101
,
1000
0100
0001
0100
1000
0010
0001
0000
,
1000
0100
1000
0000
0001
0010
0100
0010
,
0002
0000
1000
1003
,
0001
0100
0010
0000
0001
1000
0100
0010
,
2000
0100
0010
3010
,
0001
0100
0001
0000
1000
0010
0100
0010
,
2000
0000
0001
3001
,
1000
0100
0001
0000
0001
0100
1000
0010
,
0100
0000
0001
0010
0000
0001
0100
0000
,
0010
1000
0010
1000
0001
0100
1000
0100
,
0002
1000
0010
0103
,
1000
0100
1000
0100
0010
0100
1000
0010
,
0100
0001
1001
1001
,
0100
0100
0100
0100
,
0001
0001
0001
0001
,
0010
0010
0010
0010
,
2000
0000
0000
0002
3003
0000
0110
0000
,
0010
0000
0010
0000
0100
0000
0000
0001
0010
0100
1000
0000
0100
0000
0000
0000
,
0010
0000
0010
0000
0100
0000
0000
1000
0010
0100
0001
0000
0100
0000
0010
0000
,
0001
0000
0001
0000
1000
0000
0000
0010
0100
1000
0010
0000
0100
0000
0000
0000
,
1000
0000
1000
0000
0001
0000
0010
0000
0001
0000
0000
1000
0000
0000
0110
0000
,
0001
0010
1000
0000
0010
1000
0100
0000
,
1000
0100
0001
0000
0100
0001
0010
0100
,
1000
0010
0001
0000
0010
0001
0100
0000
,
0001
0100
1000
0000
0100
0100
0010
0100
,
0010
0001
0100
0010
1000
0100
0010
0001
,
0100
0010
1000
0100
0010
0001
0100
0100
,
0001
0010
0100
1000
0010
0100
0001
0010
,
1000
0000
0001
0010
0000
0001
0100
0000
,
2002
0000
0000
0000
,
0000
3000
0020
0003
,
0200
0000
0000
0030
,
2000
0000
0000
0300
,
0020
0000
0000
0000
,
0000
3000
0002
0030
,
2000
0000
0000
3003
,
0110
0000
0000
1001
0000
0000
0110
0000
,
0010
0000
0000
0001
0000
0000
1000
0000
0010
0000
0000
1000
0000
0000
0001
0000
,
0110
0000
0000
1001
,
0001
0100
1000
0001
1000
0100
0001
0000
,
1000
0100
0001
1000
0001
0100
1000
0000
,
0001
0010
0100
0010
0100
0010
0001
0001
,
1000
0010
0100
0010
0100
0000
1001
0000
,
0010
0001
0100
0010
1000
0100
0010
0000
,
0010
0100
1000
0010
0100
0001
0010
0000
,
0100
0000
1000
0000
0001
0001
0100
0100
,
0010
0000
0100
0001
0000
1000
0100
0000
,
0001
0100
0010
0001
1000
0100
0010
0000
,
1000
0100
1000
0000
0001
0000
0001
0000
,
1000
0100
0010
1000
0001
0100
0010
0000
,
0001
0000
0000
0001
0000
0000
0001
0000
1000
0000
0000
1000
0000
0000
1000
0000
,
0100
0001
0010
1000
0001
0100
1000
0010
,
0001
1000
0100
0001
1000
0100
0001
0000
,
0010
0010
0100
0100
0010
0100
0110
0000
,
2000
0000
0000
3200
0000
0000
0301
0000
,
0010
0000
0000
1000
0000
0000
0001
0000
0010
0000
0000
0001
0000
0000
1000
0000
,
0220
0000
0000
0330
,
0100
1001
0000
0000
,
;

//---------------dance-single - ----------------
#NOTEDATA:;
#CHARTNAME:;
#STEPSTYPE:dance-single;
#DESCRIPTION:;
#CHARTSTYLE:;
#DIFFICULTY:Hard;
#METER:15;
#RADARVALUES:0.656,0.894,0.227,0.218,0.584,476.000,26.000,25.000,0.000,0.000,0.000,0.000,0.000,0.656,0.894,0.227,0.218,0.584,476.000,26.000,25.000,0.000,0.000,0.000,0.000,0.000;
#CREDIT:;
#OFFSET:0.977;
#BPMS:0.000=170.616
,4.000=169.987
,132.000=85.006
,148.000=169.992
;
#STOPS:;
#DELAYS:;
#WARPS:;
#TIMESIGNATURES:0.000=4=4
;
#TICKCOUNTS:0.000=4
;
#COMBOS:0.000=1
;
#SPEEDS:0.000=1.000=0.000=0
;
#SCROLLS:0.000=1.000
;
#FAKES:;
#LABELS:0.000=Song Start
;
#DISPLAYBPM:170.000;
#NOTES:
0000
0000
0000
0000
,
0000
0000
0000
0000
,
0000
0000
0000
0000
,
0000
0000
0000
0000
,
0000
0000
0000
0000
,
0000
0000
0000
0000
,
0000
0000
0000
0000
,
0001
0000
0010
0000
1000
0000
0001
0000
0100
1000
0100
1000
0001
0000
0000
0000
,
1001
0000
0000
0000
0010
0000
0100
0000
0000
0000
0010
0000
1000
0000
0010
0100
,
0010
1000
0100
0001
,
0020
1000
0001
1030
,
0010
0001
0100
1000
,
0020
0000
0001
0000
1000
0000
0031
1000
,
0020
0100
0000
0100
,
0000
0000
0100
0000
0000
0000
0130
1000
,
0001
0101
1000
1100
,
0001
0000
0100
0000
1000
0000
0100
0000
0001
0010
0000
0010
0001
0000
1000
0001
,
0010
0001
0010
0001
1000
0100
0001
0100
,
2000
0000
0010
3100
,
0001
0100
0001
0100
0010
0100
0001
0010
,
0100
1000
1001
1001
,
0010
1000
0010
1000
0001
0100
1000
0100
,
0002
0000
0010
0103
,
0001
0100
1000
0001
1000
0100
0001
0010
,
0100
0000
1000
0010
0000
1000
0100
0000
,
0010
0000
0001
0000
0010
0001
0010
0001
0010
0000
0100
0000
0010
0001
0010
0001
,
1000
0000
0010
0000
0100
0010
0100
0010
0100
0000
0001
0000
1000
0000
0100
0000
,
0010
0000
0100
0000
1000
0010
1000
0010
1000
0000
0001
0000
0010
0100
0010
0100
,
0010
0000
0001
0000
1000
0010
1000
0010
0100
0001
0100
0001
1000
0100
1000
0100
,
0010
0010
0001
0001
,
0100
0100
1000
1000
,
0010
1000
0010
0000
0001
1000
0001
0100
,
2000
0000
0000
0002
3003
0000
0110
0000
,
1020
0000
0032
0000
1003
0000
0000
0010
0100
0001
0010
0100
1000
0000
0001
0100
,
0021
0000
2030
0000
3001
0000
0000
0010
0100
1000
0010
0100
0001
0000
1000
0010
,
0201
0000
2300
0000
3001
0000
0000
0100
0010
1000
0100
0010
0001
0000
1000
0010
,
1200
0000
0302
0000
1003
0010
0001
0000
1000
0000
0000
0001
0000
0000
0110
0000
,
0001
0000
0000
0001
1000
0000
0000
1000
0010
0000
0000
0010
0100
0000
0000
0100
,
0001
0000
0000
0001
0010
0000
0000
0010
0001
0000
1000
0000
0010
0000
0100
0000
,
1000
0000
0000
1000
0100
0000
0000
0100
0001
0000
0000
0001
1000
0000
0000
1000
,
0010
0000
0000
0010
0001
0000
0000
0001
0010
0000
0100
0000
0001
0000
0000
0000
,
0010
0000
0000
0010
0100
0000
0000
0100
0001
0000
0000
0001
1000
0000
0000
1000
,
0010
0000
0000
0010
0001
0000
0000
0001
1000
0000
0010
0000
0100
0000
0001
0000
,
0010
0000
0000
0010
0100
0000
0000
0100
0001
0000
0100
0000
1000
0000
0000
0000
,
0110
0000
0001
1000
0000
0100
0010
0000
,
2002
0000
0000
0000
,
0000
0003
0020
3000
,
0200
0000
0000
0030
,
0002
0000
0000
0300
,
0020
0000
0000
0000
,
0000
0003
2000
0030
,
0002
0000
0000
3003
,
0110
0000
0000
1001
0000
0000
0110
0000
,
1000
0010
0000
1000
0010
0000
0100
0000
0001
0010
0000
0001
0010
0000
0100
0000
,
1001
0000
0000
0110
,
1000
0000
0100
1000
0001
0000
1000
0010
0000
0100
0001
0010
0100
0000
1000
0000
,
0001
0000
0100
0001
1000
0001
0100
0010
0000
0100
0001
0010
0100
0000
1000
0000
,
0010
0000
1000
0100
0010
0000
0001
0100
0000
0010
1000
0001
0010
0000
0100
0000
,
1000
0000
0010
0100
0010
1000
0100
0010
0100
1000
0000
1000
0010
0000
1000
0000
,
0001
0000
0100
0001
1000
0000
0001
0010
0000
0100
1000
0010
0100
0000
0001
0000
,
1000
0000
0100
1000
0001
1000
0100
0010
0000
0100
1000
0010
0100
0000
0001
0000
,
0010
0000
0001
0100
0010
0000
1000
0100
0000
0010
0001
1000
0010
0000
0100
0000
,
0010
0000
0100
0001
0000
1000
0100
0000
,
1000
0100
0010
0001
1000
0100
0010
0001
0000
0001
0100
0010
1000
0000
0001
0000
,
0010
0100
0010
0100
1000
0000
0100
0000
1000
0000
0001
0010
0000
0100
1000
0000
,
0001
0100
0010
1000
0001
0100
0010
1000
0000
1000
0100
0010
0001
0000
1000
0000
,
1010
0000
0000
1001
0000
0000
1100
0000
0011
0000
0000
1001
0000
0000
0101
0000
,
1000
0010
0100
0010
1000
0010
0100
0010
0000
1000
0100
0010
0001
0000
0100
0000
,
0001
0010
0100
0010
0001
0010
0100
0010
0000
0001
0100
0010
1000
0000
0100
0000
,
0010
0100
0010
0100
1000
0001
1000
0001
0100
0010
0100
0010
1000
0000
0000
0000
,
0002
0000
0000
0203
0000
0000
1300
0000
,
0001
0010
0000
0001
0010
0000
0100
0000
1000
0010
0000
1000
0010
0000
0100
0000
,
1001
0000
0000
0000
0000
0000
0000
0000
0000
0001
0000
1000
0010
0000
0100
0010
,
0100
1001
0000
0000
;

//---------------dance-double - ----------------
#NOTEDATA:;
#CHARTNAME:;
#STEPSTYPE:dance-double;
#DESCRIPTION:;
#CHARTSTYLE:;
#DIFFICULTY:Easy;
#METER:8;
#RADARVALUES:0.334,0.415,0.096,0.288,0.004,224.000,11.000,33.000,0.000,0.000,0.000,0.000,0.000,0.334,0.415,0.096,0.288,0.004,224.000,11.000,33.000,0.000,0.000,0.000,0.000,0.000;
#CREDIT:;
#OFFSET:0.977;
#BPMS:0.000=170.616
,4.000=169.987
,132.000=85.006
,148.000=169.992
;
#STOPS:;
#DELAYS:;
#WARPS:;
#TIMESIGNATURES:0.000=4=4
;
#TICKCOUNTS:0.000=4
;
#COMBOS:0.000=1
;
#SPEEDS:0.000=1.000=0.000=0
;
#SCROLLS:0.000=1.000
;
#FAKES:;
#LABELS:0.000=Song Start
;
#DISPLAYBPM:170.000;
#NOTES:
00000000
00000000
00000000
00000000
,
00000000
00000000
00000000
00000000
,
00000000
00000000
00000000
00000000
,
00000000
00000000
00000000
00000000
,
00000000
00000000
00000000
00000000
,
00000000
00000000
00000000
00000000
,
00000000
00000000
00000000
00000000
,
00000010
00000001
00000100
00001000
,
00010000
00000000
00000000
00001000
00000000
00000000
00011000
00000000
,
01000000
01000000
10000000
10000000
,
00100000
00100000
00010000
00010000
,
00001000
00001000
00000010
00000010
,
00000001
00000001
00000100
00000100
,
00000020
00000100
00000000
00000100
,
00000000
00000100
00000000
00000130
,
00010000
00000000
00001000
00000000
,
00010000
00100000
10000000
10010000
,
00100000
00001000
00010000
01000000
,
20000000
00000000
00100000
30100000
,
00010000
00001000
00000010
00001000
,
00000002
00000000
00000010
00000013
,
00000100
00001000
00010000
00000010
,
00002000
00000000
00000001
00003001
,
00001000
00010000
00100000
10000000
,
01000000
00000000
00000000
00100000
00000000
00000000
01000000
00000000
,
00001000
00010000
00001000
00000000
00000001
00000000
00000010
00000000
,
00000002
00000000
00001000
00001003
,
00010000
00001000
00010000
00000000
10000000
00000000
00100000
00000000
,
20000000
00000000
00100000
30100000
,
01000000
00100000
01000000
00000000
00010000
00000000
00001000
00000000
,
00000200
00000000
00000001
00000301
,
00000010
00000100
00000010
00000000
00010000
00000000
00001000
00000000
,
00200000
00000000
00000000
00020000
00330000
00000000
11000000
00000000
,
00010000
00010000
00100000
00000000
00000000
01000000
00100000
00000000
,
00010000
00010000
00100000
00000000
00000000
00001000
00000010
00000000
,
00000100
00000100
00000010
00000000
00000000
00000001
00000010
00000000
,
00000100
00000000
00000100
00000000
00000010
00000000
00000000
00000000
00001000
00000000
00000000
00010000
00000000
00000000
00011000
00000000
,
00200000
01000000
00310000
02000000
,
03100000
00010000
00001000
00010000
,
00000020
00000100
00001030
00000200
,
00000310
00001000
00010000
00001000
,
00200000
01000000
00310000
02000000
,
03100000
00010000
00001000
00010000
,
00000020
00000100
00001030
00000200
,
00010300
00000000
00000000
01000000
00000000
00000000
01100000
00000000
,
20020000
00000000
00000000
00000000
,
00000000
30030000
00200000
00300000
,
02000000
00000000
00000000
03000000
,
00020000
00000000
00000000
00030000
,
00002000
00000000
00000000
00000000
,
00000000
00003000
00000020
00000000
,
00000002
00000000
00000000
00000033
,
00000100
00000000
00000000
00000010
00000000
00000000
00000110
00000000
,
00001000
00000000
00000001
00000000
,
00002002
00000000
00000000
00003003
,
00000010
00010000
00001000
01000000
,
00100000
00000000
01000000
00000000
00010000
00100000
01000000
00000000
,
00010000
00001000
00000100
00000001
,
00000020
00000001
00001000
00000031
,
00000100
00010000
00001000
00100000
,
01000000
00000000
00100000
00000000
00010000
01000000
00100000
00000000
,
00010000
00001000
00000010
00000001
,
00001000
00000000
00000000
00000001
00000000
00000000
00000110
00000000
,
00002000
00010000
00000100
00013000
,
00100000
10000000
01000000
00010000
,
00020000
00001000
01000000
00031000
,
00000020
00000000
00000000
00000030
,
00000001
00000001
00000100
00001000
,
01000000
01000000
00100000
10000000
,
00010000
00100000
00000010
00001000
,
00010000
00000000
00000000
00001000
00000000
00000000
00010000
00000000
,
00001000
00000000
00000001
00000000
,
00002002
00000000
00000000
00003003
,
00000000
00000110
00000000
00000000
,
;

//---------------dance-double - ----------------
#NOTEDATA:;
#CHARTNAME:;
#STEPSTYPE:dance-double;
#DESCRIPTION:;
#CHARTSTYLE:;
#DIFFICULTY:Medium;
#METER:11;
#RADARVALUES:0.466,0.543,0.166,0.261,0.057,325.000,19.000,30.000,0.000,0.000,0.000,0.000,0.000,0.466,0.543,0.166,0.261,0.057,325.000,19.000,30.000,0.000,0.000,0.000,0.000,0.000;
#CREDIT:;
#OFFSET:0.977;
#BPMS:0.000=170.616
,4.000=169.987
,132.000=85.006
,148.000=169.992
;
#STOPS:;
#DELAYS:;
#WARPS:;
#TIMESIGNATURES:0.000=4=4
;
#TICKCOUNTS:0.000=4
;
#COMBOS:0.000=1
;
#SPEEDS:0.000=1.000=0.000=0
;
#SCROLLS:0.000=1.000
;
#FAKES:;
#LABELS:0.000=Song Start
;
#DISPLAYBPM:170.000;
#NOTES:
00000000
00000000
00000000
00000000
,
00000000
00000000
00000000
00000000
,
00000000
00000000
00000000
00000000
,
00000000
00000000
00000000
00000000
,
00000000
00000000
00000000
00000000
,
00000000
00000000
00000000
00000000
,
00000000
00000000
00000000
00000000
,
10000000
01000000
00100000
00010000
00001000
00000100
00000010
00000000
,
00000011
00000000
00000000
00001100
00000000
00000000
00000101
00000000
,
00000010
00010000
00000010
00000000
00000100
00001000
00000100
00000000
,
00100000
00010000
00100000
00000000
00001000
01000000
00001000
00000000
,
00100000
10000000
00100000
00000000
01000000
00010000
01000000
00000000
,
00001000
00010000
00001000
00000000
00000010
00000100
00000010
00000000
,
00000002
00000100
00000000
00000100
,
00000000
00000100
00000000
00000103
,
00001000
00000000
00010000
00000000
,
00010010
01001000
00010100
00101000
,
10000000
00100000
10000000
00000000
00010000
10000000
01000000
00010000
,
00002000
00000000
00000100
00003100
,
00000001
00000010
00000001
00000000
00001000
00000001
00000100
00001000
,
00020000
00001000
00100000
00130000
,
01000000
00001000
00010000
00000000
00000010
00001000
00010000
00100000
,
20000000
00000000
00010000
30010000
,
10000000
01000000
00010000
00000000
00001000
00000100
00000001
00000010
,
00000100
00000000
00000000
00000010
00000000
00000000
00000110
00000000
,
00010000
00001000
00200000
00000000
00310000
01000000
00001000
00100000
,
00020000
10000000
00100000
01030000
,
00001000
00010000
00000020
00000000
00001030
00000100
00010000
00000010
,
00002000
00000001
00000010
00003100
,
00000010
00001000
00020000
00000000
00031000
01000000
00010000
01000000
,
00200000
00010000
10000000
10300000
,
00010000
10000000
00010000
00001000
,
00000002
00000000
00000000
00002000
00003003
00000000
00000110
00000000
,
00000010
00000000
00010000
00000000
00001000
00000000
00000000
00000010
00001000
00010000
00100000
00000000
01000000
00000000
00000000
00000000
,
00010000
00000000
10000000
00000000
01000000
00000000
00000000
01000000
00010000
00001000
00000100
00000000
00000001
00000000
00001000
00000000
,
00000100
00000000
00000100
00000000
00000010
00000000
00000000
00010000
00001000
00100000
00010000
00000000
01000000
00000000
00000000
00000000
,
00100000
00000000
00100000
00000000
01000000
00000000
00000000
00000000
00010000
00000000
00000000
00001000
00000000
00000000
00011000
00000000
,
00000010
00000001
00000100
00000000
00000010
00001000
00000100
00000000
,
00000010
00000001
00000100
00000000
00000010
00010000
00001000
01000000
,
00100000
10000000
01000000
00000000
00100000
00010000
01000000
00000000
,
00100000
10000000
01000000
00000000
00100000
00001000
00010000
00000010
,
00000100
00000001
00000100
00001000
00000100
00001000
00010000
00001000
,
00010000
01000000
00010000
01000000
10000000
00100000
10000000
00000000
,
00010000
00100000
00010000
00001000
00000100
00001000
00000010
00000000
,
00000100
00000000
00000001
00000100
00000000
00001000
00000100
00000000
,
00000020
00000000
00000000
00000000
,
00000000
00000000
00000002
00000030
,
00002000
00000000
00000000
00000003
,
00020000
00000000
00000000
00030000
,
00000002
00000000
00000000
00000000
,
00000000
00003000
00000020
00000003
,
00000200
00000000
00000000
00000330
,
00001000
00000000
00000000
00010000
00000000
00000000
00011000
00000000
,
00100000
00000000
00000000
00010000
00000000
00000000
00001000
00000000
00000010
00000000
00000000
00001000
00000000
00000000
00010000
00000000
,
00002200
00000000
00000000
00003300
,
00000010
00010000
01000000
00000000
00200000
00000000
00310000
00000000
,
10000000
01000000
00010000
00001000
00010000
00000100
00000001
00000000
,
00000010
00000001
00001000
00000000
00000010
00000000
00000100
00000000
,
00000001
00001000
00010000
00001000
00010000
00000000
10010000
00000000
,
00100000
00001000
00010000
00000000
10000000
00000000
01000000
00000000
,
00100000
01000000
10000000
00100000
00010000
00000010
00001000
00000000
,
00000001
00000010
00001000
00000000
00000001
00000100
00001000
00000000
,
00000001
00000000
00000100
00001000
00000000
00010000
00010000
00010000
,
00001000
01000000
00100000
00010000
10000000
01000000
00010000
00000000
,
10000000
00010000
00001000
00000001
,
00000010
00000100
00010000
00001000
00000100
00000010
00010000
00000000
,
00001000
00000000
00000000
00001000
00000000
00000000
00001000
00000000
01000000
00000000
00000000
01000000
00000000
00000000
01000000
00000000
,
10020000
00031000
02100000
03001000
,
00002001
00013000
00000210
00010300
,
00100000
00001000
00001000
00010000
00100000
01000000
00010000
00000000
,
20000000
00000000
00000000
32000000
00000000
00000000
03010000
00000000
,
00100000
00000000
00000000
00010000
00000000
00000000
00001000
00000000
00000010
00000000
00000000
00001000
00000000
00000000
00010000
00000000
,
00002200
00000000
00000000
00003300
,
00000010
00001001
00000000
00000000
,
;

//---------------dance-double - ----------------
#NOTEDATA:;
#CHARTNAME:;
#STEPSTYPE:dance-double;
#DESCRIPTION:;
#CHARTSTYLE:;
#DIFFICULTY:Hard;
#METER:15;
#RADARVALUES:0.629,0.766,0.227,0.148,0.475,462.000,26.000,17.000,0.000,0.000,0.000,0.000,0.000,0.629,0.766,0.227,0.148,0.475,462.000,26.000,17.000,0.000,0.000,0.000,0.000,0.000;
#CREDIT:;
#OFFSET:0.977;
#BPMS:0.000=170.616
,4.000=169.987
,132.000=85.006
,148.000=169.992
;
#STOPS:;
#DELAYS:;
#WARPS:;
#TIMESIGNATURES:0.000=4=4
;
#TICKCOUNTS:0.000=4
;
#COMBOS:0.000=1
;
#SPEEDS:0.000=1.000=0.000=0
;
#SCROLLS:0.000=1.000
;
#FAKES:;
#LABELS:0.000=Song Start
;
#DISPLAYBPM:170.000;
#NOTES:
00000000
00000000
00000000
00000000
,
00000000
00000000
00000000
00000000
,
00000000
00000000
00000000
00000000
,
00000000
00000000
00000000
00000000
,
00000000
00000000
00000000
00000000
,
00000000
00000000
00000000
00000000
,
00000000
00000000
00000000
00000000
,
00000001
00000100
00010000
00001000
00100000
10000000
00010000
00000000
,
10010000
00000000
00000000
00000000
00100000
00000000
01000000
00000000
00000000
00000000
00100000
00000000
00010000
00000000
00100000
01000000
,
00100000
01000000
10000000
00010000
,
00002000
00000001
00000100
00003001
,
00000010
00000100
00000001
00001000
,
00020000
10000000
01000000
10030000
,
02000000
00100000
00000000
00100000
,
00000000
00000000
00100000
00000000
00000000
00000000
03100000
00010000
,
00001000
00001100
00000010
00000101
,
00001000
00000000
00000100
00000000
00000001
00000000
00000100
00000000
00001000
00000010
00000000
00010000
00001000
00000000
00100000
00010000
,
10000000
00100000
01000000
00100000
00010000
00001000
00000010
00001000
,
00020000
00000010
01000000
00030010
,
00000001
00000010
00000100
00000010
00001000
00010000
00100000
00010000
,
00002000
00100000
00000100
00103000
,
00010000
00100000
10000000
00010000
01000000
10000000
00010000
00001000
,
00000200
00000000
00000010
00000310
,
00001000
00000010
00000001
00001000
00000100
00000001
00001000
00010000
,
00001000
00000000
00000001
00000010
00000000
00001000
00010000
00000000
,
00100000
00000000
10000000
00000000
00010000
10000000
00010000
10000000
00010000
00000000
01000000
00000000
00100000
10000000
00100000
10000000
,
01000000
00000000
00010000
00000000
00001000
00010000
00001000
00010000
00001000
00000000
00000010
00000000
00000001
00000000
00001000
00000000
,
00000010
00000000
00000100
00000000
00000001
00000010
00000001
00000010
00000001
00000000
00001000
00000000
00000010
00000100
00000010
00000100
,
00000010
00000000
00010000
00000000
00001000
00100000
00001000
00100000
00001000
00000000
00010000
00000000
01000000
00000000
10000000
00000000
,
00100000
00000000
01000000
00000000
00010000
10000000
00010000
10000000
01000000
00000000
00010000
00000000
00000010
00010000
00000010
00010000
,
00001000
00000000
00000100
00000000
00000010
00001000
00000010
00001000
00000001
00000000
00001000
00000000
00000001
00000000
00000010
00000000
,
00000100
00000000
00010000
00000000
00001000
00100000
00001000
00100000
01000000
00000000
10000000
00000000
00010000
01000000
00010000
01000000
,
00020000
00000000
00000000
20000000
30030000
00000000
01100000
00000000
,
00100000
00000000
00001000
00000000
00011000
00000000
00000000
00100000
00010000
00001000
00000010
00000001
00000100
00000000
00000010
00000001
,
00001000
00000000
00000001
00000000
00000101
00000000
00000000
00000100
00001000
00010000
01000000
10000000
00100000
00000000
00010000
01000000
,
00100000
00000000
01000000
00000000
01100000
00000000
00000000
00001000
00010000
00000010
00001000
00000001
00000100
00000000
00000100
00000001
,
00000010
00000000
00000010
00000000
00000100
00010000
00001000
00000000
00100000
00000000
00000000
00010000
00000000
00000000
10000000
00000000
,
10010000
00000000
00000000
00010000
00000010
00000000
00000000
00000000
00001001
00000000
00000000
00001000
00100000
00000000
00000000
00000000
,
10010000
00000000
00000000
00010000
00000010
00000000
00000000
00000000
00000100
00000000
00000100
00000000
00000010
00000000
00000100
00000000
,
00001001
00000000
00000000
00001000
01000000
00000000
00000000
00000000
10010000
00000000
00000000
00010000
00000100
00000000
00000000
00000000
,
00001001
00000000
00000000
00001000
01000000
00000000
00000000
00000000
00100000
00000000
00100000
00000000
01000000
00000000
00100000
00000000
,
01000000
10000000
01000000
00010000
01000000
00010000
00001000
00010000
,
00001000
00000100
00001000
00000100
00000001
00000010
00000001
00000000
,
00001000
00000010
00001000
00010000
01000000
00010000
00100000
00000000
,
01000000
00000000
10000000
01000000
00000000
00010000
00001000
00000000
,
00000020
00000000
00000000
00000000
,
00000000
00000000
00002000
00000030
,
00000002
00000000
00000000
00003000
,
00002000
00000000
00000000
00000003
,
00020000
00000000
00000000
00000000
,
00000000
00003000
20000000
00030000
,
02000000
00000000
00000000
33000000
,
01100000
00000000
00000000
10010000
00000000
00000000
01100000
00000000
,
00010000
00001000
00000000
00010000
00001000
00000000
00100000
00000000
00001000
00010000
00000000
00001000
00010000
00000000
00000010
00000000
,
00000110
00000000
00000000
00011000
,
00010000
00000000
00100000
00010000
00001000
00000000
00000100
00000010
00000000
00000010
00000000
00000010
00000001
00000000
00001000
00000000
,
00000010
00000000
00000100
00001000
00010000
00000000
00000010
00001000
00000000
00001000
00000000
00100000
00010000
00000000
10000000
00000000
,
01000000
00000000
00010000
00100000
01000000
00000000
00010000
00000100
00000000
00000010
00000000
00001000
00010000
00000000
00010000
00000000
,
00000100
00000000
00000001
00000100
00001000
00000000
00000001
00000100
00000000
00000100
00000000
00000100
00000010
00000000
00001000
00000000
,
00000100
00000000
00010000
00001000
00100000
00000000
00010000
00000010
00000000
00000100
00000000
00000001
00000010
00000000
00000100
00000000
,
00000010
00000000
00001000
00010000
00100000
00000000
01000000
00100000
00000000
00100000
00000000
00100000
01000000
00000000
00010000
00000000
,
00100000
00000000
00001000
00010000
00000010
00000000
00001000
00000001
00000000
00000010
00000000
00000001
00001000
00000000
00000010
00000000
,
00000100
00000000
00010000
01000000
00000000
00100000
00100000
00100000
,
10000000
00000000
01000000
00100000
00010000
00000000
00100000
00010000
00000000
00001000
00000100
00000010
00000001
00000000
00001000
00000000
,
00000010
00000100
00000010
00000100
00000001
00000000
00000100
00000000
00001000
00000000
00010000
00000010
00000000
00000100
00000001
00000000
,
00001000
00000000
00000010
00000100
00000001
00000000
00001000
00000100
00000000
00000001
00000100
00000010
00001000
00000000
00010000
00000000
,
00110000
00000000
00000000
10010000
00000000
00000000
01010000
00000000
00001010
00000000
00000000
00001001
00000000
00000000
00001100
00000000
,
00000001
00000000
00000010
00000001
00001000
00000000
00000010
00000100
00000000
00001000
00010000
00000010
00001000
00000000
00000100
00000000
,
00010000
00000000
00001000
01000000
00100000
00000000
00010000
00001000
00000000
00000010
00001000
00010000
00100000
00000000
01000000
00000000
,
00100000
00000000
00100000
00000000
10000000
00000000
10000000
00000000
01000000
00100000
00010000
00100000
01000000
00000000
00000000
00000000
,
00002000
00000000
00000000
00003200
00000000
00000000
00000301
00000000
,
00001000
00010000
00000000
00001000
00010000
00000000
00000010
00000000
00010000
00001000
00000000
00010000
00001000
00000000
00100000
00000000
,
01100000
00000000
00000000
00000000
00000000
00000000
00000000
00000000
00000000
00100000
00000000
00010000
01000000
00000000
00100000
00010000
,
00001000
00011000
00000000
00000000
,
;

//---------------dance-single - ----------------
#NOTEDATA:;
#CHARTNAME:;
#STEPSTYPE:dance-single;
#DESCRIPTION:;
#CHARTSTYLE:;
#DIFFICULTY:Challenge;
#METER:18;
#RADARVALUES:0.981,1.000,0.314,0.087,1.000,742.000,36.000,10.000,0.000,0.000,0.000,0.000,0.000,0.981,1.000,0.314,0.087,1.000,742.000,36.000,10.000,0.000,0.000,0.000,0.000,0.000;
#CREDIT:;
#OFFSET:0.977;
#BPMS:0.000=170.616
,4.000=169.987
,132.000=85.006
,148.000=169.992
;
#STOPS:;
#DELAYS:;
#WARPS:;
#TIMESIGNATURES:0.000=4=4
;
#TICKCOUNTS:0.000=4
;
#COMBOS:0.000=1
;
#SPEEDS:0.000=1.000=0.000=0
;
#SCROLLS:0.000=1.000
;
#FAKES:;
#LABELS:0.000=Song Start
;
#DISPLAYBPM:170.000;
#NOTES:
// measure 0
0000
0000
0000
0000
,  // measure 1
0000
0000
0000
0000
,  // measure 2
0000
0000
0000
0000
,  // measure 3
0000
0000
0000
0000
,  // measure 4
0000
0000
0000
0000
,  // measure 5
0000
0000
0000
0000
,  // measure 6
0000
0000
0000
0000
,  // measure 7
1000
0010
1000
0100
0001
0100
0010
1000
0100
0010
0001
0100
0002
0000
0000
0000
,  // measure 8
1003
0100
0010
0001
0000
0101
0010
1000
,  // measure 9
0100
0001
0100
0000
1000
0010
0001
0000
0100
0010
1000
0000
0001
0100
1000
0000
,  // measure 10
0001
0100
1000
0000
0100
0010
1000
0000
0001
0100
1000
0000
0010
0001
0100
0000
,  // measure 11
0010
0001
0100
0000
0010
1000
0100
0000
0010
0001
0100
0000
1000
0010
0100
0000
,  // measure 12
1000
0001
0100
0000
0010
1000
0010
0000
1000
0000
0000
0001
0100
0010
1000
0000
,  // measure 13
0001
0010
1000
0000
0100
0010
0100
0000
1000
0010
0001
0000
0100
1000
0010
0000
,  // measure 14
0001
0100
1000
0000
0100
0010
1000
0000
0100
0001
0100
0000
0010
0001
0010
0000
,  // measure 15
1000
0100
0010
0001
2000
0000
0000
0000
3001
0010
0100
1000
0002
0000
0000
0000
,  // measure 16
1003
0000
0100
0010
0001
0000
1000
0000
0001
0010
0000
0010
0001
0000
0100
1000
,  // measure 17
0001
0000
0010
0100
1000
0000
0001
0000
1000
0010
0100
0000
0001
0000
0100
0010
,  // measure 18
1000
0001
0100
1000
0010
0100
0001
0100
,  // measure 19
1000
0000
0100
0010
1000
0000
0001
0000
0010
0100
1000
0000
0001
0000
0010
1000
,  // measure 20
0100
0000
0001
0000
1000
0010
1000
0000
0001
0000
0000
0001
1000
0000
0100
0000
,  // measure 21
0010
0000
0001
0100
0001
0000
0010
0000
1000
0100
1000
0000
0010
0000
0100
0010
,  // measure 22
0100
0001
0100
1000
0001
0010
1000
0100
,  // measure 23
0001
0010
0100
1000
0001
0010
0100
1000
0001
0100
0010
1000
0001
1000
0100
0010
,  // measure 24
0001
0000
1000
0000
0100
0000
0010
0000
0000
0000
0001
0000
1000
0000
0100
0010
,  // measure 25
0001
0000
1000
0100
0010
0000
0001
0000
0010
1000
0100
0000
1000
0000
0010
0001
,  // measure 26
1000
0000
0010
0000
0100
0000
1000
0000
0100
0000
0001
0010
1000
0010
0100
0000
,  // measure 27
0010
0000
0100
0010
1000
0000
0100
0000
1000
0100
0001
0000
1000
0000
0010
0100
,  // measure 28
0010
0000
0001
0000
1000
0010
0001
0000
1000
0000
0000
0001
0100
0000
1000
0000
,  // measure 29
0010
0000
0100
0010
0100
0000
0010
0000
0001
1000
0010
0000
0100
0000
1000
0100
,  // measure 30
0010
0000
0011
1100
0000
0100
0010
1000
,  // measure 31
0001
1000
0001
1000
0001
1000
0100
0010
0100
0010
0100
0001
0100
0001
0100
0001
,  // measure 32
1000
0000
0000
1100
0000
0000
0011
0000
1001
0000
0000
0011
0000
0000
1100
0000
,  // measure 33
0001
0000
0010
0000
0100
0000
1000
0000
0100
0000
0001
0000
1000
0000
0010
0000
0100
0000
0001
0000
0010
0000
0100
0000
1000
0000
0010
0100
0000
1001
0000
0010
,  // measure 34
0100
0000
0010
0000
1000
0000
0100
0000
0001
0000
1000
0000
0100
0000
0010
0000
0001
0000
0010
0000
0100
0000
1000
0000
0001
0000
0100
0010
0000
1100
0000
0010
,  // measure 35
0001
0000
0010
0000
1000
0000
0010
0000
0100
0000
1000
0000
0010
0000
0100
0000
0010
0000
1000
0000
0100
0000
0010
0000
0001
0000
0100
0010
0000
1001
0000
0010
,  // measure 36
1000
0100
1000
0100
0010
0001
0010
0001
0100
0010
0100
0010
1000
0001
1000
0001
0020
0000
0000
0000
0000
0000
1000
0000
0000
0000
1030
0000
0100
0000
0010
0001
,  // measure 37
0010
0000
0010
0000
1000
0010
0000
1000
0010
0000
0001
0100
0000
0100
0001
0000
,  // measure 38
0001
0000
0010
1000
0100
0001
0100
0000
0001
1000
0001
0100
0010
1000
0100
0001
,  // measure 39
1000
0000
0010
0000
0100
0010
0000
0010
0100
0000
0010
1000
0000
0010
1000
0000
,  // measure 40
0010
0000
0001
0010
0001
0010
0001
1000
0010
0100
0010
0001
0010
0100
1000
0001
,  // measure 41
0010
0000
0100
0000
0100
0010
0000
0100
0010
0000
0010
0001
0000
0010
0100
0000
,  // measure 42
0010
0000
0001
0010
0000
0010
0100
0000
1000
0010
1000
0010
0100
0001
0000
0100
,  // measure 43
0010
0001
0010
0100
1000
0100
0001
0100
0010
1000
0100
0010
0001
0100
0010
1000
,  // measure 44
0001
0000
0000
0000
0010
0000
1000
0000
0000
0000
1000
0000
0001
0100
0000
0001
,  // measure 45
0010
0000
0010
0100
1000
0000
0100
0010
0000
1001
0000
0010
0100
0000
0010
0000
,  // measure 46
1000
0000
0001
0010
1000
0000
0100
0001
0000
1100
0000
0001
0100
0000
0010
0000
,  // measure 47
1000
0000
0010
0100
0010
0000
0001
1000
0000
0011
0000
0100
0010
0000
1000
0000
,  // measure 48
0001
0000
0100
0010
1000
0000
0010
0100
0000
0011
0000
0100
1000
0000
0001
0000
,  // measure 49
1000
0000
0001
1000
0001
0000
0010
0100
0000
0110
0000
0010
0100
0000
1000
0000
,  // measure 50
0001
0000
0100
0010
1000
0000
0010
0100
0000
0110
0000
0100
0010
0000
1000
0000
,  // measure 51
0001
0010
0001
0010
0100
0001
0100
0001
0010
0100
0010
0100
1000
0100
1000
0100
,  // measure 52
0010
0000
0000
0110
0000
0000
1001
0000
0010
0100
0000
0010
0100
0000
0001
0000
,  // measure 53
1000
0100
0000
0010
0001
0000
1001
0000
0001
0010
0000
0100
1000
0000
1001
0000
,  // measure 54
0220
0000
0000
0000
0330
0000
0000
0000
1001
0000
0010
0001
0000
0010
0100
0000
,  // measure 55
0001
0000
0100
1000
0001
0000
0100
0010
0000
1100
0000
0010
0100
0000
1000
0000
,  // measure 56
0001
0000
0100
0001
1000
0000
0100
0001
0000
1001
0000
0001
0100
0000
1000
0000
,  // measure 57
0010
0000
1000
0100
0010
0000
0001
0100
0000
0110
0000
0001
0010
0000
0100
0000
,  // measure 58
1000
0000
0010
0100
0010
0000
0001
0010
0000
1100
0000
0100
1000
0000
0100
0000
,  // measure 59
0001
0000
0100
0001
1000
0000
0001
0010
0000
0011
0000
0001
0010
0000
0100
0000
,  // measure 60
0001
0000
0100
1000
0010
0000
1000
0010
0000
1010
0000
1000
0010
0000
0001
0000
,  // measure 61
0010
0100
0010
0100
1000
0010
1000
0010
0001
0100
0001
0100
1000
0001
1000
0001
,  // measure 62
0010
0000
1100
0011
0000
0110
1001
0000
,  // measure 63
1000
0010
0100
0001
1000
0001
0100
1000
0000
0001
0100
1000
0100
0000
0001
0000
,  // measure 64
0010
0100
0001
1000
0010
0000
0100
0000
1001
0000
0100
1000
0000
0001
0010
0000
,  // measure 65
0100
0000
0001
0010
0100
0000
1000
0001
0000
0110
0000
1000
0010
0000
0100
0000
,  // measure 66
1000
0000
0001
1000
0000
1000
0000
0100
0001
0100
0010
1000
0000
0010
0100
1000
,  // measure 67
0001
0010
0100
1000
0001
0100
0010
1000
0010
1000
0100
0010
0001
1000
0100
0010
,  // measure 68
1000
0010
0100
1000
0010
1000
0100
0010
0001
0100
0010
1000
0001
0100
0010
1000
,  // measure 69
0100
0010
0100
1000
0100
0010
0001
0010
0100
0010
0001
1000
0200
0000
0000
0000
,  // measure 70
1300
0000
0100
0010
0000
0100
0001
0000
1000
0100
0000
0010
0001
0000
0100
0000
,  // measure 71
1000
0010
0000
0001
1000
0000
0100
0000
1000
0010
0000
0100
0001
0000
0010
0000
,  // measure 72
2000
0000
0000
0000
0000
0000
0000
0000
3010
0000
0100
0010
0000
0001
0100
1000
,  // measure 73
0010
0220
0000
0000
,  // measure 74
0000
0330
0000
0000
;
