#TITLE:oarfish;
#SUBTITLE:;
#ARTIST:kors k;
#TITLETRANSLIT:;
#SUBTITLETRANSLIT:;
#ARTISTTRANSLIT:;
#GENRE:;
#CREDIT:;
#MENUCOLOR:green;
#METERTYPE:DDR X;
#BANNER:oarfish.png;
#BACKGROUND:oarfish-bg.png;
#LYRICSPATH:;
#CDTITLE:./CDTITLES/DanceDanceRevolution UNIVERSE3.png;
#MUSIC:oarfish.mp3;
#OFFSET:1.655;
#SAMPLESTART:70.330;
#SAMPLELENGTH:15.000;
#SELECTABLE:YES;
#LISTSORT:;
#DISPLAYBPM:140.000;
#BPMS:0.000=140.078,4.000=139.997;
#STOPS:;
#BGCHANGES:;
#ATTACKS:;

//---------------dance-single - ----------------
#NOTES:
     dance-single:
     :
     Beginner:
     1:
     0.069,0.139,0.038,0.019,0.000:
0000
0000
0000
0000
,
0000
0000
0000
0000
,
0000
0000
0000
0000
,
0000
0000
0000
0000
,
0000
0000
0000
0000
,
0000
0000
0000
0000
,
1000
0000
0000
0000
,
0000
0000
0000
0000
,
0001
0000
0000
0000
,
0000
0000
0000
0000
,
1000
0000
0000
0000
,
0000
0000
0000
0000
,
0001
0000
0000
0000
,
0000
0000
0000
0000
,
1000
0000
0000
0000
,
0000
0000
0000
0000
,
0010
0000
0000
0000
,
0000
0000
0000
0000
,
0200
0000
0000
0300
,
0000
0000
0000
0000
,
0000
0000
0000
0000
,
0000
0000
0000
0000
,
0020
0000
0000
0030
,
0000
0000
0000
0000
,
0010
0000
0000
0000
,
0100
0000
0000
0000
,
0001
0000
0000
0000
,
0001
0000
0000
0000
,
1000
0000
0000
0000
,
1000
0000
0000
0000
,
0100
0000
0000
0000
,
0100
0000
0000
0000
,
0010
0000
0000
0000
,
0010
0000
0000
0000
,
0110
0000
0000
0000
,
0100
0000
0000
0000
,
0100
0000
0000
0000
,
0100
0000
0000
0000
,
1000
0000
0000
0000
,
1000
0000
0000
0000
,
0001
0000
0000
0000
,
1001
0000
0000
0000
,
1001
0000
0000
0000
,
0001
0000
0000
0000
,
1000
0000
0000
0000
,
0010
0000
0000
0000
,
0100
0000
0000
0000
,
0001
0000
0000
0000
,
0010
0000
0000
0000
,
0100
0000
0000
0000
,
1000
0000
0000
0000
,
0001
0000
0000
0000
,
0100
0000
0000
0000
,
0010
0000
0000
0000
,
1000
0000
0000
0000
,
0001
0000
0000
0000
,
1000
0000
0001
0000
,
1000
0000
0000
0000
,
1001
0000
0000
0000
,;

//---------------dance-single - ----------------
#NOTES:
     dance-single:
     :
     Easy:
     2:
     0.106,0.167,0.038,0.038,0.000:
0000
0000
0000
0000
,
0000
0000
0000
0000
,
0000
0000
0000
0000
,
0000
0000
0000
0000
,
0000
0000
0000
0000
,
0000
0000
0000
0000
,
1000
0000
1000
0000
,
0001
0000
0000
0000
,
0001
0000
0001
0000
,
1000
0000
0000
0000
,
0010
0000
0000
0000
,
0010
0000
0010
0000
,
0100
0000
0000
0000
,
0100
0000
0100
0000
,
0010
0000
0000
0000
,
0100
0000
0100
0000
,
0010
0000
0000
0000
,
0110
0000
0000
0000
,
2002
0000
0000
0000
,
0000
0000
0000
0000
,
0000
0000
0000
3003
,
0000
0000
0000
0000
,
0002
0000
0000
0003
,
2000
0000
0000
3000
,
0001
0000
0000
0000
,
1000
0000
0000
0000
,
1001
0000
0000
0000
,
1000
0000
0000
0000
,
0010
0000
0000
0000
,
0100
0000
0000
0000
,
0001
0000
0000
0000
,
0010
0000
0000
0000
,
0100
0000
0000
0000
,
1000
0000
0000
0000
,
0010
0000
0010
0000
,
0010
0000
0000
0000
,
0100
0000
0100
0000
,
0100
0000
0000
0000
,
0001
0000
0001
0000
,
0001
0000
0000
0000
,
1000
0000
1000
0000
,
1000
0000
0100
0000
,
0010
0000
0001
0000
,
0010
0000
0000
0000
,
0100
0000
1000
0000
,
0100
0000
0000
0000
,
1000
0000
0001
0000
,
1000
0000
0000
0000
,
0010
0000
1000
0000
,
0010
0000
0000
0000
,
0100
0000
0001
0000
,
0100
0000
0000
0000
,
0010
0000
0100
0000
,
0010
0000
0000
0000
,
1000
0000
0001
0000
,
1000
0000
0000
0000
,
0100
0000
0010
0000
,
0001
0000
0001
0000
,
1001
0000
0000
0000
;

//---------------dance-single - ----------------
#NOTES:
     dance-single:
     :
     Medium:
     7:
     0.361,0.445,0.048,0.480,0.014:
0000
0000
0000
0000
,
0000
0000
0000
0000
,
0000
0000
0000
0000
,
0000
0000
0000
0000
,
0000
0000
0000
0000
,
0000
0000
0000
0000
,
1000
0010
0100
0001
,
1000
0100
0010
0001
,
0010
0100
1000
0001
,
1000
0000
0000
0100
0000
0000
0010
0000
0000
0000
0001
0000
1000
0000
0000
0000
,
0010
0100
0001
1000
,
0100
0010
0001
0000
,
0010
0100
1000
0001
,
0100
0010
0100
0000
,
0001
1000
0100
0010
,
0001
0010
0100
0000
,
1000
0100
0001
0100
,
1000
0000
0001
0000
,
1002
0000
0000
0000
,
0000
0000
0000
0000
,
0000
0000
0000
0000
,
0000
0000
0000
0000
,
0203
0000
0000
0000
,
0320
0000
2030
0000
,
3001
0000
0010
0000
0001
0000
0000
0000
0010
0000
0000
0001
0000
0000
1000
0000
,
0010
0000
0100
0001
1000
0000
0100
0000
,
1001
0000
1000
0020
0000
1030
0001
2000
,
0000
0000
3100
0020
0000
0032
0000
1003
,
0001
0010
0100
2000
0000
0000
3020
0000
,
0000
0130
0001
2000
0000
3200
0000
0310
,
0200
0000
0310
0002
0000
0000
1003
0020
,
0000
0130
0000
0002
0000
1003
0010
0100
,
0002
0000
0000
2003
0000
0000
3010
0200
,
0000
0000
0301
2000
0000
0000
3100
0010
,
0001
0100
1000
0100
,
0001
0010
0100
0000
,
1000
0010
0100
0001
,
0010
0100
1000
0000
,
0100
0010
0001
0100
,
0010
1000
0010
0100
,
0001
0010
0100
1000
,
1001
0000
0100
0000
0010
1000
0001
0000
,
1001
0000
0001
0200
0000
0301
1000
0002
,
0000
0000
0013
0200
0000
2300
0000
3001
,
1000
0100
0010
0002
0000
0000
0203
0000
,
0000
0310
1000
0002
0000
0023
0000
0130
,
0020
0000
0130
2000
0000
0000
3001
0200
,
0000
0310
0000
2000
0000
3001
0100
0010
,
2000
0000
0000
3002
0000
0000
0103
0020
,
0000
0000
1030
0002
0000
0013
0010
0100
,
1000
0000
0001
2000
0000
3100
0010
0200
,
0000
0000
1300
0002
0000
0203
0000
0310
,
1000
0010
0100
0002
0000
0000
0023
0000
,
0000
0130
1000
0002
0000
0023
0000
0130
,
2000
0000
3010
0200
0000
0000
0301
2000
,
0000
3100
0000
0020
0000
0130
1000
0001
,
0200
0000
0000
0320
0000
0000
1030
0001
,
0010
0000
0000
0100
0000
0000
1000
0000
0001
0000
0100
0000
0010
0000
0000
0000
,
1001
0000
0000
0000
,;

//---------------dance-single - ----------------
#NOTES:
     dance-single:
     :
     Hard:
     10:
     0.520,0.613,0.086,1.000,0.096:
0000
0000
0000
0000
,
0000
0000
0000
0000
,
0000
0000
0000
0000
,
0000
0000
0000
0000
,
0000
0000
0000
0000
,
0000
0000
0000
0000
,
1000
0100
0010
0001
,
0100
0010
1000
0001
,
0010
0100
1000
0001
,
0010
0000
0000
0001
0000
1000
0001
0000
0000
0000
0100
0010
0100
0000
0000
0000
,
1001
0000
0010
0000
0100
0001
1000
0001
,
0100
0000
0010
0000
1000
0000
0100
0010
,
0001
0000
0010
0000
0100
0000
1000
0001
,
0010
0001
0100
0000
0010
0000
1000
0000
,
0010
0000
0100
0000
0001
0010
0100
0010
,
0100
0000
1000
0000
0001
0100
0010
1000
,
0010
0100
0001
0010
,
1001
0000
0100
0010
0001
0100
1000
0100
,
2001
0100
0000
0100
,
0000
0010
0000
0010
,
0000
0001
0000
0001
,
0000
0010
0000
0010
,
3200
0001
0000
0001
,
0320
0100
2030
3001
,
1001
0000
1000
0000
0010
0000
0100
0000
0001
1000
0000
0001
1000
0000
0100
0000
,
0020
0000
0031
0100
0010
0010
1001
0000
,
1200
0000
0320
0032
0000
0203
2300
3200
,
0000
0000
2300
3200
0000
0320
0000
2030
,
3002
0023
0230
2300
0000
0000
3200
0000
,
0000
0320
0032
2003
0000
3020
0000
0230
,
0302
0000
2003
3020
0000
0000
0032
0023
,
0000
2030
3000
0002
0000
0023
0230
2300
,
3200
0000
0000
0000
0000
0000
0320
0000
0000
0000
0000
0030
0002
0000
0203
0000
,
0000
0000
0320
2030
0000
0000
3200
0320
,
0031
1000
0000
0000
0100
0000
0000
0000
0000
0010
0000
0000
0001
0000
0000
0000
,
0000
0010
0000
0000
0100
0000
0000
1000
0000
1000
0000
0000
0001
0000
0000
0000
,
0000
0100
0000
0000
0010
0000
0000
0000
0000
1000
0000
0000
1000
0000
0000
0000
,
0000
0100
0000
0000
0010
0000
0000
0001
0000
0001
0000
0000
1000
0000
0000
0010
,
0000
0010
0000
0000
0100
0000
0000
0000
0000
0001
0000
0000
0001
0000
0000
0000
,
0010
0100
1000
0001
,
0100
1000
0100
0001
,
0020
0130
2000
0000
3010
0100
1001
0000
,
0021
0000
0032
2003
0000
3020
0032
0023
,
0000
0000
0032
0023
0000
0230
0000
0302
,
2003
3200
0320
0032
0000
0000
0023
0000
,
0000
0230
0302
2003
0000
3020
0000
0032
,
2003
0000
3002
0203
0000
0000
2300
3200
,
0000
0302
0003
2000
0000
3200
0320
0032
,
0023
0000
0000
2030
0000
0000
3020
0032
,
0000
0000
0000
0000
0203
0000
2300
0000
0000
0000
3002
0003
0002
0000
0023
0000
,
2030
0000
3020
0230
0000
2300
3002
0023
,
0000
0000
2030
3020
0000
0230
0000
0302
,
0023
0230
2300
3002
0000
0000
0203
0000
,
0000
0320
2030
3002
0000
0023
0000
0230
,
0302
0000
2003
3020
0000
0000
0032
0023
,
0000
2030
3000
0020
0000
0032
0203
0320
,
2030
0000
0000
3002
0000
0000
0023
0130
,
1000
0000
0100
0010
0000
0010
0001
0000
1000
0000
0010
0000
0200
0000
0300
0000
,
1001
0000
0000
0000
;

//---------------dance-double - ----------------
#NOTES:
     dance-double:
     :
     Easy:
     2:
     0.114,0.195,0.086,0.038,0.000:
00000000
00000000
00000000
00000000
,
00000000
00000000
00000000
00000000
,
00000000
00000000
00000000
00000000
,
00000000
00000000
00000000
00000000
,
00000000
00000000
00000000
00000000
,
00000000
00000000
00000000
00000000
,
10000000
00000000
10000000
00000000
,
01000000
00000000
00000000
00000000
,
01000000
00000000
01000000
00000000
,
00100000
00000000
00000000
00000000
,
01100000
00000000
00000000
00000000
,
00100000
00000000
00100000
00000000
,
00001000
00000000
00000000
00000000
,
00001000
00000000
00001000
00000000
,
00010000
00000000
00000000
00000000
,
00000100
00000000
00000100
00000000
,
00001000
00000000
00000000
00000000
,
00001001
00000000
00000000
00000000
,
00000110
00000000
00000000
00000000
,
00000220
00000000
00000000
00000000
,
00000000
00000000
00000000
00000330
,
00000000
00000000
00000000
00000000
,
00000002
00000000
00000000
00000003
,
00002000
00000000
00000000
00003000
,
00000001
00000000
00000000
00000000
,
00001000
00000000
00000000
00000000
,
00001001
00000000
00000000
00000000
,
00000010
00000000
00000000
00000000
,
00000100
00000000
00000000
00000000
,
00010000
00000000
00000000
00000000
,
00001000
00000000
00000000
00000000
,
01000000
00000000
00000000
00000000
,
00100000
00000000
00000000
00000000
,
10000000
00000000
00000000
00000000
,
00010000
00000000
00010000
00000000
,
00010000
00000000
00000000
00000000
,
00100000
00000000
00100000
00000000
,
00100000
00000000
00000000
00000000
,
00001000
00000000
00010000
00000000
,
00001000
00000000
00000000
00000000
,
00010000
00000000
00001000
00000000
,
00011000
00000000
00010000
00000000
,
00011000
00000000
00001000
00000000
,
00010000
00000000
00000000
00000000
,
00000100
00000000
00001000
00000000
,
00000100
00000000
00000000
00000000
,
00000010
00000000
00000001
00000000
,
00000010
00000000
00000000
00000000
,
00000100
00000000
00010000
00000000
,
00000100
00000000
00000000
00000000
,
00011000
00000000
00001000
00000000
,
00010000
00000000
00000000
00000000
,
00001000
00000000
01000000
00000000
,
00001000
00000000
00000000
00000000
,
01000000
00000000
00100000
00000000
,
01000000
00000000
00000000
00000000
,
00100000
00000000
00100000
00000000
,
10000000
00000000
10000000
00000000
,
10010000
00000000
00000000
00000000
,;

//---------------dance-double - ----------------
#NOTES:
     dance-double:
     :
     Medium:
     7:
     0.362,0.445,0.048,0.490,0.014:
00000000
00000000
00000000
00000000
,
00000000
00000000
00000000
00000000
,
00000000
00000000
00000000
00000000
,
00000000
00000000
00000000
00000000
,
00000000
00000000
00000000
00000000
,
00000000
00000000
00000000
00000000
,
10000000
01000000
00100000
00001000
,
00010000
00000100
00000010
00000001
,
00000100
00000010
00010000
00001000
,
00100000
00000000
00000000
00010000
00000000
00000000
01000000
00000000
00000000
00000000
00100000
00000000
10000000
00000000
00000000
00000000
,
01000000
00010000
01000000
10000000
,
00100000
01000000
00001000
00000000
,
00010000
00100000
00010000
00001000
,
00000010
00000001
00001000
00000000
,
00000010
00001000
00000100
00010000
,
00001000
01000000
00100000
00000000
,
10000000
00100000
00010000
00100000
,
01000000
00000000
00001000
00000000
,
00021000
00000000
00000000
00000000
,
00000000
00000000
00000000
00000000
,
00000000
00000000
00000000
00000000
,
00000000
00000000
00000000
00000000
,
00032000
00000000
00000000
00000000
,
00003200
00000000
00000302
00000000
,
00000013
00000000
00000100
00000000
00010000
00000000
00000000
00000000
00001000
00000000
00000000
00100000
00000000
00000000
00010000
00000000
,
01000000
00000000
00100000
10000000
01000000
00000000
00100000
00000000
,
10010000
00000000
00100000
00002000
00000000
00013000
00001000
00020000
,
00000000
00000000
00030100
00000020
00000000
00000032
00000000
00000103
,
00001000
00010000
00001000
00200000
00000000
00000000
00320000
00000000
,
00000000
00130000
10000000
00200000
00000000
00302000
00000000
00013000
,
00000200
00000000
00001300
00000020
00000000
00000000
00000130
00002000
,
00000000
00003100
00000000
00000002
00000000
00000013
00000100
00010000
,
00002000
00000000
00000000
00203000
00000000
00000000
01300000
00020000
,
00000000
00000000
01030000
20000000
00000000
00000000
31000000
00100000
,
00001000
00010000
00100000
00010000
,
00001000
00000100
00000001
00000000
,
00000010
00000100
00010000
00001000
,
01000000
00010000
00100000
00000000
,
01000000
10000000
00100000
00010000
,
00100000
10000000
00010000
00100000
,
00001000
00010000
00000100
00000010
,
00001001
00000000
00000010
00000000
00000100
00010000
00001000
00000000
,
00011000
00000000
00100000
00020000
00000000
01030000
00100000
20000000
,
00000000
00000000
30100000
02000000
00000000
23000000
00000000
31000000
,
00010000
00100000
00001000
00020000
00000000
00000000
00030200
00000000
,
00000000
00000310
00001000
00000020
00000000
00000032
00000000
00000013
,
00000200
00000000
00000301
00000200
00000000
00000000
00010300
00002000
,
00000000
00103000
00000000
02000000
00000000
13000000
01000000
00100000
,
00020000
00000000
00000000
02030000
00000000
00000000
03001000
00020000
,
00000000
00000000
00030100
00000020
00000000
00000031
00001000
00000001
,
00002000
00000000
00003010
00020000
00000000
00031000
00100000
02000000
,
00000000
00000000
13000000
02000000
00000000
03020000
00000000
01030000
,
00100000
00001000
00010000
00002000
00000000
00000000
00023000
00000000
,
00000000
00030100
00000010
00000002
00000000
00000203
00000000
00001300
,
00020000
00000000
00130000
20000000
00000000
00000000
31000000
00200000
,
00000000
00301000
00000000
00020000
00000000
00031000
00010000
00000100
,
00000020
00000000
00000000
00000032
00000000
00000000
00000103
00001000
,
00010000
00000000
00000000
00001000
00000000
00000000
00100000
00000000
01000000
00000000
10000000
00000000
00100000
00000000
00000000
00000000
,
10010000
00000000
00000000
00000000
,;

//---------------dance-double - ----------------
#NOTES:
     dance-double:
     :
     Hard:
     10:
     0.520,0.613,0.086,1.000,0.096:
00000000
00000000
00000000
00000000
,
00000000
00000000
00000000
00000000
,
00000000
00000000
00000000
00000000
,
00000000
00000000
00000000
00000000
,
00000000
00000000
00000000
00000000
,
00000000
00000000
00000000
00000000
,
00000001
00000100
00001000
00010000
,
00100000
10000000
01000000
00010000
,
00001000
00000010
00000001
00001000
,
00000100
00000000
00000000
00000010
00000000
00000100
00010000
00000000
00000000
00000000
00001000
00010000
00001000
00000000
00000000
00000000
,
00011000
00000000
00100000
00000000
00010000
01000000
10000000
01000000
,
00010000
00000000
00100000
00000000
01000000
00000000
00010000
00001000
,
00010000
00000000
00000100
00000000
00000010
00000000
00000001
00000010
,
00001000
00010000
00001000
00000000
01000000
00000000
00100000
00000000
,
10000000
00000000
00010000
00000000
01000000
10000000
01000000
00001000
,
00010000
00000000
00000100
00000000
00000010
00001000
00000010
00000001
,
00001000
00000100
00010000
00001000
,
00011000
00000000
00001000
00100000
01000000
00010000
01000000
10000000
,
20010000
00100000
00000000
00100000
,
00000000
00010000
00000000
00010000
,
00000000
01000000
00000000
01000000
,
00000000
00010000
00000000
00010000
,
30020000
01000000
00000000
01000000
,
00032000
00010000
00023000
00031000
,
00011000
00000000
00010000
00000000
00000100
00000000
00000010
00000000
00000001
00001000
00000000
00000001
00001000
00000000
00000100
00000000
,
00000020
00000000
00000031
00000100
00000010
00001000
00001010
00000000
,
00000201
00000000
00002300
00023000
00000000
00230000
20300000
30020000
,
00000000
00000000
20030000
30020000
00000000
00230000
00000000
02300000
,
03020000
00032000
00003020
00000032
00000000
00000000
00002003
00000000
,
00000000
00003020
00002030
00003002
00000000
00002003
00000000
00003200
,
00020300
00000000
00032000
00203000
00000000
00000000
02300000
23000000
,
00000000
30200000
00300000
00020000
00000000
00032000
00003020
00000032
,
00000203
00000000
00000000
00000320
00000000
00000000
00002030
00003200
,
00000000
00000000
00000320
00002030
00000000
00000000
00023000
00230000
,
10300000
00010000
00000000
00000000
00100000
00000000
00000000
00000000
00000000
00001000
00000000
00000000
00001000
00000000
00000000
00000000
,
00000000
00010000
00000000
00000000
00000100
00000000
00000000
00000010
00000000
00000010
00000000
00000000
00000001
00000000
00000000
00000000
,
00000000
00000010
00000000
00000000
00000100
00000000
00000000
00000000
00000000
00010000
00000000
00000000
00010000
00000000
00000000
00000000
,
00000000
00001000
00000000
00000000
01000000
00000000
00000000
00100000
00000000
00100000
00000000
00000000
10000000
00000000
00000000
01000000
,
00000000
01000000
00000000
00000000
00010000
00000000
00000000
00000000
00000000
00001000
00000000
00000000
00001000
00000000
00000000
00000000
,
00010000
00001000
00000100
00000001
,
00000010
00000100
00010000
00001000
,
00200000
00310000
02000000
00000000
03100000
10000000
11000000
00000000
,
00210000
00000000
02300000
03020000
00000000
00032000
00003020
00002030
,
00000000
00000000
00003020
00000032
00000000
00000203
00000000
00002300
,
00023000
02030000
03200000
00320000
00000000
00000000
20030000
00000000
,
00000000
32000000
03020000
20030000
00000000
30200000
00000000
00302000
,
00023000
00000000
00030020
00000230
00000000
00000000
00000302
00000023
,
00000000
00002030
00003000
00000002
00000000
00000203
00020300
00032000
,
02003000
00000000
00000000
03200000
00000000
00000000
20300000
30020000
,
00000000
00000000
00000000
00000000
02030000
00000000
23000000
00000000
00000000
00000000
30020000
00030000
00020000
00000000
00230000
00000000
,
02300000
00000000
03020000
00230000
00000000
00302000
00003020
00000032
,
00000000
00000000
00000203
00002300
00000000
00023000
00000000
00230000
,
20300000
32000000
03020000
20030000
00000000
00000000
30200000
00000000
,
00000000
00302000
02003000
03200000
00000000
00320000
00000000
00032000
,
00003020
00000000
00000032
00000023
00000000
00000000
00000230
00020300
,
00000000
00032000
00003000
02000000
00000000
03200000
20300000
32000000
,
03020000
00000000
00000000
00032000
00000000
00000000
00003200
00000301
,
00000010
00000000
00000100
00010000
00000000
00010000
00001000
00000000
01000000
00000000
00010000
00000000
00200000
00000000
00300000
00000000
,
10010000
00000000
00000000
00000000
,;

//---------------dance-single - ----------------
#NOTES:
     dance-single:
     :
     Challenge:
     14:
     0.660,0.634,0.346,0.192,0.528: // measure 1
0000
0000
0000
0000
,  // measure 2
0000
0000
0000
0000
,  // measure 3
1000
0100
0000
0010
1000
0000
0100
0010
0000
0001
0100
0000
1010
0000
0000
0000
,  // measure 4
0100
0001
0000
0010
0100
0000
1000
0010
0000
0100
0000
1000
0010
0000
0001
0000
,  // measure 5
0100
1000
0000
0010
0100
0000
1000
0010
0000
0001
0100
0000
1010
0000
0000
0000
,  // measure 6
1000
0010
0000
0100
0001
0000
0010
0100
0000
1000
0000
0100
0010
0000
1001
0000
,  // measure 7
0100
0010
0000
1000
0001
0000
0010
0100
0000
1000
0000
0010
0100
0000
0001
0000
,  // measure 8
1000
0010
0000
0001
0100
0000
1000
0010
0000
0100
0001
0000
1010
0000
0100
0000
,  // measure 9
1000
0010
0000
0100
1000
0000
0001
0100
0000
1000
0000
0001
0100
0000
1000
0000
,  // measure 10
0110
0000
0000
0001
0010
1000
0010
0000
0000
0000
0001
0010
0001
0000
0000
0001
,  // measure 11
2000
0000
3000
0001
0200
0000
0000
0000
0320
0000
0000
0000
0032
0000
0000
0000
,  // measure 12
0203
0000
0300
1000
0020
0000
0000
0000
2030
0000
0000
0000
3002
0000
0003
0000
,  // measure 13
1100
0000
0000
0001
0010
0000
0000
1000
0000
0100
0000
0000
0011
0000
0000
1000
,  // measure 14
0010
0000
0000
0001
0100
0000
0000
1000
0000
0100
0000
0010
0001
0000
1000
0000
,  // measure 15
0010
0000
0000
0001
0100
0000
0000
0010
0000
0100
0000
1000
0001
0000
0100
0000
,  // measure 16
0001
1000
0000
0010
0100
0000
1000
0001
0000
0010
0000
0100
1000
0000
0010
0000
,  // measure 17
0001
1000
0000
0010
0100
0000
0001
1000
0000
0010
0000
0100
0001
0000
0010
0000
,  // measure 18
0001
0000
0100
0000
1000
0100
0001
0100
1000
0000
0010
0000
0100
0000
1000
0000
,  // measure 19
0101
0000
0000
0001
0010
0000
0000
0000
2010
0000
0000
0000
3100
0000
0000
0000
,  // measure 20
0101
0000
0000
0100
1000
0000
0000
0000
0012
0000
0000
0000
0103
0000
0000
0000
,  // measure 21
1010
0000
0000
1000
0100
0000
0000
0000
0012
0000
0000
0000
0103
0000
0000
0000
,  // measure 22
1000
0010
1000
0010
0100
0000
0000
1000
0000
0100
0000
0010
0000
0001
0100
0000
,  // measure 23
1000
0000
0010
0000
0001
0000
1000
0000
0001
0010
0100
0010
0100
1000
0001
0100
,  // measure 24
0020
0000
0200
0330
,  // measure 25
1001
0000
1000
0000
0010
0000
0100
0000
0001
1000
0000
0100
0000
0010
0000
0002
,  // measure 26
2000
0000
0000
3003
,  // measure 27
1001
0000
0100
0110
0000
0001
0010
0101
,  // measure 28
0000
0000
1000
0100
0000
0110
0000
1000
,  // measure 29
0101
0010
0100
2000
0000
0000
3001
0000
,  // measure 30
0011
0100
0010
1100
0000
0001
0000
1000
,  // measure 31
0011
0000
0100
1000
0100
0001
0010
1000
,  // measure 32
0000
1001
0000
1001
0000
1000
0100
0010
,  // measure 33
0001
0000
0000
0210
0000
0000
0001
0301
,  // measure 34
0000
0000
1000
0102
0000
0003
1000
0110
,  // measure 35
0001
1000
0000
0010
0100
0000
0000
0000
0001
0100
0000
0010
1000
0000
0000
0000
,  // measure 36
1000
0010
0000
0100
0001
0000
0010
1000
0000
0100
0000
0010
0001
0000
1000
0000
,  // measure 37
0010
0100
0000
1000
0001
0000
0000
0000
0010
1000
0000
0001
0100
0000
0000
0000
,  // measure 38
0001
0100
0000
1000
0010
0000
0100
0001
0000
0010
0000
0100
1000
0000
0000
0000
,  // measure 39
0001
1000
0000
0100
0010
0000
0000
0000
0001
0100
0000
0010
1000
0000
0000
0000
,  // measure 40
0010
0001
0000
1000
0100
0000
0010
0001
0100
0010
1000
0000
0001
0000
0010
0000
,  // measure 41
0100
1010
0110
0101
,  // measure 42
0011
0110
1100
1001
,  // measure 43
0100
0010
0001
0010
0100
1000
0001
0100
,  // measure 44
1000
0100
0001
0010
0001
1000
0100
0001
,  // measure 45
1000
0010
0001
1000
0100
1000
0001
0010
,  // measure 46
0100
0001
0010
1000
0001
1000
0010
0100
,  // measure 47
0001
0010
0100
0001
0010
1000
0010
0001
,  // measure 48
0100
1000
0100
0001
1000
0100
1000
0001
,  // measure 49
0010
0001
1000
0100
1000
0001
0100
0001
,  // measure 50
1000
0000
0010
0000
1000
0000
0100
0000
0001
0000
0010
0100
1000
0100
0010
0000
,  // measure 51
0001
1000
0100
0010
0001
0010
1000
0010
,  // measure 52
0001
0100
0010
1000
0100
1000
0001
0100
,  // measure 53
0010
1000
0100
0001
0010
0100
0001
1000
,  // measure 54
0010
0100
0001
0010
1000
0100
0001
0100
,  // measure 55
0010
1000
0010
0001
0010
0001
0100
0010
,  // measure 56
1000
0100
0001
0100
1000
0001
0010
1000
,  // measure 57
0001
0100
1000
0001
0010
0100
1000
0001
,  // measure 58
0100
0000
1000
0100
0001
0100
1000
0010
0100
0000
0010
0000
0101
0000
0000
0000
,  // measure 59
2002
0000
0000
0000
,  // measure 60
0000
0000
0000
0000
,  // measure 61
3003
0000
0000
0000
;
