#TITLE:oarfish;
#ARTIST:kors k;
#FILE:oarfish.mp3;
#BPM:140.078;
#GAP:-1655;
#MENUCOLOR:;
#SAMPLESTART:70.330;
#SAMPLELENGTH:15.000;
#CDTITLE:./CDTITLES/DanceDanceRevolution UNIVERSE3.png;
#DISPLAYBPM:140;
#CHANGEBPM:16.000=139.997;
#SINGLE:BEGINNER:1:
00000000
00000000
00000000
00000000
00000000
00000000
40000000
00000000
60000000
00000000
40000000
00000000
60000000
00000000
40000000
00000000
80000000
00000000
2!20000020
00000000
00000000
00000000
8!80000080
00000000
80000000
20000000
60000000
60000000
40000000
40000000
20000000
20000000
80000000
80000000
A0000000
20000000
20000000
20000000
40000000
40000000
60000000
B0000000
B0000000
60000000
40000000
80000000
20000000
60000000
80000000
20000000
40000000
60000000
20000000
80000000
40000000
60000000
40006000
40000000
B0000000
;
#SINGLE:BASIC:2:
00000000
00000000
00000000
00000000
00000000
00000000
40004000
60000000
60006000
40000000
80000000
80008000
20000000
20002000
80000000
20002000
80000000
A0000000
B!B0000000
00000000
000000B0
00000000
6!60000060
4!40000040
60000000
40000000
B0000000
40000000
80000000
20000000
60000000
80000000
20000000
40000000
80008000
80000000
20002000
20000000
60006000
60000000
40004000
40002000
80006000
80000000
20004000
20000000
40006000
40000000
80004000
80000000
20006000
20000000
80002000
80000000
40006000
40000000
20008000
60006000
B0000000
;
#SINGLE:ANOTHER:7:
00000000
00000000
00000000
00000000
00000000
00000000
40802060
40208060
80204060
(4002008000604000)
80206040
20806000
80204060
20802000
60402080
60802000
40206020
40006000
B!60000000
00000000
00000000
00000000
3!20000000
A!80007!4000
(B080600080060040)
80264020
B048!80764!4
0018!809!60B
6824!4007!80
0A64!401!20A
2!20A6!600B8!8
0A06!60B82
6!600B!40072!2
0034!40018
60204020
60802000
40802060
80204000
20806020
80408020
60802040
B0208460
B062!20346!6
0092!201!40B
4286!6003!20
0A46!609!80A
8!80A4!400B2!2
0A04!40B28
4!400B!60038!8
0076!60982
4064!40182!2
0016!603!20A
4826!6009!80
0A46!609!80A
4!4072!20034!4
0108!80A46
2!200A!80076
(8002004060208000)
B0000000
;
#SINGLE:MANIAC:10:
00000000
00000000
00000000
00000000
00000000
00000000
40208060
20804060
80204060
(8006046000282000)
B0802646
20804028
60802046
86208040
80206828
20406284
80206080
B0286242
B!40200020
00800080
00600060
00800080
1!20600060
A!80207!40B0
(B040802064064020)
8!809288B0
1!20A!89!603!21!41!2
001!41!20A!807!4
B!69!8A!21!4001!20
0A!89!6B!407!80A!2
3!60B!47!8009!69!8
07!446!609!8A!21!4
(1!200000A!8000086!603!20)
00A!87!4001!2A!8
(9400200008006000)
(0800200404006000)
(0200800004004000)
(0200800606004008)
(0800200006006000)
80204060
20402060
8!8A4!4072B0
9!809!6B!407!89!69!8
009!69!80A!203!6
B!41!2A!89!6009!80
0A!23!6B!407!809!6
B!40B!63!2001!41!2
03!664!401!2A!89!6
9!8007!4007!89!6
(00003!201!4000B!666!609!80)
7!407!8A!201!4B!69!8
007!47!80A!203!6
9!8A!21!4B!6003!20
0A!87!4B!609!80A!2
3!60B!47!8009!69!8
07!448!809!63!2A!8
7!400B!6009!8A
(4028086040802!2020)
B0000000
;
#DOUBLE:BASIC:2:
00000000
00000000
00000000
00000000
00000000
00000000
40004000
20000000
20002000
80000000
A0000000
80008000
00000000
00000000
60000000
00000000
00000000
00000000
00000000
00000000
00000000
00000000
00000000
00000000
00000000
00000000
00000000
00000000
00000000
60000000
00000000
20000000
80000000
40000000
60006000
60000000
80008000
80000000
00006000
00000000
60000000
60006000
60000000
60000000
00000000
00000000
00000000
00000000
00006000
00000000
60000000
60000000
00002000
00000000
20008000
20000000
80008000
40004000
B0000000
:
00000000
00000000
00000000
00000000
00000000
00000000
00000000
00000000
00000000
00000000
00000000
00000000
40000000
40004000
00000000
20002000
40000000
B0000000
A0000000
A!A0000000
000000A0
00000000
6!60000060
4!40000040
60000000
40000000
B0000000
80000000
20000000
00000000
40000000
00000000
00000000
00000000
00000000
00000000
00000000
00000000
40000000
40000000
00004000
40000000
40004000
00000000
20004000
20000000
80006000
80000000
20000000
20000000
40004000
00000000
40000000
40000000
00000000
00000000
00000000
00000000
00000000
;
#DOUBLE:ANOTHER:7:
00000000
00000000
00000000
00000000
00000000
00000000
40208000
60000000
00006000
(8006002000804000)
20602040
80200000
60806000
00000000
00000060
00208000
40806080
20000000
6!60000000
00000000
00000000
00000000
60000000
00000000
(0000600000080060)
20842080
B0800606!6
00600000
0608!8009!60
0948!80806
00000000
00000006
0008!800A6!6
0034!40018
00608060
00000000
00006000
20608000
20408060
80406080
00600000
00000600
6086!60384!4
0072!201!401
6806!60060
00000000
00000060
0802!20128
6!6003!20026!6
00600000
0006!60682!2
0012!203!603
8060006!60
06000000
6!6094!40018!8
0806!60660
00000000
(6000008020408000)
B0000000
:
00000000
00000000
00000000
00000000
00000000
00000000
00000040
00208060
20800040
(0000000000000000)
00000000
00004000
00000040
80604000
80402000
40000000
00000000
00004000
40000000
00000000
00000000
00000000
4!40000000
1!20003!6000
(9020000040000000)
00000000
0004!40440
0028!809!603
40400000
000004!404
2!2018!800A4!4
0106!60920
4!40040000
00000000
40000000
40206000
80200040
00000000
00000000
00000000
40002080
B0802040
40000000
00000000
0040002!20
0A48!809!609
2!2032!20024!4
04000000
00000040
0028!80946
4!40700400
00000000
0404!40040
0286!603!201
00000000
04000402
8!8009!60034
(0004000000000000)
00000000
;
#DOUBLE:MANIAC:10:
00000000
00000000
00000000
00000000
00000000
00000000
00000060
80402060
00000000
(0000006000060000)
60806242
60802060
60000000
06002080
40602420
60000000
00006000
60082624
B!40800080
00600060
00200020
00600060
B!60200020
60606!6060
(6060000000000000)
00000000
0006!609!87!4B!6
00B!4B!609!80A!2
3!66000000
00000000
6!6068!800A!21!4
07!886!60600
00000000
0000006!69!8
(7600800000000000)
(0600000000000000)
(0000000006006000)
(0000200808004002)
(0200600000000000)
60000000
00006000
8!892!20A410
9!80A!23!60600
00000000
6!63!2A!89!600B!40
01!23!6B!407!808
6!60600000
0000006!66
2!200A!8007!4B!6
(00003!201!4000B!666!609!80)
A!203!69!80800
000006!609!8
7!41!23!6B!4007!80
082!2A!809!606
00000006!6
0602!20A!87!41!2
3!60060000
(0006060020608!8080)
B0000000
:
00000000
00000000
00000000
00000000
00000000
00000000
60204000
00000000
40806040
(2008020000404000)
40000000
00000004
00208068
40400000
00000004
00208486
40200040
40400000
00000000
00000000
00000000
00000000
00000000
4!40004040
(4000208064064020)
8!80928470
3!201!440000
00000000
04!47!89!600B!40
07!87!4B!60B!401!2
204!440000
000004!47!89!6
3!200A!8007!41!2
00A!87!40040
(0000000004004000)
(0000200808006000)
(0800200000000000)
(0400000000000000)
(0000000004004000)
00402060
80200040
00000000
000004!47!87!4
007!89!603!201!4
40000000
00000004!4
408!8A!2003!69!8
07!446!603!224!4
40000000
(0000000000000000)
000004!47!89!6
003!21!40400
00000000
04!4400004!4
7!809!69!800A!22
04!4400000
0004!4001!23
(8020004000000000)
00000000
;
#SINGLE:SMANIAC:14:
00000000
00000000
(4208402806207000)
(2608204802048060)
(2408204806207000)
(48026082040280B0)
(2804608204082060)
(4806204802607020)
(4802406204062040)
(A006848000686006)
(4!40462!2000A!80009!6000)
(3!20248!80007!4000B!6060)
(1006800402009004)
(8006200402086040)
(8006200802046020)
(6408204608024080)
(6408206408026080)
(6020426240802040)
(300680007!40001000)
(300240009!60003000)
(700420009!60003000)
(4848200402080620)
(4080604068282462)
8!80002!20A0
(B040802064020806!6)
4!400000B0
B02A0683
00420A04
3824!400B0
92810604
90242684
0B0B0428
600A!20063
0043!6064A
(6408200062084000)
(4802608402086040)
(8204600084062000)
(6204802608024000)
(6402800062084000)
(8604208628406080)
2070A030
90A010B0
28682462
42686426
48642468
26846482
68268486
24264246
86424626
(4080402060824280)
64286848
62842462
84268264
82684262
84868628
42624684
62468246
(2042624820803000)
B!B0000000
00000000
B0000000
;
