#TITLE:nightbird lost wing;
#SUBTITLE:;
#ARTIST:猫叉Master+;
#TITLETRANSLIT:;
#SUBTITLETRANSLIT:;
#ARTISTTRANSLIT:Nekomata Master+;
#GENRE:;
#CREDIT:;
#BANNER:nightbird lost wing.png;
#BACKGROUND:nightbird lost wing-bg.png;
#LYRICSPATH:;
#CDTITLE:./CDTitles/DanceDanceRevolution 2013.png;
#MUSIC:nightbird lost wing.ogg;
#OFFSET:0.000;
#SAMPLESTART:44.220;
#SAMPLELENGTH:15.000;
#SELECTABLE:YES;
#BPMS:0.000=190.000
;
#STOPS:15.000=1.263,
19.000=1.263,
23.000=1.263,
27.000=1.263,
187.000=1.263
;
#BGCHANGES:;
#KEYSOUNDS:;
#ATTACKS:;

//---------------dance-single - ----------------
#NOTES:
     dance-single:
     :
     Hard:
     14:
     0.751,0.662,0.439,0.187,0.159,496.000,47.000,20.000,0.000,0.000,0.000,0.751,0.662,0.439,0.187,0.159,496.000,47.000,20.000,0.000,0.000,0.000:
0000
0000
0000
0000
,
0000
0000
0000
0000
,
0000
0000
0000
0000
,
0001
1000
0001
0100
1000
0020
0000
0000
,
0130
1000
0001
0100
0010
0002
0000
0000
,
0103
0010
1000
0001
0100
0020
0000
0000
,
1030
0100
0001
0010
0100
2000
0000
0000
,
3001
0010
1000
0010
0001
0100
0010
1000
,
0010
0100
0001
0010
0100
0010
0001
0000
,
0100
0010
0001
0010
1000
0001
0100
0010
,
1000
0100
1000
0010
1000
0001
0100
0000
,
0001
0100
0001
0100
1000
0100
0001
0010
,
0001
1000
0001
1000
0010
0100
0010
0100
,
0001
0010
0100
1000
0100
0010
0001
1000
,
2002
0000
3003
0100
,
0011
0000
1000
0001
0010
0100
1000
0000
,
0100
0000
0010
0001
0010
0000
0000
0000
0100
0000
0010
0000
0100
0000
0000
0000
,
0001
0000
1000
0010
1000
0001
0010
0000
,
0001
0000
0100
0010
0100
0000
0000
0000
0010
0000
1000
0000
0001
0000
0000
0000
,
0100
0000
1010
0010
0100
0001
1000
0000
,
1100
0000
0010
0011
0001
0000
1000
1010
,
0100
0000
0001
0101
1000
0000
0010
0110
,
0001
0000
0000
0000
1000
0000
0001
0000
0010
0100
0010
0100
1000
0000
0000
0000
,
1100
0000
0001
1000
0100
0010
0001
0000
,
0010
0000
0100
1000
0100
0000
0000
0000
0010
0000
0100
0001
0100
0000
0010
0000
,
0100
0000
0010
0001
1000
0001
0100
0000
,
0001
0000
0010
0100
0010
0000
0000
0000
0100
0000
1000
0000
0001
0000
0000
0000
,
0010
0000
0101
0100
0010
1000
0001
0000
,
0011
0000
0100
1100
1000
0000
0001
0101
,
0010
0000
1000
1010
0001
0000
0100
0110
,
1000
0000
0001
0000
1000
0100
0010
0000
,
1001
0000
0010
1010
0000
0010
0011
0000
,
0000
0000
0001
0000
0100
0000
0010
0000
1000
0000
0001
0010
0100
0000
1000
0000
,
1100
0000
0001
0101
0000
1000
1010
0000
,
0000
1000
0100
0010
0001
0100
1000
0100
,
0110
0000
0001
0101
0000
0010
2100
0000
,
0000
0000
3001
0000
0001
0010
0100
0010
,
0110
0000
0010
0011
0000
0001
2002
0000
,
0000
0000
3003
0000
0001
0010
0100
1000
,
0011
0000
0000
0101
0000
0000
1100
0000
,
0000
0000
0001
0000
1000
0000
0010
0000
0100
0000
0010
1000
0001
0000
0100
0000
,
1010
0000
0000
1100
0000
0000
0101
0000
,
0000
1000
0100
0010
0100
0001
0010
0100
,
1010
0000
0001
0110
0000
1000
0102
0000
,
0000
0000
0000
0000
1003
0000
0000
0000
0001
0010
0100
0000
1000
0000
1000
0000
,
0101
0000
0010
1100
0000
0001
0220
0000
,
0000
0000
0000
0000
0000
0000
0000
0000
0000
0000
0000
0000
0000
0000
0000
0000
0000
0000
0000
0000
0000
0000
0000
0000
0000
0000
0000
0000
0000
0000
0000
0000
0000
0000
0000
0000
0000
0000
0000
0000
0000
0000
0000
0000
0000
0000
0000
0000
0000
0330
0000
0000
0000
0000
0000
0000
0000
0000
0000
0000
0000
0000
0000
0000
,
1000
0010
0001
0010
0100
0010
1000
0001
,
1000
0100
0001
0100
0010
0100
1000
0001
,
0100
1000
0100
0001
1000
0010
0001
0010
,
1000
0100
0001
0100
1000
0001
0010
1000
,
0010
0001
0100
0001
0010
0100
0010
0001
,
0100
1000
0010
1000
0100
0010
0100
0010
,
1000
0100
0010
0001
1000
0100
0010
0001
,
0010
0100
0100
0100
0100
0000
0010
0000
,
1001
0000
0000
0001
0010
0000
0100
0010
0100
0000
1000
0000
0001
0000
0000
0000
,
0100
0000
0000
0100
0010
0000
0000
0000
0001
0000
0100
0000
1000
0000
0100
0000
,
0010
0000
0000
0010
1000
0000
0100
1000
0100
0000
0010
0000
0100
0000
0000
0000
,
1000
0000
0000
1000
0010
0000
0000
0000
0100
0000
0001
0000
0010
0000
0100
0000
,
0010
0000
0000
0010
0001
0000
1000
0001
1000
0000
0010
0000
1000
0000
0000
0000
,
0001
0000
0000
0001
0100
0000
1000
0000
0100
0000
0010
0000
1000
0000
0000
0000
,
1100
0000
0000
0000
0010
0100
1000
0000
0000
0000
0010
0000
1200
0000
0000
0000
,
0010
0000
0000
0000
1300
0000
0001
0000
0100
0010
0100
0010
1000
0000
0000
0000
,
0110
0000
0000
0001
0100
0000
0010
0100
0001
0000
0001
0000
0020
0000
0000
0000
,
0031
0000
0000
0010
0100
0000
0000
0000
1000
0000
0010
0000
0001
0000
0010
0000
,
0100
0000
0000
0100
0001
0000
0010
0001
0100
0000
0100
0000
0002
0000
0000
0000
,
1003
0000
0000
0001
1000
0000
0100
0000
0010
0000
0001
0000
0100
0000
0010
0000
,
0100
0000
0000
0010
1000
0000
0001
1000
0100
0000
0100
0000
2000
0000
0000
0000
,
3001
0000
0000
1000
0010
0000
0100
0000
0010
0000
1000
0000
0001
0000
0000
0000
,
0101
0000
0000
0000
0010
0100
0001
0000
0000
0000
0010
0000
0201
0000
0000
0000
,
0010
0000
0000
0000
0301
0000
1000
0000
0010
0100
0010
0100
0001
0000
0000
0000
,
1000
0100
0001
0000
1000
0100
0001
0000
,
1000
0100
0001
0100
1000
0020
1000
0000
,
0031
0100
1000
0000
0001
0100
1000
0000
,
0001
0100
1000
0100
0001
0200
0001
0000
,
1300
0010
0001
0000
1000
0010
0001
0000
,
1000
0010
0001
0010
1000
0200
0001
0000
,
1300
0010
0001
0000
1000
0010
0001
0000
,
1000
0010
0001
0010
1010
0000
1001
0000
;

//---------------dance-double - ----------------
#NOTES:
     dance-double:
     :
     Hard:
     14:
     0.731,0.588,0.364,0.149,0.191,493.000,39.000,16.000,0.000,0.000,0.000,0.731,0.588,0.364,0.149,0.191,493.000,39.000,16.000,0.000,0.000,0.000:
00000000
00000000
00000000
00000000
,
00000000
00000000
00000000
00000000
,
00000000
00000000
00000000
00000000
,
00000100
00000001
00000010
00001000
00020000
00000100
00000000
00000000
,
01030000
10000000
00100000
00010000
00002000
00100000
00000000
00000000
,
00003100
00000001
00000010
00001000
00020000
00000010
00000000
00000000
,
00130000
10000000
01000000
00010000
00002000
01000000
00000000
00000000
,
00003100
00000001
00000010
00001000
00000010
00000001
00000100
00001000
,
00010000
00001000
00000010
00000100
00001000
00000010
00000100
00001000
,
00010000
01000000
10000000
01000000
00100000
00010000
10000000
00100000
,
01000000
00010000
00100000
01000000
00010000
00001000
00100000
01000000
,
00010000
00001000
00000010
00000001
00000010
00001000
00010000
00001000
,
00000100
00000001
00000010
00000100
00001000
00000001
00000100
00001000
,
00010000
00100000
01000000
10000000
01000000
00010000
00100000
01000000
,
20020000
00000000
30030000
01000000
,
10100000
00000000
00000000
00000000
00010000
00000000
00000000
00100000
00010000
00000000
01000000
00000000
00010000
00000000
00000000
00000000
,
10000000
00000000
01000000
00100000
01000000
00000000
00000000
00000000
00010000
00000000
00001000
00000000
00000100
00000000
00000000
00000000
,
00000010
00000000
00000000
00000000
00001000
00000000
00000000
00000010
00001000
00000000
00000100
00000000
00001000
00000000
00000000
00000000
,
00000001
00000000
00000100
00000010
00000100
00000000
00000000
00000000
00000001
00000000
00000010
00000000
00000100
00000000
00000000
00000000
,
00001000
00000000
00000000
00000000
00000101
00000000
00000000
00000001
00000100
00000000
00000010
00000000
00001000
00000000
00000000
00000000
,
00010100
00000000
00001000
00010000
01000000
00000000
00001000
00010000
,
00100000
00000000
00001000
00010000
01000000
00000000
00001000
00010000
,
00100000
00000000
00000000
00000000
01000000
00000000
00000000
00000000
00100000
10000000
00100000
00000000
10000000
00000000
00000000
00000000
,
11000000
00000000
00000000
00000000
00010000
00000000
00000000
01000000
00010000
00000000
00100000
00000000
00010000
00000000
00000000
00000000
,
10000000
00000000
01000000
00100000
01000000
00000000
00100000
00000000
00001000
00000000
00010000
00000000
00001000
00000000
00000000
00000000
,
00000100
00000000
00000000
00000000
00000010
00000000
00000000
00000010
00000100
00000000
00000001
00000000
00000010
00000000
00000000
00000000
,
00000100
00000000
00001000
00000100
00001000
00000000
00000000
00000000
00000001
00000000
00000100
00000000
00001000
00000000
00000000
00000000
,
00010000
00000000
00000000
00000000
00011000
00000000
00000000
00010000
00100000
00000000
01000000
00000000
00100000
00000000
00000000
00000000
,
00110000
00000000
00010000
00001000
00000010
00000000
00010000
00001000
,
00000100
00000000
00010000
00001000
00000010
00000000
00010000
00001000
,
00000100
00000000
00000000
00000000
00010000
00000000
00001000
00000000
00010000
00001000
00100000
00000000
01000000
00000000
10000000
00000000
,
11000000
00000000
00100000
00110000
00000000
01000000
01010000
00000000
,
00000000
00000000
10000000
00000000
00010000
00000000
00100000
00000000
00001000
00000000
00010000
00001000
00000100
00000000
00000010
00000000
,
00001010
00000000
00000001
00000101
00000000
00001000
00001001
00000000
,
00000000
00000001
00001000
00000010
00001000
00010000
01000000
00100000
,
01100000
00000000
10000000
11000000
00000000
00100000
01020000
00000000
,
00000000
00000000
10030000
00100000
00010000
00100000
01000000
00010000
,
01010000
00000000
00100000
00101000
00000000
00010000
00022000
00000000
,
00000000
00000000
00033000
00000000
01000000
00010000
00001000
00000100
,
00000011
00000000
00000000
00010100
00000000
00000000
00101000
00000000
,
00000000
00000000
00001000
00000000
00010000
00000000
00100000
00000000
01000000
00000000
00010000
10000000
00010000
00000000
01000000
00000000
,
10100000
00000000
00000000
01001000
00000000
00000000
00010010
00000000
,
00000000
00010000
00001000
00000100
00000010
00000100
00000001
00000100
,
00000110
00000000
00000000
00011000
00000000
00000000
01100000
00000000
,
00000000
00000000
00000000
00000000
01000000
00000000
00000000
00000000
00010000
00100000
01000000
00000000
10000000
00000000
00010000
00000000
,
10010000
00000000
00000000
00011000
00000000
00000000
00002002
00000000
,
00000000
00000000
00000000
00000000
00000000
00000000
00000000
00000000
00000000
00000000
00000000
00000000
00000000
00000000
00000000
00000000
00000000
00000000
00000000
00000000
00000000
00000000
00000000
00000000
00000000
00000000
00000000
00000000
00000000
00000000
00000000
00000000
00000000
00000000
00000000
00000000
00000000
00003003
00000000
00000000
00000000
00000000
00000000
00000000
00000000
00000000
00000000
00000000
,
00000010
00000001
00001000
00000010
00010000
00001000
00000010
00000100
,
00000001
00001000
00000010
00000001
00000100
00001000
00010000
00001000
,
01000000
00100000
00010000
00001000
00100000
00001000
00010000
00000010
,
00000100
00001000
00010000
01000000
10000000
00010000
00100000
01000000
,
10000000
01000000
00010000
01000000
00100000
00010000
01000000
00001000
,
00010000
00000010
00001000
00010000
00000100
00000010
00001000
00000001
,
00000010
00000100
00001000
00000010
00000100
00001000
00010000
00001000
,
00100000
01000000
10000000
01000000
00100000
00000000
01100000
00000000
,
10010000
00000000
00000000
10000000
01000000
00000000
00000000
01000000
00010000
00000000
00001000
00000000
00000010
00000000
00000001
00000000
,
00000100
00000000
00000000
00000100
00000010
00000000
00000000
00000010
00000100
00000000
00000001
00000000
00000010
00000000
00000100
00000000
,
00001000
00000000
00000000
00001000
00000100
00000000
00000000
00000100
00010000
00000000
00001000
00000000
00010000
00000000
00100000
00000000
,
01000000
00000000
00000000
01000000
00010000
00000000
00000000
00010000
00100000
00000000
01000000
00000000
10000000
00000000
01000000
00000000
,
00100000
00000000
00000000
00100000
00001000
00000000
00000000
00001000
00010000
00000000
01000000
00000000
00100000
00000000
00000000
00000000
,
00001000
00000000
00000000
00001000
00010000
00000000
00001000
00000000
00000100
00000000
00000010
00000000
00000100
00000000
00000000
00000000
,
00000101
00000000
00000000
00000000
00000010
00000001
00000100
00000000
00000000
00000000
00000010
00000000
00000102
00000000
00000000
00000000
,
00000010
00000000
00000000
00000000
00001003
00000000
00000010
00001000
00000100
00000000
00000000
00000000
00000010
00000000
00000000
00000000
,
00001001
00000000
00000000
00000001
00000100
00000000
00000000
00000100
00001000
00000000
00010000
00000000
00100000
00000000
10000000
00000000
,
01000000
00000000
00000000
01000000
00100000
00000000
00000000
00100000
01000000
00000000
10000000
00000000
00100000
00000000
01000000
00000000
,
00010000
00000000
00000000
00010000
01000000
00000000
00010000
00000000
00100000
00001000
00010000
00000000
00001000
00000000
00000000
00000000
,
00000100
00000000
00000000
00000100
00000010
00000000
00000000
00000010
00001000
00000000
00000100
00000000
00000010
00000000
00000001
00000000
,
00000100
00000000
00000000
00000100
00000010
00000000
00000000
00000010
00001000
00000000
00000100
00000000
00010000
00000000
00001000
00000000
,
00100000
00000000
00000000
00100000
00010000
00000000
01000000
00000000
10000000
00000000
01000000
00000000
00010000
00000000
00000000
00000000
,
10010000
00000000
00000000
00000000
00100000
10000000
01000000
00000000
00000000
00000000
00100000
00000000
21000000
00000000
00000000
00000000
,
00100000
00000000
00000000
00000000
30010000
00000000
00100000
00010000
01000000
00000000
00000000
00000000
00100000
00000000
00000000
00000000
,
01000000
00100000
00010000
00000000
00001000
00010000
00100000
00000000
,
01000000
00100000
00010000
00001000
00010000
00200000
01000000
00000000
,
10300000
01000000
00010000
00000000
00001000
00010000
01000000
00000000
,
10000000
01000000
00010000
00001000
00000100
00000020
00000001
00000000
,
00001030
00000010
00000001
00000000
00000010
00001000
00010000
00000000
,
00001000
00000010
00000001
00000010
00001000
00020000
01000000
00000000
,
00130000
01000000
00010000
00000000
00001000
00010000
01000000
00000000
,
00100000
01000000
00010000
00001000
00000100
00000000
00001001
00000000
;

//---------------dance-single - ----------------
#NOTES:
     dance-single:
     :
     Medium:
     10:
     0.527,0.441,0.299,0.262,0.000,335.000,32.000,28.000,0.000,0.000,0.000,0.527,0.441,0.299,0.262,0.000,335.000,32.000,28.000,0.000,0.000,0.000:
0000
0000
0000
0000
,
0000
0000
0000
0000
,
0000
0000
0000
0000
,
1000
0100
0010
0000
0010
0200
0300
0000
,
0001
0100
0010
0000
0010
0200
0300
0000
,
1000
0010
0100
0000
0001
0020
0030
0000
,
0001
0010
0100
0000
1000
0020
0030
0000
,
1000
0100
0010
0000
0010
0100
0000
0000
,
0010
0100
1000
0001
,
0001
0100
0010
0000
0010
0100
0001
0000
,
0010
0100
0001
1000
,
1000
0010
0100
0000
0001
0010
0000
0000
,
0010
1000
0001
0100
,
1000
0100
0010
0000
0001
0100
0010
0000
,
0100
0100
0100
0010
,
2002
0000
3003
0100
,
0010
1000
0100
0000
0010
0000
0001
0000
,
1000
0001
0001
0100
,
0010
1000
0100
0000
1000
0000
0001
1000
,
0001
0000
0100
0000
0010
0000
1000
0001
,
0200
0000
0000
0310
2000
0000
0000
3010
,
0200
0000
0000
0301
0020
0000
0000
0130
,
2000
0000
3001
0010
,
2002
0000
3003
0010
,
0100
0001
0010
0000
0100
0000
1000
0001
,
1000
0000
0001
0000
1000
0000
0001
0100
,
0010
0100
0010
0000
0010
0000
1000
0001
,
1000
0000
0010
0000
0100
0000
0001
1000
,
0020
0000
0000
0130
0002
0000
0000
0103
,
0020
0000
0000
1030
0200
0000
0000
0310
,
0002
0000
1003
0010
,
0011
0000
0000
1001
0000
0000
1100
0000
,
0000
1000
0100
0000
0100
0010
0001
0000
,
0011
0000
0000
1001
0000
0000
0101
0000
,
0000
0001
0100
0000
0100
0010
1000
0000
,
1010
0000
0000
1001
0000
0000
0101
0000
,
0000
0000
1000
0000
0001
1000
0001
0000
,
0101
0000
0000
1001
0000
0000
2020
0000
,
0000
0000
3030
0000
1000
0100
0010
0000
,
0110
0000
0000
1001
0000
0000
0110
0000
,
0000
1000
0001
0000
0001
0100
1000
0000
,
0110
0000
0000
1001
0000
0000
0110
0000
,
0000
0010
0100
0000
1000
0100
0001
0000
,
0110
0000
0000
1001
0000
0000
0110
0000
,
0000
0000
0010
0000
1000
0010
0001
0000
,
0011
0000
0000
1010
0000
0000
2002
0000
,
0000
0000
0000
0000
0000
0000
0000
0000
0000
0000
0000
0000
0000
0000
0000
0000
0000
0000
0000
0000
0000
0000
0000
0000
0000
0000
0000
0000
0000
0000
0000
0000
0000
0000
0000
0000
0000
0000
0000
0000
0000
0000
0000
0000
0000
0000
0000
0000
0000
3003
0000
0000
0000
0000
0000
0000
0000
0000
0000
0000
0000
0000
0000
0000
,
0010
0100
0010
0001
,
0100
0000
1000
0000
0001
0100
0010
0000
,
1000
0010
0001
0010
,
0100
0000
0001
0000
0010
0100
1000
0000
,
0001
1000
0001
0000
0010
0000
0100
0000
,
1000
0001
1000
0000
0010
0000
0001
0000
,
1000
0001
1000
0000
0010
0100
0010
0100
,
0020
0100
0130
0010
,
2100
0001
3010
1100
,
0010
0000
0001
0000
0100
0010
0001
0000
,
0010
0000
1000
0100
0010
0100
0010
0000
,
0001
0000
0100
0000
0010
1000
0100
0010
,
0100
0000
1000
0000
0001
0100
0001
0000
,
1000
0000
0010
0000
0010
0100
0001
0000
,
0010
0000
0010
0100
0000
0010
0200
0000
,
0000
0000
0000
1300
0001
0000
0010
0000
,
0102
1000
0013
2001
,
0000
0000
3100
0000
0010
0001
0100
0000
,
0010
0000
1000
0100
1000
0100
0010
0000
,
0001
0000
0100
0010
1000
0010
0100
0000
,
0001
0000
0100
0000
0010
1000
0001
0000
,
0100
0010
1000
0100
,
0010
0000
0010
0100
0000
0010
0200
0000
,
0000
0000
0000
1300
0001
0000
0010
0000
,
0001
0000
0100
0000
1000
0100
0001
0000
,
0001
0000
0010
0000
1000
0010
0001
0000
,
1000
0000
0100
0000
0001
0100
1000
0000
,
1000
0000
0010
0000
0001
0010
1000
0000
,
0001
0000
0100
0000
1000
0100
0001
0000
,
0001
0000
0010
0000
1000
0010
0001
0000
,
1000
0000
0100
0000
0001
0100
1000
0000
,
1000
0010
0101
1001
;

//---------------dance-single - ----------------
#NOTES:
     dance-single:
     :
     Easy:
     7:
     0.272,0.294,0.019,0.206,0.000,180.000,2.000,22.000,0.000,0.000,0.000,0.272,0.294,0.019,0.206,0.000,180.000,2.000,22.000,0.000,0.000,0.000:
0000
0000
0000
0000
,
0000
0000
0000
0000
,
0000
0000
0000
0000
,
1000
0001
0200
0300
,
0001
1000
0200
0300
,
0001
0100
0020
0030
,
0001
0100
0020
0030
,
1000
0000
0001
0000
,
1000
0100
0010
0000
,
0001
0000
0100
0000
,
0010
0100
0001
0000
,
1000
0100
1000
0000
,
0001
0100
0001
0000
,
1000
0001
0100
0010
,
0100
0000
0000
0000
,
0020
0000
0030
0000
,
0010
0100
0010
0000
,
1000
0000
0100
0000
,
0010
0100
1000
0000
,
0001
0000
0000
0000
,
0200
0300
0020
0030
,
0200
0300
0020
0030
,
0200
0000
0300
0000
,
0020
0000
0030
0000
,
1000
0001
0100
0000
,
0001
0000
1000
0000
,
0001
0010
0100
0000
,
1000
0000
0000
0000
,
0002
0003
2000
3000
,
0002
0003
2000
3000
,
0002
0000
0003
0000
,
0010
0000
0000
0010
0000
0000
0010
0000
,
0000
0000
0100
0100
,
1000
0000
0000
1000
0000
0000
1000
0000
,
0000
0000
0001
0001
,
0100
0000
0000
0100
0000
0000
0100
0000
,
0000
0000
1000
1000
,
0001
0000
0000
0001
0000
0000
0001
0000
,
0000
0000
0100
0000
,
0010
0000
0000
0100
0000
0000
0010
0000
,
0000
0000
1000
0100
,
1000
0000
0000
0001
0000
0000
1000
0000
,
0000
0000
0100
0001
,
1000
0000
0000
0100
0000
0000
0010
0000
,
0000
0000
0001
0100
,
0001
0000
0000
1000
0000
0000
0020
0000
,
0000
0000
0000
0030
,
0100
0000
0100
0000
,
0001
1000
0001
0010
,
0100
0000
0100
0000
,
1000
0001
0100
0010
,
1000
0000
0100
0000
,
0001
1000
0010
0100
,
0001
0000
0100
0000
,
0010
0010
0010
0000
,
1000
0100
0010
0100
,
0000
0001
0100
0001
,
0010
0100
1000
0001
,
0000
0000
0010
0100
,
0010
1000
0100
0010
,
0000
0001
0100
0001
,
0010
0000
0000
0010
0000
0000
0020
0000
,
0000
0000
0030
0000
,
0001
0010
0100
0010
,
0000
0001
1000
0001
,
0100
0010
0100
0001
,
0000
0000
1000
0010
,
1000
0100
0010
0001
,
0000
0100
0001
0100
,
0010
0000
0000
0010
0000
0000
0020
0000
,
0000
0000
0030
0000
,
2002
0000
0000
0000
,
0000
0000
0000
3003
,
0100
0000
0001
0000
,
1000
0000
0010
0000
,
0200
0000
0000
0000
,
0000
0000
0000
0300
,
0001
0000
1000
0000
,
0001
0000
0010
0110
;

//---------------dance-single - ----------------
#NOTES:
     dance-single:
     :
     Beginner:
     3:
     0.123,0.147,0.019,0.000,0.000,90.000,2.000,0.000,0.000,0.000,0.000,0.123,0.147,0.019,0.000,0.000,90.000,2.000,0.000,0.000,0.000,0.000:
0000
0000
0000
0000
,
0000
0000
0000
0000
,
0000
0000
0000
0000
,
0000
0000
1000
0000
,
0000
0000
0001
0000
,
0000
0000
1000
0000
,
0000
0000
0001
0000
,
0000
0000
1000
0000
,
0000
0000
0000
0000
,
0001
0000
0001
0000
,
0000
0000
0000
0000
,
1000
0000
1000
0000
,
0000
0000
0000
0000
,
0001
0000
0001
0000
,
0001
0000
0000
0000
,
0010
0000
0000
0000
,
0100
0000
0100
0000
,
0100
0000
0000
0000
,
0001
0000
0001
0000
,
0001
0000
0000
0000
,
1000
0000
0001
0000
,
1000
0000
0001
0000
,
1000
0000
0000
0000
,
0010
0000
0000
0000
,
0100
0000
0100
0000
,
0100
0000
0000
0000
,
1000
0000
1000
0000
,
1000
0000
0000
0000
,
0001
0000
1000
0000
,
0001
0000
1000
0000
,
0001
0000
0000
0000
,
0010
0000
0000
0010
,
0000
0000
0000
0000
,
1000
0000
0000
1000
,
0000
0000
0000
0000
,
0100
0000
0000
0100
,
0000
0000
0000
0000
,
0001
0000
0000
0001
,
0000
0000
0000
0000
,
0010
0000
0000
0100
,
0000
0000
0000
0000
,
1000
0000
0000
0100
,
0000
0000
0000
0000
,
0001
0000
0000
0100
,
0000
0000
0000
0000
,
0001
0000
0000
0010
,
0000
0000
0000
0000
,
0000
0000
0100
0000
,
0000
0000
0001
0000
,
0000
0000
0100
0000
,
0000
0000
1000
0000
,
0000
0000
0100
0000
,
0000
0000
0001
0000
,
0000
0000
0100
0000
,
0100
0000
0000
0000
,
1000
0000
1000
0000
,
1000
0000
0000
0000
,
0001
0000
1000
0000
,
0001
0000
0000
0000
,
0001
0000
0001
0000
,
0001
0000
0000
0000
,
0100
0000
0000
0100
,
0000
0000
0000
0000
,
0001
0000
0001
0000
,
0001
0000
0000
0000
,
1000
0000
0001
0000
,
1000
0000
0000
0000
,
0100
0000
0100
0000
,
0100
0000
0000
0000
,
0010
0000
0000
0010
,
0000
0000
0000
0000
,
1001
0000
0000
0000
,
0000
0000
0000
0000
,
0100
0000
0000
0000
,
0010
0000
0000
0000
,
1001
0000
0000
0000
,
0000
0000
0000
0000
,
0100
0000
0000
0000
,
0010
0000
0010
0010
;

//---------------dance-double - ----------------
#NOTES:
     dance-double:
     :
     Easy:
     7:
     0.230,0.257,0.009,0.140,0.000,156.000,1.000,15.000,0.000,0.000,0.000,0.230,0.257,0.009,0.140,0.000,156.000,1.000,15.000,0.000,0.000,0.000:
00000000
00000000
00000000
00000000
,
00000000
00000000
00000000
00000000
,
00000000
00000000
00000000
00000000
,
00100000
00000000
00020000
00030000
,
01000000
00000000
00020000
00030000
,
00001000
00000000
00000200
00000300
,
00000010
00000000
00000200
00000300
,
00000001
00000000
00000001
00000000
,
00000100
00000000
00000010
00000000
,
00000100
00000000
00001000
00000000
,
00010000
00001000
00000100
00000000
,
00001000
00000000
00010000
00000000
,
00100000
00000000
01000000
00000000
,
00010000
00100000
01000000
10000000
,
01000000
00000000
00000000
00000000
,
00020000
00000000
00030000
00000000
,
00001000
00010000
00001000
00000000
,
00000200
00000000
00000300
00000000
,
00000001
00001000
00000001
00000000
,
00000200
00000000
00000300
00000000
,
00000010
00000000
00001000
00000000
,
00010000
00000000
00100000
00000000
,
00010000
00000000
00000000
00000000
,
00002000
00000000
00003000
00000000
,
00010000
00001000
00010000
00000000
,
02000000
00000000
03000000
00000000
,
00100000
01000000
00100000
00000000
,
20000000
00000000
30000000
00000000
,
01000000
00000000
00010000
00000000
,
00001000
00000000
00000100
00000000
,
00001000
00000000
00000000
00000000
,
00100000
00000000
00000000
00100000
00000000
00000000
00100000
00000000
,
00000000
00000000
00010000
00000000
,
00001000
00000000
00000000
00001000
00000000
00000000
00001000
00000000
,
00000000
00000000
00010000
00000000
,
00000010
00000000
00000000
00000010
00000000
00000000
00000010
00000000
,
00000000
00000000
00001000
00000000
,
00010000
00000000
00000000
00010000
00000000
00000000
00010000
00000000
,
00000000
00000000
01000000
00000000
,
10000000
00000000
00000000
01000000
00000000
00000000
00010000
00000000
,
00000000
00000000
00001000
00000000
,
00001000
00000000
00000000
00000100
00000000
00000000
00000001
00000000
,
00000000
00000000
00001000
00000000
,
00000001
00000000
00000000
00000010
00000000
00000000
00001000
00000000
,
00000000
00000000
00010000
00000000
,
00010000
00000000
00000000
00100000
00000000
00000000
20000000
00000000
,
00000000
00000000
00000000
30000000
,
00100000
00000000
00100000
00000000
,
01000000
00000000
00100000
01000000
,
00010000
00000000
00001000
00000000
,
00010000
00000000
00010000
00000100
,
00001000
00000000
00001000
00000000
,
00000010
00000000
00000100
00000001
,
00000100
00000000
00000010
00000000
,
00000100
00000100
00000100
00000000
,
00000001
00000000
00000001
00000100
,
00000000
00000100
00001000
00000100
,
00000010
00000000
00000100
00001000
,
00000000
00000000
00010000
00001000
,
00010000
00000000
00010000
00100000
,
00000000
00100000
01000000
00100000
,
01000000
00000000
00000000
01000000
00000000
00000000
02000000
00000000
,
00000000
00000000
03000000
00000000
,
10000000
00000000
10000000
00100000
,
00000000
01000000
00010000
01000000
,
00100000
00000000
00010000
00001000
,
00000000
00000000
00001000
00010000
,
00001000
00000000
00000100
00000010
,
00000000
00000010
00000100
00000010
,
00000100
00000000
00000000
00000100
00000000
00000000
00000200
00000000
,
00000000
00000000
00000300
00000000
,
00000020
00000000
00000000
00000000
,
00000000
00000000
00000000
00000030
,
00000010
00000000
00000100
00000000
,
00001000
00000000
00010000
00000000
,
00200000
00000000
00000000
00000000
,
00000000
00000000
00000000
00300000
,
01000000
00000000
00100000
00000000
,
00010000
00000000
00001000
00011000
;

//---------------dance-double - ----------------
#NOTES:
     dance-double:
     :
     Medium:
     10:
     0.514,0.441,0.271,0.271,0.000,327.000,29.000,29.000,0.000,0.000,0.000,0.514,0.441,0.271,0.271,0.000,327.000,29.000,29.000,0.000,0.000,0.000:
00000000
00000000
00000000
00000000
,
00000000
00000000
00000000
00000000
,
00000000
00000000
00000000
00000000
,
00010000
00100000
01000000
00000000
00100000
00020000
00030000
00000000
,
00001000
00000010
00000100
00000000
00000100
00002000
00003000
00000000
,
00010000
01000000
00100000
00000000
01000000
00020000
00030000
00000000
,
00001000
00000100
00000010
00000000
00000100
00002000
00003000
00000000
,
00010000
00100000
01000000
00000000
00100000
00000000
10000000
00000000
,
01000000
00010000
00001000
00100000
,
00010000
01000000
00100000
00000000
01000000
00000000
00010000
00000000
,
00100000
00010000
00001000
00000100
,
00000010
00001000
00000001
00000000
00000100
00000000
00000010
00000000
,
00001000
00000001
00000100
00001000
,
00010000
00001000
00100000
00001000
00010000
00000000
00011000
00000000
,
00001000
00000000
00100000
01000000
00100000
00000000
00010000
00000000
,
20020000
00000000
30030000
00100000
,
10000000
01000000
00010000
00000000
01000000
00000000
00100000
00000000
,
02000000
00000000
03000000
00010000
,
00001000
00010000
00000100
00000000
00001000
00000000
00000001
00000100
,
00001000
00000000
00000100
00000000
00000010
00000000
00000100
00000001
,
00000020
00000000
00000000
00000130
00002000
00000000
00000000
00003010
,
00020000
00000000
00000000
00031000
02000000
00000000
00000000
03010000
,
00200000
00000000
00310000
10000000
,
20020000
00000000
30030000
00100000
,
10000000
00100000
00010000
00000000
00100000
01000000
00100000
10000000
,
00010000
00100000
01000000
00010000
,
00001000
00010000
00000100
00010000
00000010
00000000
00001000
00000010
,
00000001
00000000
00000010
00000000
00000100
00000000
00000001
00000010
,
00000200
00000000
00000000
00000310
00002000
00000000
00000000
00013000
,
00002000
00000000
00000000
00103000
02000000
00000000
00000000
03010000
,
02000000
00000000
13000000
00010000
,
11000000
00000000
00000000
01010000
00000000
00000000
10010000
00000000
,
00000000
00100000
01000000
00000000
01000000
00100000
00010000
00000000
,
00110000
00000000
00000000
00101000
00000000
00000000
00011000
00000000
,
00000000
00001000
00000100
00000000
00000100
00000001
00000010
00000000
,
00000011
00000000
00000000
00001100
00000000
00000000
00001001
00000000
,
00000000
00000000
00000100
00000000
00000010
00000100
00001000
00000000
,
00001100
00000000
00000000
00000101
00000000
00000000
00002002
00000000
,
00000000
00000000
00003003
00000000
00000001
00000100
00001000
00000000
,
00011000
00000000
00000000
00101000
00000000
00000000
01010000
00000000
,
00000000
00010000
10000000
00000000
10000000
01000000
00100000
00000000
,
00110000
00000000
00000000
01010000
00000000
00000000
00101000
00000000
,
00000000
00001000
00010000
00000000
00010000
00001000
00000010
00000000
,
00001010
00000000
00000000
00000110
00000000
00000000
00000011
00000000
,
00000000
00000000
00000100
00000000
00000001
00000010
00000100
00000000
,
00001100
00000000
00000000
00010010
00000000
00000000
00022000
00000000
,
00000000
00000000
00000000
00033000
,
00001000
00010000
00100000
10000000
,
00100000
00000000
00010000
00000000
00001000
00010000
00001000
00000000
,
00010000
00001000
00000010
00000001
,
00000010
00000000
00001000
00000000
00010000
00001000
00010000
00000000
,
00001000
00010000
01000000
10000000
,
00100000
00000000
00010000
00000000
00001000
00010000
00001000
00000000
,
00010000
00001000
00000100
00000001
,
00000010
00001000
00000010
00000001
00000010
00000000
00000100
00000000
,
00002001
00000100
00003010
00010000
,
00000100
00000000
00010000
00000000
00001000
00010000
00000010
00000000
,
00000100
00000000
00001000
00010000
00001000
00100000
00010000
00000000
,
01000000
00000000
10000000
00000000
01000000
00100000
01000000
00000000
,
00010000
00100000
00001000
00020000
,
00001000
00000000
00030100
00000000
00001000
00000010
00000100
00000000
,
00001000
00000000
00010000
00001000
00000000
00001000
00200000
00000000
,
00000000
00000000
00000000
00310000
01000000
00000000
00010000
00000000
,
10020000
01000000
00130000
00001000
,
01000000
00000000
00001000
00000000
00010000
00001000
00100000
00000000
,
01000000
00000000
00010000
00001000
00010000
00000010
00001000
00000000
,
00000100
00000000
00000010
00000000
00000001
00000100
00000010
00000000
,
00001000
00000010
00000100
00002000
,
00010000
00000000
00103000
00000000
00010000
00100000
01000000
00000000
,
10000000
00000000
00010000
10000000
00000000
10000000
00020000
00000000
,
00000000
00000000
00000000
00130000
01000000
00000000
00010000
00000000
,
00001000
00010000
01000000
10000000
,
01000000
00000000
00100000
00000000
01000000
00010000
00001000
00000000
,
00010000
00001000
00000100
00000001
,
00000100
00000000
00000010
00000000
00000100
00001000
00010000
00000000
,
00001000
00010000
00100000
10000000
,
00100000
00000000
01000000
00000000
00100000
00010000
00001000
00000000
,
00010000
00001000
00000010
00000001
,
00000100
00000000
00001000
00000000
00010000
00100000
01000000
00000000
;

//---------------dance-single - ----------------
#NOTES:
     dance-single:
     :
     Challenge:
     16:
     0.934,0.886,0.747,0.355,0.341,582.000,80.000,38.000,0.000,0.000,0.000,0.934,0.886,0.747,0.355,0.341,582.000,80.000,38.000,0.000,0.000,0.000:
0000
0000
0000
0000
,
0000
0000
0000
0000
,
0000
0000
0000
0000
,
0011
0000
0000
0000
0000
0000
0000
0000
0001
0000
0000
0000
0000
0000
0000
0000
0100
0000
0000
0000
0000
0000
0000
0000
0010
0000
0000
0000
0000
0000
0000
0000
0002
0000
0000
0000
0000
0000
0000
0000
2000
0000
0000
0000
0000
0000
0000
0000
0000
3003
0000
0000
0000
0000
0000
0000
0000
0000
0000
0000
0000
0000
0000
0000
,
1010
0000
0000
0000
0000
0000
0000
0000
1000
0000
0000
0000
0000
0000
0000
0000
0100
0000
0000
0000
0000
0000
0000
0000
0010
0000
0000
0000
0000
0000
0000
0000
2000
0000
0000
0000
0000
0000
0000
0000
0002
0000
0000
0000
0000
0000
0000
0000
0000
3003
0000
0000
0000
0000
0000
0000
0000
0000
0000
0000
0000
0000
0000
0000
,
1100
0000
0000
0000
0000
0000
0000
0000
0100
0000
0000
0000
0000
0000
0000
0000
0001
0000
0000
0000
0000
0000
0000
0000
0010
0000
0000
0000
0000
0000
0000
0000
0200
0000
0000
0000
0000
0000
0000
0000
0020
0000
0000
0000
0000
0000
0000
0000
0000
0330
0000
0000
0000
0000
0000
0000
0000
0000
0000
0000
0000
0000
0000
0000
,
0101
0000
0000
0000
0000
0000
0000
0000
0100
0000
0000
0000
0000
0000
0000
0000
1000
0000
0000
0000
0000
0000
0000
0000
0010
0000
0000
0000
0000
0000
0000
0000
0200
0000
0000
0000
0000
0000
0000
0000
0020
0000
0000
0000
0000
0000
0000
0000
0000
0330
0000
0000
0000
0000
0000
0000
0000
0000
0000
0000
0000
0000
0000
0000
,
0001
0000
0010
0100
0010
0000
1000
0000
0100
0000
0001
0010
0100
0000
1000
0000
,
0010
0100
0001
1000
0100
0001
0010
0100
,
1000
0000
0010
0100
0010
0000
0001
0000
0100
0000
0010
1000
0100
0000
0010
0000
,
0001
0000
0100
0000
0010
0000
1000
0000
0010
0000
0001
0000
0100
0000
0010
1000
,
0001
0100
0001
0100
1000
0100
0001
0100
,
0011
0010
0100
0010
1010
0010
0100
0010
,
1000
0001
0010
0100
1000
0010
0100
0001
,
2002
0000
3003
0100
,
2010
0000
0000
0000
0010
0000
3001
0000
1000
0010
0100
0000
1000
0000
0000
0000
,
0010
0001
0100
0010
0200
0000
0300
0000
0010
1000
0100
0010
0200
0000
0300
0000
,
0201
0000
0000
0000
1000
0000
0301
0000
0010
0100
1000
0000
0100
0000
0000
0000
,
0010
0001
0100
1000
0200
0000
0300
0000
0010
1000
0100
0001
0200
0000
0300
0000
,
1002
0000
0000
0000
1000
0000
0013
0000
0100
0010
0001
0000
0110
0000
0000
0000
,
1001
0000
0011
0011
0011
0000
1010
1010
,
1010
0000
1100
1100
1100
0000
0101
0101
,
0101
0000
0000
0000
1000
0000
0001
0000
0100
1000
0010
0100
0002
0000
0000
0000
,
1003
0010
0100
0001
0010
0010
0001
0000
,
0010
1000
0100
0010
0200
0000
0300
0000
0010
0001
0100
0010
0200
0000
0300
0000
,
0001
1000
0010
0001
1000
0100
0100
0000
,
0001
1000
0010
0100
0020
0000
0000
0000
1030
0001
0010
0100
0020
0000
0000
0000
,
1030
0100
0010
0100
0010
0001
0010
0000
,
0011
0000
1100
1100
1001
0000
0101
0101
,
1001
0000
1010
1010
0110
0000
0011
0011
,
0110
0000
0000
0000
0010
0100
0001
1000
0100
0000
0010
0000
0100
0000
0000
0000
,
1000
0100
0110
0001
0100
0110
1000
0100
,
0110
0000
0001
0000
0010
0000
0100
0000
0010
1000
0100
1000
0100
0000
0001
0000
,
1000
0100
0011
0001
0100
1010
1000
0100
,
1001
0000
0010
0000
0001
0000
0100
0000
0010
1000
0001
0000
1000
0000
0100
0000
,
0001
1000
0000
0000
0100
0000
1000
0001
0000
0000
0100
0000
0001
1000
0000
0000
,
0000
0000
0001
0000
0100
0010
0100
0010
,
0110
0000
0011
1010
0000
1100
0202
0000
,
0000
0000
0303
0000
0001
0010
0100
1000
,
1010
0000
0001
1100
0000
0010
0101
0000
,
0010
0000
1000
0000
0001
0000
0010
0000
0100
0001
0010
0001
1000
0000
0100
0000
,
0011
0010
0100
1100
0000
1001
0101
0000
,
0010
0001
1000
0010
0100
0010
1000
0001
,
1010
0010
0001
0110
0100
1000
0102
0000
,
0000
0000
0000
0000
1003
0000
0000
0000
1000
0001
0100
0001
0100
0000
1000
0000
,
0101
0000
0010
1010
0000
0001
0220
0000
,
0000
0000
0000
0000
0000
0000
0000
0000
0000
0000
0000
0000
0000
0000
0000
0000
0000
0000
0000
0000
0000
0000
0000
0000
0000
0000
0000
0000
0000
0000
0000
0000
0000
0000
0000
0000
0000
0000
0000
0000
0000
0000
0000
0000
0000
0000
0000
0000
0000
0330
0000
0000
0000
0000
0000
0000
0000
0000
0000
0000
0000
0000
0000
0000
,
0010
1000
0001
0010
0100
0010
0001
1000
,
0010
0100
0001
0010
1000
0010
1000
0001
,
0010
0001
0010
0100
1000
0100
1000
0001
,
0100
0001
0100
0010
1000
0001
0010
0100
,
1000
0010
1000
0001
0100
1000
0100
0010
,
0100
0001
1000
0001
0010
0100
1000
0001
,
0010
1000
0001
0100
0010
0001
1000
0100
,
0001
0010
0100
1000
0010
0100
0001
1000
0100
0010
0100
0010
0001
0000
1000
0000
,
1001
0000
0100
0001
0100
0000
0001
0010
0100
0000
1000
0000
0001
0000
0000
0000
,
0110
0000
0001
0100
0010
0000
0000
0000
0001
0000
0100
1000
0100
0000
0010
0000
,
0101
0000
1000
0010
0100
0000
0010
0100
0001
0000
0100
0000
0110
0000
0000
0000
,
1001
0000
0010
1000
0100
0000
0010
0000
0001
0000
0100
0001
0010
0000
1000
0000
,
1100
0000
0100
0010
0001
0000
1000
0010
0100
0000
0001
0000
0101
0000
0000
0000
,
0011
0000
1000
0100
0010
0000
0001
0000
1000
0000
0100
0000
0101
0000
0000
0000
,
1000
0000
0010
0000
1000
0100
0001
0000
0000
0000
0010
0000
2002
0000
3003
0000
,
0010
0000
0000
0000
1000
0000
0001
0000
0100
0001
1000
0001
0100
0000
0000
0000
,
0001
0000
1000
0001
0100
0000
0010
0100
1000
0000
0001
0000
0020
0000
0000
0000
,
0031
0000
0100
0010
0100
0000
0000
0000
1000
0000
0010
0200
0001
0000
0301
0000
,
0010
0000
1000
0100
0010
0000
0100
0010
0001
0000
1000
0000
1200
0000
0000
0000
,
0310
0000
0100
0001
1000
0000
0100
0000
0010
0000
0001
0010
0100
0000
1000
0000
,
0010
0000
0100
0010
0001
0000
1000
0001
0010
0000
0100
0000
2002
0000
3003
0000
,
0010
0000
0001
1000
0010
0000
0100
0000
0010
0000
1000
0100
0010
0000
0100
0000
,
0101
0000
1000
0000
0010
0100
0001
0000
0000
0000
0010
0000
0220
0000
0330
0000
,
0010
0000
0100
0000
0001
0000
1000
0000
0010
0100
0001
1000
0100
0000
0000
0000
,
0010
0100
0001
0010
0100
1000
0010
0100
,
0001
0010
0100
0010
0100
1000
0001
0000
,
0010
0001
0100
0010
1000
0010
0100
0010
,
1000
0100
0010
0001
0100
0010
1000
0000
,
0001
0100
1000
0100
0010
0001
0100
0010
,
1000
0010
0001
0010
0100
1000
0010
0000
,
1010
0010
0101
0000
0011
0010
1100
0000
,
0001
0010
1000
0010
0100
0000
2002
0000
,
3003
0000
0000
0000
;

//---------------dance-double - ----------------
#NOTES:
     dance-double:
     :
     Challenge:
     16:
     0.842,0.920,0.439,0.196,0.336,563.000,47.000,21.000,0.000,0.000,0.000,0.842,0.920,0.439,0.196,0.336,563.000,47.000,21.000,0.000,0.000,0.000: // measure 0
00000000
00000000
00000000
00000000
,  // measure 1
00000000
00000000
00000000
00000000
,  // measure 2
00000000
00000000
00000000
00000000
,  // measure 3
00001000
00000000
00000000
00000000
00000000
00000000
00000000
00000000
00010000
00000000
00000000
00000000
00000000
00000000
00000000
00000000
01000000
00000000
00000000
00000000
00000000
00000000
00000000
00000000
10000000
00000000
00000000
00000000
00000000
00000000
00000000
00000000
00100000
00000000
00000000
00000000
00000000
00000000
00000000
00000000
00020000
00000000
00000000
00000000
00000000
00000000
00000000
00000000
00000000
00030000
00000000
00000000
00000000
00000000
00000000
00000000
00000000
00000000
00000000
00000000
00000000
00000000
00000000
00000000
,  // measure 4
00010000
00000000
00000000
00000000
00000000
00000000
00000000
00000000
00001000
00000000
00000000
00000000
00000000
00000000
00000000
00000000
00000100
00000000
00000000
00000000
00000000
00000000
00000000
00000000
00000001
00000000
00000000
00000000
00000000
00000000
00000000
00000000
00000010
00000000
00000000
00000000
00000000
00000000
00000000
00000000
00002000
00000000
00000000
00000000
00000000
00000000
00000000
00000000
00000000
00003000
00000000
00000000
00000000
00000000
00000000
00000000
00000000
00000000
00000000
00000000
00000000
00000000
00000000
00000000
,  // measure 5
00010000
00000000
00000000
00000000
00000000
00000000
00000000
00000000
00100000
00000000
00000000
00000000
00000000
00000000
00000000
00000000
00001000
00000000
00000000
00000000
00000000
00000000
00000000
00000000
00010000
00000000
00000000
00000000
00000000
00000000
00000000
00000000
00000100
00000000
00000000
00000000
00000000
00000000
00000000
00000000
00002000
00000000
00000000
00000000
00000000
00000000
00000000
00000000
00000000
00003000
00000000
00000000
00000000
00000000
00000000
00000000
00000000
00000000
00000000
00000000
00000000
00000000
00000000
00000000
,  // measure 6
00001000
00000000
00000000
00000000
00000000
00000000
00000000
00000000
00000010
00000000
00000000
00000000
00000000
00000000
00000000
00000000
00010000
00000000
00000000
00000000
00000000
00000000
00000000
00000000
00001000
00000000
00000000
00000000
00000000
00000000
00000000
00000000
01000000
00000000
00000000
00000000
00000000
00000000
00000000
00000000
00020000
00000000
00000000
00000000
00000000
00000000
00000000
00000000
00000000
00030000
00000000
00000000
00000000
00000000
00000000
00000000
00000000
00000000
00000000
00000000
00000000
00000000
00000000
00000000
,  // measure 7
10000000
00000000
00100000
01000000
00100000
00000000
00010000
00000000
00001000
00000000
00010000
00000010
00010000
00000000
00001000
00000000
,  // measure 8
00000100
00000001
00000100
00000010
00010000
00000100
00001100
00000000
,  // measure 9
00001000
00000000
00000100
00010000
00000100
00000000
00001000
00000000
00000010
00000000
00010000
00001000
00000100
00000000
00000001
00000000
,  // measure 10
00000010
00000100
00010000
00001000
00100000
01000000
21000000
00000000
,  // measure 11
30010000
00100000
00010000
01000000
10000000
00010000
00100000
00001000
,  // measure 12
00000100
00000001
00000010
00000100
00001000
00010000
00100000
01000000
,  // measure 13
10000000
01000000
00100000
00010000
00001000
00000100
00000010
00000001
,  // measure 14
00002002
00000000
00003003
00011000
,  // measure 15
10010000
00000000
00000000
00000000
01000000
00000000
00010000
00000000
01000000
00100000
00010000
00000000
00001000
00000000
00000000
00000000
,  // measure 16
00100000
00010000
01000000
00100000
01000000
00000000
00000000
00000000
00000010
00001000
00000100
00000010
00000100
00000000
00000000
00000000
,  // measure 17
00000101
00000000
00000000
00000000
00001000
00000000
00000100
00000000
00010000
00001000
00000100
00000000
00000001
00000000
00000000
00000000
,  // measure 18
00000100
00010000
00001000
00010000
00000100
00000000
00000000
00000000
00010000
00000010
00000100
00000010
00010000
00000000
00000000
00000000
,  // measure 19
01001000
00000000
00000000
00000000
00100000
00000000
00010000
00000000
00001000
00000010
00010000
00000000
00101000
00000000
00000000
00000000
,  // measure 20
00011000
00000000
00101000
00100000
00011000
00000000
00010010
00000010
,  // measure 21
00011000
00000000
01001000
01000000
00011000
00000000
00010100
00000100
,  // measure 22
00011000
00000000
00000000
00000000
00100000
00000000
10000000
00000000
01000000
00010000
01000000
00010000
00100000
00000000
00000000
00000000
,  // measure 23
00010000
00001000
00001000
00001000
00010000
00001000
00001000
00000000
,  // measure 24
00010000
00000010
00001000
00000010
00010000
00000000
00000000
00000000
00001000
00100000
00010000
00100000
00001000
00000000
00000000
00000000
,  // measure 25
00000100
00010000
00010000
00010000
00000100
00010000
00010000
00000000
,  // measure 26
00000001
00000010
00000100
00001000
00010000
00000000
00000000
00000000
10000000
01000000
00100000
00010000
00001000
00000000
00000000
00000000
,  // measure 27
00100000
10000000
10000000
10000000
00100000
10000000
10000000
00000000
,  // measure 28
01010000
00000000
00010000
00011000
00010010
00000000
00001000
00011000
,  // measure 29
01001000
00000000
00010000
00011000
00010100
00000000
00001000
00011000
,  // measure 30
00101000
00000000
00000000
00000000
10000000
01000000
10000000
01000000
00100000
00000000
00010000
00000000
01000000
00000000
00000000
00000000
,  // measure 31
00010000
00010000
01000000
10000000
10000000
00100000
00010000
00001000
,  // measure 32
00001000
00000000
00000100
00000000
00000001
00000000
00000001
00000000
00000010
00001000
00000100
00001000
00000010
00000000
00001000
00000000
,  // measure 33
00010000
00010000
10000000
00100000
00100000
01000000
00010000
00010000
,  // measure 34
00100000
00000000
00001000
00000000
00010000
00000000
00100000
00000000
00001000
00100000
00010000
00000000
00001000
00000000
00000010
00000000
,  // measure 35
00011000
00000000
00000010
00001000
00000000
00100000
00002000
00000000
,  // measure 36
00000000
00000000
00010000
00000000
00000100
00000100
00000100
00003100
,  // measure 37
00001100
00000000
00011000
00010100
00000000
00011000
02002000
00000000
,  // measure 38
00000000
00000000
03000000
00000000
00100000
00100000
00100000
00103000
,  // measure 39
00100000
00000000
00001000
00010000
00000000
01000000
10000000
00000000
,  // measure 40
00100000
00000000
00000000
00000000
00100000
00000000
10000000
00000000
01000000
00100000
01000000
00100000
01000000
00000000
00010000
00000000
,  // measure 41
00100000
00000000
00001000
00010000
00000000
00000010
00001000
00000000
,  // measure 42
00000010
00001000
00000001
00000010
00000100
00000010
00001000
00000001
,  // measure 43
00000011
00000010
00001000
00010000
00001000
00000010
00000002
00000000
,  // measure 44
00000003
00000000
00000000
00000000
00010000
00000000
00000000
00000000
01000000
00010000
01000000
00010000
01000000
00000000
00010000
00000000
,  // measure 45
11000000
00000000
00000000
00011000
00000000
00000000
00000022
00000000
,  // measure 46
00000000
00000000
00000000
00000000
00000000
00000000
00000000
00000000
00000000
00000000
00000000
00000000
00000000
00000000
00000000
00000000
00000000
00000000
00000000
00000000
00000000
00000000
00000000
00000000
00000000
00000000
00000000
00000000
00000000
00000000
00000000
00000000
00000000
00000000
00000000
00000000
00000000
00000000
00000000
00000000
00000000
00000000
00000000
00000000
00000000
00000000
00000000
00000000
00000000
00000033
00000000
00000000
00000000
00000000
00000000
00000000
00000000
00000000
00000000
00000000
00000000
00000000
00000000
00000000
,  // measure 47
00000010
00001000
00000100
00010000
00000010
00000100
00000001
00000010
,  // measure 48
00001000
00010000
00001000
00000010
00000100
00010000
00001000
00010000
,  // measure 49
00001000
01000000
00010000
01000000
10000000
01000000
00010000
00100000
,  // measure 50
10000000
00010000
01000000
00100000
10000000
00010000
00100000
01000000
,  // measure 51
10000000
00100000
00010000
00100000
00001000
00010000
00000010
00001000
,  // measure 52
00000100
00000010
00000001
00000010
00010000
00001000
00000100
00000001
,  // measure 53
00000010
00001000
00010000
01000000
10000000
00100000
01000000
10000000
,  // measure 54
00100000
10000000
00100000
10000000
00010000
01000000
00010000
01000000
00100000
00010000
10000000
01000000
00100000
00000000
00001000
00000000
,  // measure 55
00011000
00000000
00001000
00010000
00100000
00000000
00010000
00100000
01000000
00000000
10000000
00000000
11000000
00000000
00000000
00000000
,  // measure 56
01000000
00000000
00000000
02000000
10000000
00000000
00000000
00000000
03010000
00000000
00100000
10000000
00100000
00000000
00000000
00000000
,  // measure 57
10100000
00000000
00010000
00100000
01000000
00000000
00100000
00002000
00010000
00000000
00013000
00000000
00011000
00000000
00000000
00000000
,  // measure 58
00010000
00000000
00000000
00010000
00001000
00000000
00100000
00001000
00010000
00000000
01000000
00010000
00100000
00000000
10000000
00000000
,  // measure 59
11000000
00000000
01000000
00010000
10000000
00000000
00100000
01000000
00010000
00000000
00100000
00000000
00101000
00000000
00000000
00000000
,  // measure 60
00010010
00000000
00000000
00010000
00001000
00000000
00000000
00001000
00010000
00000000
00000000
00010000
00100000
00000000
00000000
00100000
,  // measure 61
10000000
00000000
00000000
00000000
01000000
00010000
00002000
00000000
00000000
00000000
00010000
00000000
00020000
00000000
00003000
00000000
,  // measure 62
00130000
00000000
00000000
00000000
10000000
00000000
00010000
00000000
00100000
00001000
00100000
00001000
00010000
00000000
00000000
00000000
,  // measure 63
10000000
00000000
00100000
00010000
00001000
00000000
00010000
00001000
00010000
00000000
00000010
00000000
00002000
00000000
00000000
00000000
,  // measure 64
00003001
00000000
00001000
00000100
00001000
00000000
00000000
00000000
00010000
00000000
00100000
00010000
01000000
00000000
10000000
00000000
,  // measure 65
01000000
00000000
00100000
10000000
01000000
00000000
00100000
00010000
02000000
00000000
00010000
00000000
03010000
00000000
00000000
00000000
,  // measure 66
00001000
00000000
00010000
00100000
00010000
00000000
00001000
00000000
00000100
00000000
00010000
00001000
00010000
00000000
01000000
00000000
,  // measure 67
00010000
00000000
00100000
00001000
00100000
00000000
00010000
00001000
00010000
00000000
00000010
00000000
00000200
00000000
00000000
00000000
,  // measure 68
00001300
00000000
00000000
00010000
00100000
00000000
00000000
00000000
10000000
00000000
00000000
01000000
00100000
00000000
00010000
00000000
,  // measure 69
10000000
00000000
00100000
01010000
00000000
00001000
00002000
00000000
,  // measure 70
01003000
00000000
00010000
00000000
10000000
00000000
00100000
00000000
01000000
00010000
00100000
01000000
10000000
00000000
00000000
00000000
,  // measure 71
00100000
10000000
01000000
10000000
00010000
00100000
01000000
00000000
,  // measure 72
00010000
00100000
00001000
00010000
00001000
00000010
00000100
00000000
,  // measure 73
00000001
00000010
00001000
00010000
00001000
00100000
00010000
00000000
,  // measure 74
00010000
01000000
00100000
10000000
01000000
00100000
01000000
00000000
,  // measure 75
00010000
00100000
00010000
01000000
00100000
10000000
00100000
00010000
,  // measure 76
00000100
00001000
00000100
00000001
00000010
00000100
00001000
00000000
,  // measure 77
00011000
00001000
00000010
00000000
00011000
00010000
00100000
00000000
,  // measure 78
10000000
01000000
00010000
00001000
00000010
00000001
00001001
00000000
;
