#TITLE:future gazer;
#SUBTITLE:;
#ARTIST:fripSide;
#TITLETRANSLIT:;
#SUBTITLETRANSLIT:;
#ARTISTTRANSLIT:;
#GENRE:;
#CREDIT:;
#BANNER:future gazer.png;
#BACKGROUND:future gazer-bg.png;
#LYRICSPATH:;
#CDTITLE:./CDTitles/DanceDanceRevolution X3 VS 2ndMIX.png;
#MUSIC:future gazer.mp3;
#OFFSET:1.205;
#SAMPLESTART:14.200;
#SAMPLELENGTH:15.000;
#LASTBEATHINT:0.472;
#SELECTABLE:YES;
#BPMS:0.000=138.000
;
#STOPS:
;
#BGCHANGES:;
#KEYSOUNDS:;
#ATTACKS:;

//---------------dance-single - ----------------
#NOTES:
     dance-single:
     :
     Beginner:
     2:
     0.105,0.161,0.020,0.020,0.000,71.000,2.000,2.000,0.000,0.000,0.000,0.105,0.161,0.020,0.020,0.000,71.000,2.000,2.000,0.000,0.000,0.000:
0000
0000
0000
0000
,
0000
0000
0000
0000
,
0000
0000
0000
0000
,
0000
0000
0000
0000
,
0000
0000
0000
0000
,
0001
0000
0000
0000
,
1000
0000
0000
0000
,
0001
0000
0000
0000
,
1000
0000
0000
0000
,
0010
0000
0010
0000
,
0010
0000
0000
0000
,
0001
0000
0001
0000
,
0001
0000
0000
0000
,
0010
0000
0010
0000
,
0010
0000
0000
0000
,
1000
0000
1000
0000
,
1000
0000
0000
0000
,
1001
0000
0000
0000
,
0000
0000
0000
0000
,
0001
0000
0000
0000
,
0010
0000
0000
0000
,
1000
0000
0000
0000
,
0100
0000
0000
0000
,
1000
0000
1000
0000
,
1000
0000
0000
0000
,
0001
0000
0001
0000
,
0001
0000
0000
0000
,
0100
0000
0100
0000
,
0100
0000
0000
0000
,
0010
0000
0010
0000
,
0010
0000
0000
0000
,
1000
0000
0000
0000
,
0001
0000
0000
0000
,
1000
0000
1000
0000
,
0001
0000
0001
0000
,
0000
0000
0000
0000
,
0010
0000
0010
0000
,
0010
0000
0000
0000
,
0001
0000
0001
0000
,
0100
0000
0000
0000
,
0010
0000
0010
0000
,
0010
0000
0000
0000
,
1000
0000
1000
0000
,
0100
0000
0000
0000
,
0010
0010
0010
0000
,
1000
1000
1000
0000
,
0001
0000
0100
0000
,
0001
0000
0000
0000
,
0010
0010
0010
0000
,
0001
0001
0001
0000
,
1000
0000
0100
0000
,
1000
0000
0000
0000
,
0010
0000
0000
0000
,
2002
0000
0000
0000
,
0000
0000
0000
0000
,
3003
0000
0000
0000
;

//---------------dance-single - ----------------
#NOTES:
     dance-single:
     :
     Easy:
     5:
     0.179,0.215,0.029,0.098,0.000,115.000,3.000,10.000,0.000,0.000,0.000,0.179,0.215,0.029,0.098,0.000,115.000,3.000,10.000,0.000,0.000,0.000:
0000
0000
0000
0000
,
0000
0000
0000
0000
,
0000
0000
0000
0000
,
0000
0000
0000
0000
,
0000
0000
0000
0000
,
0001
0000
0001
0000
,
1000
0000
1000
0000
,
0001
0000
1000
0000
,
2002
0000
0000
3003
,
0010
0010
0100
0000
,
0001
0001
1000
0000
,
0010
0000
0100
0000
,
0001
1000
0001
0000
,
0010
0010
0100
0000
,
1000
1000
0001
0000
,
0100
0000
0010
0000
,
0100
0000
0001
1000
,
2002
0000
0000
0000
,
3003
0000
0000
0000
,
0002
0000
0003
0000
,
2000
0000
3000
0000
,
0020
0000
0030
0000
,
0200
0000
0300
0000
,
1000
0000
1000
1000
,
0100
0000
0010
0000
,
0001
0000
0001
0001
,
0100
0000
0000
0000
,
0100
0000
0001
0000
,
0010
0000
1000
0000
,
0100
0001
0100
0000
,
0100
1000
0100
0000
,
1000
0000
0100
0000
,
0001
0000
0010
0000
,
1000
1000
1000
0000
,
0001
0001
0001
0000
,
0000
0000
0000
0000
,
0010
0010
0100
0000
,
0001
0001
1000
0000
,
0010
0000
0100
0000
,
0001
1000
0001
0000
,
0010
0010
0100
0000
,
1000
1000
0001
0000
,
0100
0000
0010
0000
,
0100
0000
0001
1000
,
0001
0001
0100
0000
,
1000
1000
0100
0000
,
0001
0001
1000
1000
,
0001
0100
0001
0000
,
0010
0010
1000
0000
,
0010
0010
0001
0000
,
1000
1000
0001
0001
,
1000
0001
1000
0001
,
0010
0000
0100
0000
,
2002
0000
0000
0000
,
0000
0000
0000
0000
,
3003
0000
0000
0000
;

//---------------dance-single - ----------------
#NOTES:
     dance-single:
     :
     Medium:
     7:
     0.264,0.311,0.117,0.254,0.000,151.000,12.000,26.000,0.000,0.000,0.000,0.264,0.311,0.117,0.254,0.000,151.000,12.000,26.000,0.000,0.000,0.000:
0000
0000
0000
0000
,
0000
0000
0000
0000
,
0000
0000
0000
0000
,
0000
0000
0000
0000
,
0000
0000
0000
0000
,
1000
0010
0100
0000
,
0001
0010
0100
0000
,
1000
0010
0100
0010
,
1000
0001
1001
0000
,
0010
0000
0001
1000
0001
0000
0000
0000
,
0010
0000
1000
0001
1000
0000
0000
0000
,
0020
1000
0230
0001
,
0310
1000
0001
0000
,
0100
0000
0001
0010
0001
0000
0000
0000
,
0010
0000
1000
0100
1000
0000
0000
0000
,
0001
0010
0100
1000
,
0010
0000
0100
0000
0010
0100
0010
0000
,
2002
0000
0000
0000
,
0000
0000
3003
0000
,
0200
0000
0000
0300
,
0020
0000
0000
0030
,
0200
0000
0000
0300
,
1000
0001
1001
0000
,
0100
0100
0010
0100
,
0001
1000
0100
0000
,
0010
0010
0100
0010
,
1000
0001
0100
0000
,
2000
0000
0100
0010
,
3002
0100
0013
0000
,
0002
0000
0010
0100
,
2003
0010
3100
0000
,
0001
0100
0101
0000
,
1000
0100
1100
0000
,
0010
0000
0100
0000
,
0010
0110
2002
0000
,
3003
0000
0000
0000
,
0010
0000
1000
0001
1000
0000
0000
0000
,
0010
0000
0001
1000
0001
0000
0000
0000
,
0020
0001
0230
1000
,
0310
0001
1000
0000
,
0100
0000
1000
0010
1000
0000
0000
0000
,
0010
0000
0001
0100
0001
0000
0000
0000
,
1000
0010
0100
0001
,
0010
0000
0100
0000
0010
0100
0010
0000
,
0001
1002
0103
0000
,
0010
2001
3100
0000
,
0002
0010
2003
0010
,
3100
0000
0001
1000
0001
0000
0000
0000
,
1000
1020
0130
0000
,
0001
0021
0130
0000
,
2000
0100
3002
0100
,
0023
0000
0130
0000
0100
0010
0100
0000
,
2002
0000
0000
0000
,
3003
0000
0000
0000
;

//---------------dance-single - ----------------
#NOTES:
     dance-single:
     :
     Hard:
     10:
     0.387,0.403,0.205,0.225,0.005,233.000,21.000,23.000,0.000,0.000,0.000,0.387,0.403,0.205,0.225,0.005,233.000,21.000,23.000,0.000,0.000,0.000:
0000
0000
0000
0000
,
0000
0000
0000
0000
,
0000
0000
0000
0000
,
0000
0000
0000
0000
,
0000
0000
0000
0000
,
0002
0010
0103
0100
,
2000
0000
0010
0000
3100
0000
0100
0010
,
0100
0000
0000
0001
1000
0000
0000
0010
,
0100
0000
0000
0010
0000
0000
0010
0000
0100
0000
0000
0000
0000
0000
0000
0000
,
1001
0000
1000
0010
0100
0000
0010
0000
,
1100
0000
0001
0010
0100
0000
0010
0000
,
0001
1000
0010
0000
0100
0001
1000
0000
,
0001
0010
0100
0010
0001
0000
0000
0000
,
0110
0000
0100
1000
0010
0000
1000
0000
,
0101
0000
0010
0100
0001
0000
1000
0000
,
0001
1000
0100
0000
0010
0001
0100
0000
,
0010
1000
0100
0000
0010
0100
0010
0001
,
1000
0100
0010
0000
0001
0100
0010
0000
,
2002
0000
0000
3003
,
0200
0000
0010
0300
,
0010
0010
0010
1000
,
0002
0000
2003
0000
,
3001
0100
1001
0000
,
1000
0000
0010
0000
0100
0000
0001
1000
,
0010
0000
0100
0000
0010
0000
1000
0010
,
0100
0001
1000
0010
,
1000
0100
0010
0100
1000
0000
0000
0000
,
0002
0000
0100
0000
1003
0010
0100
0000
,
0010
0000
1000
0000
0001
0000
0100
0010
,
2000
0100
3020
0100
,
2030
0000
0100
0000
3001
0100
0010
0000
,
1002
0100
0013
0100
,
2001
0100
3010
0100
,
1020
0001
1000
0001
,
0130
0001
0100
1000
0100
0000
0010
0000
,
2002
0000
0000
3003
,
1001
0000
0001
0010
0100
0000
0010
0000
,
0101
0000
1000
0010
0100
0000
0010
0000
,
1000
0001
0010
0000
0100
1000
0001
0000
,
1000
0010
0100
0010
1000
0000
0000
0000
,
0110
0000
0100
0001
0010
0000
0001
0000
,
1100
0000
0010
0100
1000
0000
0001
0000
,
1000
0001
0100
0000
0010
1000
0100
0000
,
0010
0001
0100
0000
0010
0100
0010
1000
,
0001
0000
0100
0010
1000
0000
1002
0000
,
0013
0000
1000
0001
0100
0000
0120
0000
,
1030
0100
0010
0000
0001
1000
0010
0100
,
0001
1000
0100
0010
0001
0000
2001
0000
,
3100
0000
0010
0001
0100
0000
0201
0000
,
0310
0000
1000
0001
0010
0000
0120
0000
,
0031
0100
0010
0000
1000
0100
0010
0000
,
0001
0010
0100
1000
0010
0100
0001
1000
,
0100
0000
1001
0000
1000
0100
0010
0000
,
2002
0000
0000
0000
,
0000
0000
0000
0000
,
3003
0000
0000
0000
;

//---------------dance-single - ----------------
#NOTES:
     dance-single:
     :
     Challenge:
     9:
     0.277,0.323,0.235,0.098,0.010,164.000,24.000,10.000,160.000,0.000,0.000,0.277,0.323,0.235,0.098,0.010,164.000,24.000,10.000,160.000,0.000,0.000:
0000
0000
0000
0000
,
0000
0000
0000
0000
,
0000
0000
0000
0000
,
0000
0000
0000
0000
,
0000
0000
0000
0000
,
0001
0001
0001
0001
,
1000
1000
1000
1000
,
0010
0000
0100
0000
,
0001
1000
1001
0000
,
0010
MMMM
0100
0010
0100
0000
0000
0000
,
1000
MMMM
0001
1000
0001
0000
0000
0000
,
1000
1100
0001
0101
,
1100
0011
1001
0000
,
0010
MMMM
0100
0010
0100
0000
0000
0000
,
0001
MMMM
1000
0001
1000
0000
0000
0000
,
1000
1100
0001
0101
,
1000
MMMM
1010
0000
0001
MMMM
0011
0000
,
2002
0000
0000
3003
,
MMMM
0000
0000
MMMM
0000
0000
MMMM
0000
0000
MMMM
0000
0000
MMMM
0000
0000
0000
,
0020
0000
0000
0030
,
1000
0001
1000
MMMM
,
0200
0000
0000
0300
,
0010
0001
1000
MMMM
,
0010
0001
0100
1000
,
0010
0001
1000
MMMM
,
0010
1000
0100
0001
,
0010
1000
0001
MMMM
,
2000
0000
0000
0000
3001
MMMM
0100
0000
,
0010
0100
0010
1000
,
0002
0000
0000
0000
1003
MMMM
0100
0000
,
0010
1000
0100
0001
,
0010
0000
0100
MMMM
0110
0000
0000
0000
,
0001
0000
1000
MMMM
1001
0000
0000
0000
,
0010
1000
0100
0001
,
0010
0000
0100
MMMM
0010
0000
MMMM
0000
,
2002
0000
0000
3003
,
0010
MMMM
0100
0010
0100
0000
0000
0000
,
0001
MMMM
1000
0001
1000
0000
0000
0000
,
0001
0101
1000
1100
,
0101
1010
1001
0000
,
0010
MMMM
0100
0010
0100
0000
0000
0000
,
1000
MMMM
0001
1000
0001
0000
0000
0000
,
0001
0101
1000
1100
,
0001
MMMM
0011
0000
1000
MMMM
1010
0000
,
0001
0100
MMMM
1000
0010
0000
0000
0000
,
1000
0100
MMMM
0001
0010
0000
0000
0000
,
1000
MMMM
0100
0000
0001
MMMM
0010
0000
,
1000
0001
1000
0001
1000
0000
0000
0000
,
1000
0100
MMMM
0001
0010
0000
0000
0000
,
0001
0100
MMMM
1000
0010
0000
0000
0000
,
0001
MMMM
0100
0000
1000
MMMM
0010
0000
,
0001
MMMM
1000
0000
0010
MMMM
0100
0000
,
0001
MMMM
1000
MMMM
0001
MMMM
1000
0000
,
2002
0000
0000
0000
,
0000
0000
0000
0000
,
3003
0000
0000
0000
;

//---------------dance-double - ----------------
#NOTES:
     dance-double:
     :
     Easy:
     4:
     0.152,0.188,0.039,0.049,0.000,100.000,4.000,5.000,0.000,0.000,0.000,0.152,0.188,0.039,0.049,0.000,100.000,4.000,5.000,0.000,0.000,0.000:
00000000
00000000
00000000
00000000
,
00000000
00000000
00000000
00000000
,
00000000
00000000
00000000
00000000
,
00000000
00000000
00000000
00000000
,
00000000
00000000
00000000
00000000
,
00001000
00000000
00000000
00000000
,
00010000
00000000
00000000
00000000
,
01000000
00000000
00000000
00000000
,
00200000
00000000
00300000
00000000
,
10000000
00000000
10000000
00000000
,
01000000
00100000
01000000
00000000
,
00010000
00000000
00001000
00000000
,
00000100
00000010
00000100
00000000
,
00000001
00000000
00000001
00000000
,
00000010
00000100
00000010
00000000
,
00001000
00000000
00010000
00000000
,
00001000
00000000
00010000
00001000
,
00022000
00000000
00000000
00000000
,
00033000
00000000
00000000
00000000
,
01000000
00000000
00000000
00000000
,
00100000
00000000
00000000
00000000
,
10000000
00000000
00010000
00000000
,
10000000
00000000
00000000
00000000
,
00100000
00000000
00010000
00000000
,
00100000
00000000
00001000
00000000
,
00010000
00000000
00000100
00000000
,
00000010
00000000
00000000
00000000
,
00000001
00000000
00000100
00000000
,
00000001
00001000
00000001
00000000
,
00000100
00000000
00001000
00000000
,
00010000
00001000
00010000
00000000
,
00100000
00000000
10000000
00000000
,
01000000
00000000
00010000
00000000
,
00001000
00000000
00010000
00000000
,
00000010
00000000
00000000
00000000
,
00001001
00000000
00000000
00000000
,
00000001
00000000
00000001
00000000
,
00000100
00000010
00000100
00000000
,
00001000
00000000
00010000
00000000
,
01000000
00100000
01000000
00000000
,
10000000
00000000
10000000
00000000
,
00100000
01000000
00100000
00000000
,
00010000
00000000
00001000
00000000
,
00010000
00000000
00001000
00010000
,
00000100
00000100
00001000
00000000
,
00000010
00000010
00000001
00000000
,
00001000
00000000
00000001
00000000
,
00000100
00001000
00010000
00000000
,
00100000
00100000
10000000
00000000
,
00010000
00010000
01000000
00000000
,
00010000
00000000
00100000
00000000
,
00001000
00000000
00010000
00001000
,
00011000
00000000
00000100
00000000
,
00002002
00000000
00000000
00000000
,
00000000
00000000
00000000
00000000
,
00003003
00000000
00000000
00000000
;

//---------------dance-double - ----------------
#NOTES:
     dance-double:
     :
     Medium:
     8:
     0.330,0.377,0.098,0.117,0.000,214.000,10.000,12.000,0.000,0.000,0.000,0.330,0.377,0.098,0.117,0.000,214.000,10.000,12.000,0.000,0.000,0.000:
00000000
00000000
00000000
00000000
,
00000000
00000000
00000000
00000000
,
00000000
00000000
00000000
00000000
,
00000000
00000000
00000000
00000000
,
00000000
00000000
00000000
00000000
,
10000000
00100000
01000000
00000000
,
00010000
00000100
00001000
00000000
,
00000010
00001000
00000001
00000000
,
00001000
00000100
00011000
00000000
,
00100000
00000000
00010000
01000000
00010000
00000000
00000000
00000000
,
00100000
00000000
10000000
01000000
10000000
00000000
00000000
00000000
,
00010000
00010000
00001000
00010000
,
00000100
00000000
00000010
00000100
00000010
00000000
00000000
00000000
,
00000001
00000000
00001000
00000010
00001000
00000000
00000000
00000000
,
00000100
00000000
00000001
00000010
00000001
00000000
00000000
00000000
,
00000010
00000100
00000010
00000000
00001000
00000001
00001000
00000000
,
00000100
00010000
00000100
00000000
00010000
00001000
00010000
00000000
,
00001000
00100000
00001000
00000000
01000000
00010000
01000000
00000000
,
20020000
00000000
00000000
30030000
,
00200000
00000000
00000000
00300000
,
02000000
00000000
00000000
03000000
,
00020000
00000000
00000000
00030000
,
00000200
00000000
00000010
00000310
,
00000001
00000000
00001000
00000000
00000001
00000100
00000001
00000000
,
00000100
00001000
00010000
00000000
,
00001000
00100000
00001000
00000000
01000000
00000000
00010000
00000000
,
10000000
00100000
01100000
00000000
,
10000000
00000000
00010000
00000000
10000000
00010000
10000000
00000000
,
00200000
10000000
01000000
00310000
,
00001000
00000000
00010000
00000000
00001000
00010000
00001000
00000000
,
00000020
00001000
00000100
00000031
,
00000001
00000000
00001000
00000000
00000001
00001000
00000001
00000000
,
00000100
00000000
00001000
00000000
00010000
00001000
00010000
00000000
,
00001000
00000000
01000000
00000000
00010000
10000000
00010000
00000000
,
00100000
00000000
00001000
00000000
00010000
00001000
00010000
00000000
,
00022000
00000000
00000000
00033000
,
00000010
00000000
00001000
00000100
00001000
00000000
00000001
00000000
,
00000010
00000000
00000001
00000100
00000001
00000000
00000100
00000000
,
00001000
00010000
00001000
00000000
00010000
00001000
00010000
00000000
,
01000000
00000000
00100000
01000000
00100000
00000000
00000000
00000000
,
10000000
00000000
00010000
00100000
00010000
00000000
10000000
00000000
,
01000000
00000000
10000000
00100000
10000000
00000000
00010000
00000000
,
00100000
01000000
00100000
00000000
00010000
10000000
00010000
00000000
,
01000000
00001000
01000000
00000000
00001000
00100000
00001000
00000000
,
00010000
00001000
00010000
00001000
00010000
00000000
00010100
00000000
,
00000100
00000010
00000100
00000010
00000100
00000000
00001100
00000000
,
00001000
00000100
00001000
00000000
00000001
00000100
00000001
00000000
,
00001000
00000001
00001000
00000001
00001000
00000000
00001010
00000000
,
00000010
00001000
00000010
00001000
00000010
00000000
00010010
00000000
,
00010000
00001000
00010000
00001000
00010000
00000000
01001000
00000000
,
01000000
00010000
01000000
00000000
00100000
10000000
00100000
00000000
,
10000000
00010000
10000000
00000000
01000000
00010000
01000000
00000000
,
00001000
00010000
00001000
00010000
00000100
00000010
00000100
00000000
,
00002002
00000000
00000000
00000000
,
00000000
00000000
00000000
00000000
,
00003003
00000000
00000000
00000000
;

//---------------dance-double - ----------------
#NOTES:
     dance-double:
     :
     Hard:
     14:
     0.511,0.565,0.137,0.127,0.289,339.000,14.000,13.000,0.000,0.000,0.000,0.511,0.565,0.137,0.127,0.289,339.000,14.000,13.000,0.000,0.000,0.000:
00000000
00000000
00000000
00000000
,
00000000
00000000
00000000
00000000
,
00000000
00000000
00000000
00000000
,
00000000
00000000
00000000
00000000
,
00000000
00000000
00000000
00000000
,
00010000
00000000
00001000
00000000
00000010
00000001
00001000
00000000
,
00001000
00000000
00010000
00000000
00100000
10000000
00010000
00000000
,
01100000
00000000
00000000
00001000
01001000
00000000
00000000
00010000
,
00011000
00000000
00000000
00000100
00000000
00000000
00000010
00000000
00002002
00000000
00000000
00000000
00003003
00000000
00000000
00000000
,
00000010
00000000
00000001
00000100
00000001
00000000
00000100
00000000
00000010
00000000
00000000
00000000
00001000
00000000
00000001
00000000
,
00000100
00000000
00000010
00001000
00000010
00000000
00000100
00000000
00001000
00000000
00000000
00000000
00010000
00000000
00000000
00000000
,
00001000
00000000
00100000
00010000
00100000
00000000
00010000
00000000
01000000
00010000
00000000
00010000
01000000
00000000
00100000
00000000
,
10000000
00000000
00010000
01000000
00010000
00000000
00100000
00000000
01000000
00000000
00100000
00000000
00100000
00000000
00000000
00000000
,
00010000
00000000
10000000
01000000
10000000
00000000
00100000
00000000
01000000
00000000
00000000
00000000
00010000
00000000
00100000
00000000
,
00001000
00000000
00010000
00001000
00010000
00000000
00000100
00000000
00001000
00000000
00000000
00000000
00000001
00000000
00000010
00000000
,
00000100
00000000
00001000
00000001
00001000
00000000
00000000
00000000
00000100
00000000
00000010
00001000
00000010
00000000
00000000
00000000
,
00010000
00000000
00001000
00100000
00001000
00000000
00000000
00000000
01000000
00000000
00010000
10000000
00010000
00000000
01000000
00100000
,
01000000
00000000
00010000
10000000
00010000
00000000
00000000
00000000
10000000
00000000
01000000
00000000
00010000
00000000
00000000
00000000
,
00022000
00000000
00000000
00033000
,
00000020
00000000
00000001
00000000
,
00000130
00010000
00200000
00000000
,
20300000
00000000
00010000
00000000
,
30100000
01000000
10010000
00000000
,
10000000
00100000
01000000
00100000
20000000
00000000
31000000
00100000
,
00001000
00010000
00000100
00001000
00000020
00000000
00000130
00000001
,
00001000
00000000
00001100
00000000
00000010
00000001
00000100
00001000
,
00010000
00000000
00000000
00000000
00011000
00000000
00000000
00001000
01000000
00000000
00010000
00000000
10000000
00000000
00100000
00000000
,
01000000
00000000
00000000
00000000
01100000
00000000
00000000
00100000
10000000
00000000
01000000
00000000
00100000
00000000
00000000
00000000
,
00001000
00000000
00000000
00000000
00011000
00000000
00000000
00010000
00001000
00000000
00010000
00000000
00000100
00000000
00000010
00000000
,
00000001
00000000
00000000
00000000
00000101
00000000
00000000
00000100
00000010
00000000
00000100
00000000
00001000
00000000
00000000
00000000
,
00010000
00000000
00000000
00000000
00101000
00000000
00000000
00010000
01000000
00000000
00100000
00000000
10000000
00000000
00010000
00000000
,
00100000
00000000
00000000
00000000
01000000
00000000
00000000
00000000
10000000
01000000
10000000
00000000
00100000
00000000
00000000
00000000
,
00010000
00000000
00000000
00000000
00001000
00000000
00000000
00000000
00010000
00000100
00010000
00000000
00000010
00000000
00000000
00000000
,
00001000
00000000
00000000
00000000
00000001
00000000
00000000
00000000
00000100
00000010
00000100
00000000
00000001
00000000
00000000
00000000
,
00001000
00000000
00000000
00000000
00000010
00000000
00010000
00000000
00001000
00100000
00001000
00000000
01000000
00000000
00010000
00000000
,
20020000
00000000
00000000
30030000
,
00100000
00000000
10000000
01000000
10000000
00000000
01000000
00000000
00100000
00000000
00000000
00000000
00010000
00000000
10000000
00000000
,
01000000
00000000
00100000
00010000
00100000
00000000
01000000
00000000
00010000
00000000
00000000
00000000
00001000
00000000
00000000
00000000
,
00010000
00000000
00000010
00001000
00000010
00000000
00001000
00000000
00000100
00001000
00000000
00001000
00000100
00000000
00000010
00000000
,
00000001
00000000
00001000
00000100
00001000
00000000
00000010
00000000
00000100
00000000
00000010
00000000
00000010
00000000
00000000
00000000
,
00001000
00000000
00000001
00000100
00000001
00000000
00000010
00000000
00000100
00000000
00000000
00000000
00001000
00000000
00000010
00000000
,
00010000
00000000
00001000
00010000
00001000
00000000
01000000
00000000
00010000
00000000
00000000
00000000
10000000
00000000
00100000
00000000
,
01000000
00000000
00010000
10000000
00010000
00000000
00000000
00000000
01000000
00000000
00100000
00010000
00100000
00000000
00000000
00000000
,
00001000
00000000
00010000
00000010
00010000
00000000
00000000
00000000
00000100
00000000
00001000
00000001
00001000
00000000
00000010
00000100
,
00000010
00000000
00010000
00001000
00010000
00000000
00001000
00100000
00001000
00000000
00000000
00000000
01000000
00000000
00100000
00000000
,
10000000
00000000
01000000
00100000
01000000
00000000
00010000
00001000
00010000
00000000
00000000
00000000
00000100
00000000
00000010
00000000
,
00000001
00000000
00001000
00000100
00001000
00000000
00000010
00000000
00010000
00001000
00000000
00001000
00010000
00000000
00001000
00000000
,
00100000
00000000
00010000
01000000
00010000
00000000
10000000
00100000
10000000
00000000
00010000
10000000
00010000
00000000
00000000
00000000
,
01000000
00000000
00100000
00001000
00100000
00000000
00001000
00010000
00001000
00000000
00000000
00000000
00010000
00000000
00000100
00000000
,
00000010
00000000
00000001
00001000
00000001
00000000
00001000
00000100
00001000
00000000
00000000
00000000
00000001
00000000
00000100
00000000
,
00001000
00000000
00010000
00001000
00010000
00000000
00001000
00000000
00100000
00000000
00010000
01000000
00010000
00000000
01000000
00000000
,
00100000
00000000
10000000
01000000
10000000
00000000
01000000
00000000
00010000
00000000
00001000
00010000
00001000
00000000
00010000
00000100
,
00010000
00000000
00000010
00001000
00000010
00000000
00000100
00000001
00000100
00000000
00000001
00001000
00000001
00000000
00000010
00000000
,
00002002
00000000
00000000
00000000
,
00000000
00000000
00000000
00000000
,
00003003
00000000
00000000
00000000
;

//---------------dance-double - ----------------
#NOTES:
     dance-double:
     :
     Challenge:
     11:
     0.265,0.269,0.068,0.098,0.010,173.000,7.000,10.000,392.000,0.000,0.000,0.265,0.269,0.068,0.098,0.010,173.000,7.000,10.000,392.000,0.000,0.000:
00000000
00000000
00000000
00000000
,
00000000
00000000
00000000
00000000
,
00000000
00000000
00000000
00000000
,
00000000
00000000
00000000
00000000
,
00000000
00000000
00000000
00000000
,
00000001
00000100
00001000
00010000
,
00001000
00100000
01000000
10000000
,
01000000
00000000
00010000
00000000
,
00001000
00010000
00011000
00000000
,
00001000
MMMMMMMM
00010000
00001000
00010000
00000000
00000000
00000000
,
00000010
MMMMMMMM
00000100
00000010
00000100
00000000
00000000
00000000
,
00000001
MMMMMMMM
00000010
00000000
00000100
MMMMMMMM
00001000
00000000
,
00010000
MMMMMMMM
00100000
00000000
11000000
00000000
00000000
00000000
,
00100000
MMMMMMMM
01000000
00100000
01000000
00000000
00000000
00000000
,
00010000
MMMMMMMM
00001000
00010000
00001000
00000000
00000000
00000000
,
00000010
MMMMMMMM
00000100
00000000
00001000
00010000
00001000
00000000
,
00100000
MMMMMMMM
01000000
00000000
00010000
00001000
00010000
00000000
,
00022000
00000000
00000000
00033000
,
MMMMMMMM
00000000
00000000
MMMMMMMM
00000000
00000000
MMMMMMMM
00000000
00000000
MMMMMMMM
00000000
00000000
MMMMMMMM
00000000
00000000
00000000
,
00000020
00000000
00000000
00000030
,
00000001
00000100
00001000
MMMMMMMM
,
00200000
00000000
00000000
00300000
,
10000000
01000000
00010000
MMMMMMMM
,
00010000
00001000
00000100
00000001
,
00000010
00001000
00010000
MMMMMMMM
,
00001000
00010000
00100000
10000000
,
01000000
00010000
00001000
MMMMMMMM
,
00000200
00000000
00000000
00000000
00000310
MMMMMMMM
00000100
00000000
,
00001000
00010000
00001000
MMMMMMMM
,
00200000
00000000
00000000
00000000
01300000
MMMMMMMM
00100000
00000000
,
00010000
00001000
00010000
MMMMMMMM
,
00000100
00000000
00001000
00000001
00001000
00000000
MMMMMMMM
00000000
,
00010000
00000000
00001000
00010000
00001000
00000000
MMMMMMMM
00000000
,
01000000
00000000
00010000
10000000
00010000
00000000
MMMMMMMM
00000000
,
00010000
00001000
00010000
00001000
00010000
00000000
MMMMMMMM
00000000
,
00022000
00000000
00000000
00033000
,
00010000
MMMMMMMM
00001000
00010000
00001000
00000000
00000000
00000000
,
01000000
MMMMMMMM
00100000
01000000
00100000
00000000
00000000
00000000
,
10000000
MMMMMMMM
01000000
00000000
00100000
MMMMMMMM
00010000
00000000
,
00001000
MMMMMMMM
00000100
00000000
00000011
00000000
00000000
00000000
,
00000100
MMMMMMMM
00000010
00000100
00000010
00000000
00000000
00000000
,
00001000
MMMMMMMM
00010000
00001000
00010000
00000000
00000000
00000000
,
01000000
MMMMMMMM
00100000
00000000
00010000
00001000
00010000
00000000
,
00000100
MMMMMMMM
00000010
00000000
00001000
00010000
00001000
00000000
,
00010000
MMMMMMMM
00001000
00000100
00000001
00000000
00000100
00000000
,
00001000
MMMMMMMM
00010000
01000000
10000000
00000000
01000000
00000000
,
10000000
MMMMMMMM
00100000
00000000
00001000
MMMMMMMM
00010000
00000000
,
00001000
MMMMMMMM
00000010
00000000
00001001
00000000
00000100
00000000
,
00001000
MMMMMMMM
00010000
00100000
10000000
00000000
00100000
00000000
,
00010000
MMMMMMMM
00001000
00000010
00000001
00000000
00000010
00000000
,
00000001
MMMMMMMM
00000100
00000000
00010000
MMMMMMMM
00001000
00000000
,
00010000
MMMMMMMM
01000000
00000000
10000000
MMMMMMMM
00100000
00000000
,
00010000
MMMMMMMM
00001000
MMMMMMMM
00000100
MMMMMMMM
00000010
00000000
,
00002002
00000000
00000000
00000000
,
00000000
00000000
00000000
00000000
,
00003003
00000000
00000000
00000000
;

//---------------dance-single - railgun[S]----------------
#NOTES:
     dance-single:
     :
     Edit:
     14:
     0.646,0.592,0.274,0.117,0.543,422.000,28.000,12.000,0.000,0.000,0.000,0.646,0.592,0.274,0.117,0.543,422.000,28.000,12.000,0.000,0.000,0.000: // measure 0
0000
0000
0000
0000
,  // measure 1
0000
0000
0000
0000
,  // measure 2
0000
0000
0000
0000
,  // measure 3
0000
0000
0000
0000
,  // measure 4
0000
0000
0000
0000
,  // measure 5
1001
0000
0000
0000
1100
0000
0000
0100
0000
0000
0100
0000
0010
0000
0000
0000
,  // measure 6
0011
0000
0000
0000
0101
0000
0000
0100
0000
0000
0100
0000
1000
0000
0000
0000
,  // measure 7
1010
0000
0000
0000
1100
0000
0000
0100
0000
0000
0100
0000
0001
0000
0000
0000
,  // measure 8
0100
0000
0000
0010
0100
0000
0001
0000
1000
0100
1000
0100
1000
0000
0100
0000
,  // measure 9
0001
0000
0010
1000
0001
0000
0010
0000
0100
0000
0001
0000
0010
1000
0010
1000
,  // measure 10
0100
0000
0001
0100
0010
0000
1000
0000
0100
0000
0001
0000
0010
0001
0100
0010
,  // measure 11
1000
0000
0100
0000
0010
0000
0001
0000
1000
0001
0000
1000
0001
0000
0100
0000
,  // measure 12
0001
0000
0000
0100
0010
0000
1000
0000
0002
0000
1003
0000
1001
0000
0000
0000
,  // measure 13
1000
0000
0100
0000
0010
0000
0001
0000
0100
0001
0100
0000
0010
0000
0000
0000
,  // measure 14
0001
0000
0100
0000
0010
0000
1000
0000
0001
0010
0001
0000
0100
0000
0000
0000
,  // measure 15
0001
0000
1000
0100
2000
0000
0000
0000
3010
0000
0001
0100
0002
0000
0000
0000
,  // measure 16
0013
0000
1000
0100
2000
0000
0000
3000
0010
0000
0100
0000
0010
0000
0001
0000
,  // measure 17
1000
0000
0100
0010
0000
0001
0100
0000
0010
1000
0100
0000
1000
0000
0010
0000
,  // measure 18
0001
0100
0000
0100
0010
0000
1000
0010
0000
0010
0100
0000
1000
0001
1000
0001
,  // measure 19
0100
0000
0000
1100
0000
0000
0010
0000
0100
0001
0000
0000
1000
0000
0001
0000
,  // measure 20
1010
0000
0000
1001
0000
0000
0001
0000
0100
1000
0000
0000
0100
0000
0001
0000
,  // measure 21
0011
0000
0000
0101
0000
0000
0100
0000
0010
1000
0000
0000
0001
0000
0100
0000
,  // measure 22
1010
0000
0000
1001
0000
0000
1100
0000
0101
0000
0000
0000
0110
0000
0000
0000
,  // measure 23
0001
0000
0100
0000
0010
0000
1000
0000
0100
0010
0100
0000
0001
0000
1000
0000
,  // measure 24
0010
0000
0001
0000
0100
0000
0001
0000
0100
0001
0100
0000
1000
0000
0010
0000
,  // measure 25
0100
0000
0001
0000
0100
0000
1000
0000
0001
0100
0001
0000
0010
0000
0100
0000
,  // measure 26
1000
0000
0000
0001
1000
0000
0100
0000
0001
1000
0100
0000
0010
0000
0001
1000
,  // measure 27
0100
0000
0001
0000
0100
0000
0010
1000
0000
0000
0010
0000
0100
0000
0000
0000
,  // measure 28
0010
0000
0001
1000
0000
1000
0010
0000
0010
0100
0010
0000
0001
0000
0010
0000
,  // measure 29
1001
0000
0110
0000
1001
0100
0100
0010
,  // measure 30
0110
0000
0001
0100
0000
0000
0001
0000
0100
0010
1000
0000
0100
0000
0001
0100
,  // measure 31
0001
0000
0010
0100
0000
0000
1000
0000
1001
0000
0000
0000
0110
0000
0001
2000
,  // measure 32
0001
0000
3010
0100
0000
0000
0100
0000
0010
0000
0000
0000
0001
0000
0100
0000
,  // measure 33
1020
0000
0000
0000
0001
0000
0130
0010
1000
0000
0001
0100
0000
0010
1000
0000
,  // measure 34
0100
0000
0001
0100
0000
0000
1000
0000
0100
0001
0100
0000
0010
0000
1000
0000
,  // measure 35
0001
0010
0000
0001
0100
0000
0010
1000
0000
0100
1000
0000
0001
0000
1000
0000
,  // measure 36
1001
0000
0000
0001
0100
0000
0010
0000
1000
0000
0001
0000
0010
0000
0100
0001
,  // measure 37
0100
0000
0000
0010
1000
0000
0010
0000
0100
0000
0001
0000
0010
0000
1000
0100
,  // measure 38
0001
0000
0001
0000
1000
0000
1000
0000
0010
0100
0000
0001
0000
0000
0100
0000
,  // measure 39
1000
0000
0010
0100
0000
0100
0010
0000
1000
0010
1000
0000
0011
0000
0000
0000
,  // measure 40
1001
0000
0000
0010
0100
0000
0001
0000
0010
0000
1000
0000
0001
0000
0010
0001
,  // measure 41
0100
0000
0000
0001
0010
0000
0100
0000
1000
0000
0010
0000
0001
0000
0010
0000
,  // measure 42
1000
0000
0001
0100
0002
0000
0000
0000
0013
0000
1000
0100
2000
0000
0000
0000
,  // measure 43
3010
0000
0001
0100
0002
0000
0000
0003
0010
0000
0100
0000
0010
0000
1000
0000
,  // measure 44
0001
0000
0100
0010
0000
1000
0010
0000
0100
0010
0001
0000
1000
0010
0100
0000
,  // measure 45
0001
0000
1000
0100
0000
1000
0001
0000
0100
0010
1000
0000
0100
0010
0001
0000
,  // measure 46
1000
0000
0100
0000
0010
0000
0001
0000
1000
0010
0000
0100
0001
0000
1000
0000
,  // measure 47
0001
0000
1000
0010
0000
0001
0010
0000
0001
1000
0100
0000
0110
0000
0000
0000
,  // measure 48
0100
0000
0001
0010
0000
0100
0001
0000
0100
0010
1000
0000
0010
0100
0001
0000
,  // measure 49
0010
0000
1000
0100
0000
0001
0100
0000
0010
0001
0100
0000
0100
0010
1000
0000
,  // measure 50
0001
0000
0100
0010
0200
0000
0000
0000
1300
0000
0100
0010
0200
0000
0000
0000
,  // measure 51
1300
0000
0001
0010
0000
0001
1000
0000
0010
0100
0001
0000
1000
0010
0100
0000
,  // measure 52
0010
0001
0010
0001
0100
0010
0100
0010
1000
0001
0010
0100
1000
0010
0100
0001
,  // measure 53
0200
0000
0000
0000
,  // measure 54
0000
0000
0000
0000
,  // measure 55
0300
0000
0000
0000
;

//---------------dance-double - railgun[D]----------------
#NOTES:
     dance-double:
     :
     Edit:
     15:
     0.654,0.619,0.186,0.147,0.582,434.000,19.000,15.000,0.000,0.000,0.000,0.654,0.619,0.186,0.147,0.582,434.000,19.000,15.000,0.000,0.000,0.000:
00000000
00000000
00000000
00000000
,
00000000
00000000
00000000
00000000
,
00000000
00000000
00000000
00000000
,
00000000
00000000
00000000
00000000
,
00000000
00000000
00000000
00000000
,
01000000
00010000
00001000
00000000
00000010
00000000
00010000
00000000
,
00001000
00000100
00010000
00000000
00100000
00000000
00010000
00000000
,
10000000
00100000
00010000
00010000
00010000
00000000
00010000
00000000
,
00001000
00000000
00000000
00100000
00000000
00000000
00010000
00000000
00000100
00001000
00000100
00001000
00000010
00000000
00000100
00000000
,
00000001
00000000
00000010
00000100
00000010
00000000
00000100
00000000
00001000
00010000
00001000
00000000
00000100
00000001
00000010
00000100
,
00001000
00000000
00010000
00000100
00001000
00000000
00100000
00000000
01000000
10000000
00010000
00000000
00001000
00010000
00000100
00001000
,
00000001
00000000
00000010
00000000
00010000
00000000
00000100
00000000
00001000
00010000
00000000
00001000
00000100
00000000
00010000
00000000
,
00001000
00000000
00100000
01000000
00000000
00001000
00010000
00000000
00001000
00000000
00001100
00000000
00001001
00000000
00000000
00000000
,
00000001
00000000
00000010
00000000
00000100
00000000
00001000
00000100
00001000
00000000
00000010
00000000
00000100
00000000
00000000
00000000
,
00000100
00000000
00010000
00000000
00100000
00000000
01000000
00100000
00000000
01000000
00000000
00001000
00010000
00000000
00000000
00000000
,
00010000
10000000
01000000
20000000
00010000
00000000
00000000
00000000
30100000
00010000
01000000
00020000
00100000
00000000
00000000
00000000
,
00030100
00001000
00000100
00000020
00000100
00000000
00000000
00000030
00000010
00000000
00000100
00000000
00000010
00000000
00000001
00000000
,
00000010
00000000
00000100
00000001
00000000
00001000
00000100
00000000
00000001
00000010
00000100
00001000
00000100
00000000
00001000
00000000
,
00000001
00000010
00000000
00000100
00001000
00000000
00010000
00100000
00000000
01000000
10000000
00000000
00100000
00010000
01000000
00100000
,
10000000
00000000
00000000
01000000
10000000
00000000
00100000
00000000
01000000
00010000
00000000
00000000
00001000
00000000
00010000
00000000
,
00010100
00000000
00000000
00010000
00001000
00000000
00100000
00000000
01000000
00001000
00000000
00000000
00010000
00000000
00000100
00000000
,
00000110
00000000
00000000
00000100
00000001
00000000
00000100
00000000
00010000
01000000
00000000
00000000
00100000
00000000
01000000
00000000
,
01001000
00000000
00000000
00011000
00000000
00000000
00010100
00000000
00001100
00000000
00001010
00000000
00000101
00000000
00000011
00000000
,
00001000
00000100
00000010
00000001
00000100
00001000
00000010
00010000
,
00001000
00010000
00000100
00010000
00001000
00100000
00010000
10000000
,
01000000
00010000
10000000
00100000
00010000
00100000
00001000
00010000
,
00000010
00000000
00000000
00000100
00001000
00000000
00000000
00000001
00001000
00000100
00001000
00000000
00000001
00000000
00001000
00000100
,
00000010
00000000
00000010
00000000
00010000
00000000
00001000
00000000
01000000
00000000
00000000
00010000
01000000
00000000
00010000
00000000
,
10000000
00000000
00010000
01000000
00000000
00100000
10000000
00000000
00010000
00100000
00001000
00000000
00010000
00000000
00001000
00000000
,
00011000
00000000
00010010
00000000
00010100
00000100
00001100
00001000
,
00001010
00000000
00000001
00000100
00000000
00000000
00000010
00000000
00010000
00001000
01000000
00000000
00100000
00000000
10000000
01000000
,
00010000
00000000
00100000
01000000
00000000
00000000
00001000
00000000
00011000
00000000
00000000
00000000
00011000
00000000
00000100
00000010
,
00001000
00000000
00000001
00001000
00000000
00000000
00000010
00000000
00001000
00000100
00010000
00000000
00000010
00000000
00001000
00000000
,
00010200
00000000
00000000
00000000
00010000
00000000
00001300
00000100
00010000
00000000
00001000
00100000
00000000
00010000
01000000
00000000
,
00100000
00000000
10000000
01000000
00000000
00000000
00010000
00000000
00000100
00010000
00000100
00000000
00001000
00000000
00000010
00000000
,
00000001
00000100
00000000
00000010
00001000
00000000
00010000
01000000
00000000
00100000
10000000
00000000
00010000
00000000
10000000
00000000
,
01000000
00000000
00000000
00100000
10000000
00000000
01000000
00000000
00010000
00000000
00100000
00000000
00001000
00000000
00010000
00001000
,
00010000
00000000
00000000
00000010
00000100
00000000
00001000
00000000
00000010
00000000
00000001
00000000
00000010
00000000
00000100
00001000
,
00010000
00000000
00001000
00000000
00010000
00000000
00001000
00000000
00000100
00010000
00000000
00200000
00000000
00000000
20300000
00000000
,
00000000
00000000
00000000
32000000
00000000
00000000
03002000
00000000
00020000
00000000
00000000
00000000
00033000
00000000
00000000
00000000
,
00000100
00000000
00000000
00000010
00010000
00000000
00000100
00000000
00000001
00000000
00000100
00000000
00001000
00000000
00000010
00000000
,
00010000
00000000
00000000
00001000
00100000
00000000
00010000
00000000
00000100
00000000
00001000
00000000
00100000
00000000
10000000
00000000
,
00100000
00010000
01000000
00020000
00100000
00000000
00000000
00000000
01030000
10000000
00010000
20000000
01000000
00000000
00000000
00000000
,
30010000
00001000
00000100
00002000
00010000
00000000
00000000
00003000
00000010
00000000
00001000
00000000
00100000
00000000
00010000
00000000
,
10000000
00000000
00100000
01000000
00000000
10000000
01000000
00000000
00010000
00100000
00001000
00000000
00010000
00000100
00001000
00000000
,
00000010
00000000
00000001
00000100
00000000
00000010
00000100
00000000
00001000
00100000
00010000
00000000
00000100
00001000
00010000
00000000
,
00100000
00000000
01000000
00000000
00100000
00000000
00001000
00000000
00010000
00000010
00000000
00001000
00000100
00000000
00000010
00000000
,
00010000
00000000
00001000
00100000
00000000
00010000
00001000
00000000
01000000
00100000
00010000
00000000
00001000
00000100
00000010
00000000
,
00000001
00000000
00000010
00001000
00000000
00000100
00001000
00000000
00000001
00000010
00001000
00000000
00000001
00000100
00001000
00000000
,
00010000
00000000
00000100
00010000
00000000
00001000
00100000
00000000
00010000
01000000
10000000
00000000
00010000
00100000
10000000
00000000
,
00010000
00000100
00001000
00000200
00010000
00000000
00000000
00000000
00100300
00010000
00001000
00020000
00100000
00000000
00000000
00000000
,
00030010
00000000
00000100
00010000
00000000
00001000
00100000
00000000
00010000
01000000
00100000
00000000
00000100
00010000
00001000
00000000
,
00100000
01000000
00100000
01000000
00010000
00100000
00010000
00100000
00001000
00010000
00001000
00010000
00000100
00001000
00000100
00001000
,
00000002
00000000
00000000
00000000
,
00000000
00000000
00000000
00000000
,
00000003
00000000
00000000
00000000
;
