#TITLE:escape;
#SUBTITLE:;
#ARTIST:U1 & Krystal B;
#TITLETRANSLIT:;
#SUBTITLETRANSLIT:;
#ARTISTTRANSLIT:;
#GENRE:;
#CREDIT:;
#MENUCOLOR:white;
#METERTYPE:DDR X;
#BANNER:escape.png;
#BACKGROUND:escape-bg.png;
#LYRICSPATH:;
#CDTITLE:./CDTITLES/DanceDanceRevolution HOTTEST PARTY 2.png;
#MUSIC:escape.mp3;
#OFFSET:2.052;
#SAMPLESTART:49.345;
#SAMPLELENGTH:15.000;
#SELECTABLE:YES;
#LISTSORT:;
#DISPLAYBPM:140.000;
#BPMS:0.000=140.000;
#STOPS:;
#BGCHANGES:;
#ATTACKS:;

//---------------dance-single - ----------------
#NOTES:
     dance-single:
     :
     Beginner:
     3:
     0.163,0.224,0.010,0.000,0.000:
0000
0000
0000
0000
,
0000
0000
0000
0000
,
0000
0000
0000
0000
,
0000
0000
0000
0000
,
0000
0000
0000
0000
,
1000
0000
1000
0000
,
0001
0000
0001
0000
,
0010
0000
1000
0000
,
0100
0000
0001
0000
,
1000
0000
1000
0000
,
0001
0000
0001
0000
,
0010
0000
0001
0000
,
0000
0000
0000
0000
,
1000
0000
0001
0000
,
1000
1000
1000
0000
,
0001
0000
1000
0000
,
0001
0001
0001
0000
,
0100
0000
0010
0000
,
0010
0010
0010
0010
,
0000
1000
0000
0001
,
0000
1000
1000
0000
,
0001
0000
1000
0000
,
0001
0001
0001
0000
,
0001
0000
1000
0000
,
0010
0000
0001
0000
,
0100
0000
1000
0000
,
0010
0010
0010
0000
,
0000
0100
0000
0100
,
0100
0100
0100
0000
,
0000
0000
0000
0000
,
1000
0000
1000
0000
,
0001
0000
0001
0000
,
1000
1000
1000
0000
,
0001
0001
0001
0000
,
1000
0000
1000
0000
,
0001
0000
0001
0000
,
1000
1000
1000
0000
,
0001
0001
0001
0000
,
0000
1000
0000
0001
,
0000
1000
0000
0001
,
0001
0001
0001
0000
,
1000
1000
1000
0000
,
1000
0000
0001
0000
,
1000
0000
0001
0000
,
1000
0000
0001
0000
,
0000
0010
0000
0010
,
0010
0000
0000
0000
,
0001
0000
0000
0000
,
0100
0000
0000
0000
,
1000
0000
0000
0010
,
0010
0010
0010
0000
,
0001
0001
0001
0000
,
0100
0100
0100
0000
,
1000
1000
1000
0000
,
1001
0000
0000
0000
;

//---------------dance-single - ----------------
#NOTES:
     dance-single:
     :
     Easy:
     5:
     0.244,0.280,0.062,0.031,0.000:
0000
0000
0000
0000
,
0000
0000
0000
0000
,
0000
0000
0000
0000
,
0000
0002
0000
0003
,
0000
2000
0000
3000
,
1000
0010
1000
0000
,
0000
0000
0000
0000
,
1000
0100
0001
0100
,
1000
0100
0001
0100
,
0001
0010
0001
0000
,
0000
0000
0000
0000
,
0001
0100
1000
0100
,
0000
0000
0000
0000
,
0010
0001
0100
0000
,
1000
0001
0001
1000
,
1000
0100
1000
0001
,
0001
0000
1000
0000
,
0001
0000
1000
0000
,
1001
0000
0000
0000
,
0010
1000
0100
0001
,
0001
0001
0001
0000
,
0010
1000
0100
0100
,
0001
1000
1000
0001
,
0001
0100
0001
1000
,
1000
0100
0001
0100
,
1000
0100
0001
0100
,
1001
0000
0000
0000
,
0010
1000
0100
0001
,
0001
1000
2000
0000
,
0000
0000
0000
3000
,
1000
0010
1000
0000
,
1000
0010
0100
0001
,
1000
0100
0001
0100
,
1000
0100
0001
0100
,
0001
0010
0001
0000
,
0001
0010
0100
1001
,
0001
0100
1000
0100
,
0001
0100
1000
0100
,
0000
0010
0000
0100
,
0000
0010
0000
0001
,
0000
0100
0000
0100
,
0000
0100
0000
0100
,
0010
0001
0010
1000
,
0010
0001
0010
1000
,
0010
0001
0010
1000
,
0110
0000
1001
0000
,
1000
1000
0001
0001
,
1000
0001
1000
0001
,
0100
1000
0100
0001
,
0100
1000
0100
0001
,
0001
0001
1000
1000
,
0001
1000
0001
1000
,
0100
0001
0100
1000
,
0100
0001
0100
1000
,
1001
0000
0000
0000
;

//---------------dance-single - ----------------
#NOTES:
     dance-single:
     :
     Medium:
     8:
     0.379,0.397,0.342,0.052,0.010:
0000
0000
0000
0000
,
0000
0000
0000
0000
,
0000
0000
0000
0000
,
0000
0002
0000
0003
,
0000
2000
0000
3000
,
1000
0000
0010
0000
1000
0001
0100
0000
,
1000
0010
0100
0001
,
1000
0100
0001
0100
,
1000
0000
0001
0100
1000
0000
0100
0000
,
0001
0000
0010
0000
0001
1000
0100
0000
,
0001
0010
0100
1000
,
0001
0100
1000
0100
,
0002
0000
1000
1003
,
0010
0001
0100
1100
,
1000
0100
0001
0000
0001
0100
1000
0000
,
1000
0100
1000
0101
,
0001
1000
0100
0000
1000
0001
0100
0000
,
1000
0110
1000
0001
,
1001
0010
1001
0100
,
0000
0010
0000
0001
0000
0100
0000
1000
,
1000
0000
0000
0001
0000
0000
1000
0000
0100
0000
0000
0000
0000
0000
0000
0000
,
0010
1000
0100
0101
,
0001
0100
1000
0000
1000
0100
0001
0000
,
0001
0100
0001
1100
,
1000
0001
0100
0000
0001
1000
0100
0000
,
0001
0110
0001
1000
,
1001
0010
1001
0100
,
0000
0010
0000
1000
0000
0100
0000
0001
,
0001
0000
0000
1000
0000
0000
0001
0000
2000
0000
0000
0000
0000
0000
0000
0000
,
0000
0000
0100
3100
,
1000
0000
0010
0000
1000
0001
0100
0000
,
1010
0110
0101
1001
,
1000
0100
0001
0100
,
1000
0000
0001
0100
1000
0000
0100
0000
,
0001
0000
0010
0000
0001
1000
0100
0000
,
0011
0110
1100
1001
,
0001
0100
1000
0100
,
0001
0000
1000
0100
0001
0000
0100
0000
,
0000
1000
0000
0010
0000
1000
0000
0001
,
0000
1010
0000
0110
0000
0101
0000
1001
,
0000
1000
0000
0100
0000
0001
0000
0100
,
0000
1000
0000
0001
0000
1000
0000
0100
,
0010
0000
0001
0000
0010
0000
1000
0010
,
0010
0000
0001
0000
0010
0000
1000
0010
,
0010
0000
0001
0000
0010
0000
1000
0010
,
0010
1001
0110
1001
,
1000
0000
0101
0000
0001
0000
0100
0001
,
0010
0100
1100
0001
,
1000
1100
0100
0001
,
0001
1000
0110
1001
,
0001
0000
1100
0000
1000
0000
0100
1000
,
0010
0100
0101
1000
,
0001
0101
0100
1000
,
1000
0000
0001
0000
1000
0001
1000
0001
,
0200
0000
0000
0300
;

//---------------dance-single - ----------------
#NOTES:
     dance-single:
     :
     Hard:
     10:
     0.489,0.511,0.435,0.062,0.010:
0000
0000
0000
0000
,
0000
0000
0000
0000
,
0000
0000
0000
0000
,
0000
0000
2000
0100
0100
0000
3100
0000
,
0100
0000
0002
0100
0100
0000
0103
0000
,
1000
0100
0001
0000
0100
0000
1100
0000
,
1000
0000
0010
0100
0001
0100
0001
0000
,
0101
0000
0100
0000
1000
0100
0001
0000
,
1100
0011
1100
0011
,
0001
0100
1000
0000
0100
0000
0101
0000
,
0001
0000
0010
0100
1000
0100
1000
0000
,
0101
0000
0100
0000
1000
0100
0001
0000
,
0002
0000
0000
0103
,
1000
0100
1000
0000
0001
0100
0001
0000
,
0010
0100
0101
0000
1000
0010
0101
0000
,
1000
0100
1000
0000
0001
0100
0001
0000
,
0110
0000
1001
0000
0010
1000
0100
0000
,
0010
0001
0010
0001
0100
0000
1100
0000
,
1000
0010
0001
0010
1000
0000
1100
0000
,
0001
1100
0000
0101
0000
0011
0000
1010
,
1000
0000
0000
0001
0000
0000
1000
0000
0101
0000
0001
0000
0100
0000
0000
0000
,
0001
0010
0100
1000
0001
0100
0010
0000
,
0010
0100
1100
0000
0001
0010
1100
0000
,
0001
0100
0001
0000
1000
0100
1000
0000
,
0101
0000
0100
0000
1000
0100
0001
0010
,
1000
0010
1000
0100
,
0001
0010
0100
1000
0001
0000
0101
0000
,
1000
0101
0000
1100
0000
1010
0000
0011
,
0001
0000
0000
1000
0000
0000
0001
0000
2000
0000
0000
0000
0000
0000
0000
0000
,
0000
0100
0100
3100
,
1000
0100
0001
0000
0100
0000
1100
0000
,
1000
0000
0010
0100
0001
0100
0001
0000
,
0101
0000
0100
0000
1000
0100
0001
0010
,
1000
0010
1000
0100
,
0001
0100
1000
0000
0100
0000
0101
0000
,
0001
0000
0010
0100
1000
0100
1000
0000
,
1100
0000
0100
0000
0001
0100
1000
0010
,
0001
0010
0001
0100
,
0000
1000
0100
1000
0000
0010
1000
0010
,
0000
0001
0010
0001
0000
0100
0001
0100
,
0000
0101
0000
0100
0000
1000
0100
0001
,
0010
1000
0000
0010
0000
1000
0000
0100
,
1000
0010
0100
0001
1000
0001
0100
0001
,
1000
0010
0100
0001
1000
0001
0100
0001
,
1000
0010
0100
0001
1000
0001
0100
0001
,
0011
1001
0110
1001
,
0010
0001
0100
0001
1000
0100
1100
0000
,
1001
0000
0010
0100
0001
0010
0100
1000
,
1100
0000
0100
0000
0001
0100
1000
0010
,
0001
0010
0001
0100
,
0010
1000
0100
1000
0001
0100
0101
0000
,
1001
0000
0010
0100
1000
0010
0100
0001
,
0101
0000
0100
0000
1000
0100
0001
0010
,
1000
0010
1000
0100
,
2000
0200
0000
0000
0000
0000
3300
0000
;

//---------------dance-single - ----------------
#NOTES:
     dance-single:
     :
     Challenge:
     13:
     0.656,0.616,0.539,0.155,0.487: // measure 1
0000
0000
0000
0000
,  // measure 2
0000
0000
0000
0000
,  // measure 3
0000
0000
0000
0000
,  // measure 4
0000
0000
0000
0000
0001
0010
0001
0000
0000
0000
0000
0000
0110
0000
0000
0000
,  // measure 5
1001
0000
0000
0000
0001
0100
0001
0000
0000
0000
0000
0000
1010
0000
0000
0000
,  // measure 6
0101
0000
0000
0000
1100
0000
0000
0000
0100
0000
0001
1000
0000
0001
1000
0000
,  // measure 7
1010
0000
0000
0000
0101
0000
0000
0000
0010
0000
0100
0001
0000
0100
0001
0000
,  // measure 8
1001
0000
0000
0000
1100
0000
0000
0000
1000
0000
0100
0001
0000
0010
0001
0000
,  // measure 9
1100
0000
0000
0000
0011
0000
0000
0000
1000
0000
0100
0010
0000
0001
0010
0000
,  // measure 10
1010
0000
0000
0000
0101
0000
0000
0000
0100
0000
0001
0100
0000
0010
0100
0000
,  // measure 11
1001
0000
0000
0000
0110
0000
0000
0000
0010
0000
0100
1000
0000
0001
0100
0000
,  // measure 12
1010
0000
0000
0000
0011
0000
0000
0000
1000
0000
0100
0001
0000
0100
0010
0000
,  // measure 13
1001
0000
0000
0000
0000
0001
0010
0100
,  // measure 14
1000
0000
0000
0100
0000
0000
0100
0000
0010
0000
0000
0001
0000
0000
0001
0000
,  // measure 15
2002
0000
0000
0000
3003
0010
0001
0100
,  // measure 16
1010
0000
0000
1100
0000
0000
0011
0000
0110
0000
0000
0101
0000
0000
1001
0000
,  // measure 17
0020
0000
0000
0000
0000
0031
0100
0010
,  // measure 18
1000
0000
0000
0001
0000
0000
0001
0000
0220
0000
0000
0000
0330
0000
0100
0001
,  // measure 19
1000
0100
0000
0100
0000
0000
0022
0000
0000
0000
0000
0000
0033
0000
0000
0000
,  // measure 20
1001
0000
0000
0110
0000
0000
0001
1000
0100
0000
0000
0100
0000
0000
0010
0000
,  // measure 21
1001
0000
0000
0110
0000
0000
1000
0000
0101
0000
0010
1000
0010
0000
0100
0000
,  // measure 22
0101
0000
0000
1100
0000
0000
1000
0000
0011
0000
0000
1000
0000
0000
0010
0200
,  // measure 23
0020
0000
0000
0030
0000
1000
1000
1300
,  // measure 24
0001
0000
0000
0110
0000
0000
0001
0000
1000
0000
0000
0110
0000
0000
1000
0000
,  // measure 25
2002
0000
0000
0000
0000
0000
3003
0000
0000
0000
0100
0010
0100
0000
0001
0000
,  // measure 26
1100
0000
0000
0110
0000
0000
0011
0000
2002
0000
0000
0000
3003
0000
0100
0010
,  // measure 27
0001
0000
0000
0110
0000
0000
2002
0000
0000
0000
0000
0000
3003
0000
0000
0000
,  // measure 28
1000
0000
0000
0001
0000
0000
1000
0100
0010
0000
0000
0101
0000
0000
0010
0000
,  // measure 29
1001
0000
0110
0000
1100
0000
0101
0000
0011
0000
1010
0000
,  // measure 30
0001
0000
0100
0000
0010
0000
0001
0000
0010
0000
0100
0000
,  // measure 31
1000
0000
0100
0000
0001
0000
0100
0000
0010
0000
1000
0100
0000
1000
0100
0010
,  // measure 32
0100
0000
0001
0000
0010
0000
0100
0000
0001
0000
0100
0001
0000
0100
0001
1000
,  // measure 33
0010
0000
0100
0000
1000
0000
0001
0000
1000
0000
0100
0001
0000
0010
1000
0010
,  // measure 34
0100
0000
0001
0000
0010
0000
1000
0000
0100
0000
0001
0100
0000
0010
1000
0010
,  // measure 35
1000
0000
0100
0000
0010
0000
0001
0000
1000
0000
0010
0100
0000
0010
1000
0001
,  // measure 36
1000
0000
0100
0000
0010
0000
0001
0000
1000
0000
0100
0010
0000
1000
0001
1000
,  // measure 37
0010
0000
0001
0000
0100
0000
0010
0000
0100
0000
1000
0100
0000
1000
0010
0100
,  // measure 38
0001
0000
0100
0000
0010
0000
1000
0000
0001
0000
0010
0100
0000
0001
0010
0100
,  // measure 39
1000
0100
0010
0001
1000
0100
0010
0001
,  // measure 40
0001
0010
0100
1000
0001
0010
0100
1000
,  // measure 41
1000
0100
0010
0001
1000
0100
0010
0001
,  // measure 42
0001
0010
0100
1000
0001
0010
0100
1000
,  // measure 43
0001
0000
0010
0000
0100
0000
1000
0000
0010
0000
0100
1000
0000
0100
0010
0100
,  // measure 44
0010
0000
0001
0000
1000
0000
0100
0000
0001
0000
1000
0100
0000
0100
0010
0001
,  // measure 45
0010
0000
0010
0000
0100
0000
0001
0000
1000
0000
0001
0100
0000
0010
0001
0010
,  // measure 46
0001
0010
0100
1000
0001
0100
0010
1000
,  // measure 47
1000
0000
0000
0001
0010
0000
0000
0000
1000
0000
0100
0001
0100
0000
0010
0000
,  // measure 48
1000
0000
0000
1000
0010
0000
0000
0000
0001
0000
0010
0100
0010
0000
0100
0000
,  // measure 49
1000
0000
0000
1000
0001
0000
0000
0000
0010
0000
0100
1000
0100
0000
1000
0000
,  // measure 50
0010
0000
0000
0010
0100
0000
0000
0000
0001
0000
1000
0010
1000
0000
0100
0000
,  // measure 51
0010
0000
1000
0000
0100
0000
1000
0000
0001
0000
0100
0001
0100
0000
0010
0000
,  // measure 52
1000
0000
0100
0000
0010
0000
0100
0000
1000
0000
0010
0100
0010
0000
1000
0000
,  // measure 53
0001
0000
0010
0000
0001
0000
0010
0000
1000
0000
0100
0001
0100
0000
1000
0000
,  // measure 54
0100
0000
0001
0000
1000
0000
0100
0000
0010
0000
0001
1000
0010
0000
0100
0000
,  // measure 55
1001
0000
0000
0000
;
