#VERSION:0.80;
#TITLE:Your Rain(RAGE MIX);
#SUBTITLE:;
#ARTIST:Akira Yamaoka feat. Mary Elizabeth McGlynn;
#TITLETRANSLIT:;
#SUBTITLETRANSLIT:;
#ARTISTTRANSLIT:;
#GENRE:;
#ORIGIN:;
#CREDIT:;
#BANNER:Your Rain(RAGE MIX).png;
#BACKGROUND:Your Rain(RAGE MIX)-bg.png;
#LYRICSPATH:Your Rain(RAGE MIX).lrc;
#CDTITLE:./CDTITLES/DANCE DANCE REVOLUTION HOME VERSION.PNG;
#MUSIC:Your Rain(RAGE MIX).mp3;
#OFFSET:1.888;
#SAMPLESTART:61.580;
#SAMPLELENGTH:15.000;
#SELECTABLE:YES;
#DISPLAYBPM:94.000;
#BPMS:0.000=93.990;
#STOPS:;
#DELAYS:;
#WARPS:;
#TIMESIGNATURES:0.000=4=4;
#TICKCOUNTS:0.000=4;
#COMBOS:0.000=1;
#SPEEDS:0.000=1.000=0.000=0;
#SCROLLS:0.000=1.000;
#FAKES:;
#LABELS:0.000=Song Start;
#BGCHANGES:;
#KEYSOUNDS:;
#ATTACKS:;

//---------------dance-single - ----------------
#NOTEDATA:;
#CHARTNAME:;
#STEPSTYPE:dance-single;
#DESCRIPTION:;
#CHARTSTYLE:;
#DIFFICULTY:Easy;
#METER:3;
#RADARVALUES:0.179,0.176,0.204,0.090,0.000,85.000,18.000,8.000,0.000,0.000,0.000,0.000,0.000,0.179,0.176,0.204,0.090,0.000,85.000,18.000,8.000,0.000,0.000,0.000,0.000,0.000;
#CREDIT:;
#OFFSET:1.888;
#BPMS:0.000=93.990
;
#STOPS:;
#DELAYS:;
#WARPS:;
#TIMESIGNATURES:0.000=4=4
;
#TICKCOUNTS:0.000=4
;
#COMBOS:0.000=1
;
#SPEEDS:0.000=1.000=0.000=0
;
#SCROLLS:0.000=1.000
;
#FAKES:;
#LABELS:0.000=Song Start
;
#DISPLAYBPM:84.000;
#NOTES:
0000
0000
0000
0000
,
0000
0000
0000
0000
,
0000
0000
0000
0000
,
1000
1000
1000
0000
,
0001
0001
0001
0000
,
0010
0000
0010
0000
,
0100
0000
0100
0000
,
0001
0000
0000
0001
,
0001
0000
0001
0001
,
0100
0110
0000
0000
,
0010
0110
0000
0000
,
1000
0000
0001
0000
,
1000
0000
1000
1001
,
0002
0003
0001
1000
,
2000
3000
0002
0003
,
0100
0100
0010
0010
,
0200
0000
0300
0000
,
0002
0003
0001
1000
,
2000
3000
0002
0003
,
0010
0010
0100
0100
,
0020
0000
0030
0110
,
1001
0000
0000
0010
,
0110
0000
0000
1000
,
0001
1000
0000
0001
,
1001
0000
0000
1000
,
1001
0001
1001
0000
,
0010
0010
0100
0100
,
0110
0000
1001
0000
,
1000
1000
0001
0001
,
1001
1000
1001
0000
,
0010
0010
0100
0100
,
0110
0000
1001
0000
,
0001
1001
1000
0110
,
0010
0000
0010
0010
,
0010
0000
0110
0000
;

//---------------dance-single - ----------------
#NOTEDATA:;
#CHARTNAME:;
#STEPSTYPE:dance-single;
#DESCRIPTION:;
#CHARTSTYLE:;
#DIFFICULTY:Medium;
#METER:6;
#RADARVALUES:0.273,0.255,0.215,0.113,0.000,140.000,19.000,10.000,0.000,0.000,0.000,0.000,0.000,0.273,0.255,0.215,0.113,0.000,140.000,19.000,10.000,0.000,0.000,0.000,0.000,0.000;
#CREDIT:;
#OFFSET:1.888;
#BPMS:0.000=93.990
;
#STOPS:;
#DELAYS:;
#WARPS:;
#TIMESIGNATURES:0.000=4=4
;
#TICKCOUNTS:0.000=4
;
#COMBOS:0.000=1
;
#SPEEDS:0.000=1.000=0.000=0
;
#SCROLLS:0.000=1.000
;
#FAKES:;
#LABELS:0.000=Song Start
;
#DISPLAYBPM:84.000;
#NOTES:
0000
0000
0000
0000
,
0000
0000
0000
0000
,
0000
0000
0000
0000
,
0001
0000
0001
0001
0000
0000
0110
0000
,
0000
1000
1000
1000
0000
0001
0200
0000
,
0310
0000
1000
0100
0001
0000
1000
0000
,
0001
0000
1000
0100
0010
0000
0001
1000
,
0100
0000
0001
0010
0000
0000
1000
0000
,
0001
1001
1000
0100
,
0010
0000
0001
0101
0000
0000
0000
0000
,
1000
0000
0001
0101
0000
0000
0000
0001
,
0100
0000
1000
0010
0000
0001
1000
0000
,
0100
1100
0001
0101
,
0001
1000
0100
0000
0000
0000
0100
0010
,
0001
0011
0100
1000
,
0001
0100
1000
0020
,
0100
0000
0130
0110
,
1000
0001
0100
0000
0000
0000
0100
0000
,
1000
0100
0010
0000
0100
0000
0101
0000
,
1010
0100
0101
0200
,
0010
0010
0010
0310
,
2002
3003
0000
0000
0000
0000
0000
1000
,
0020
0130
0000
0000
0000
0000
0000
0000
,
2002
3003
0000
0100
0000
0010
0000
1000
,
0002
0103
0000
0100
0000
0010
0200
0000
,
0310
0000
0010
0000
1000
0010
0100
0000
,
0001
1000
0010
0110
,
1000
0001
1000
0000
0001
0100
0010
0000
,
0001
1000
0011
1100
,
0100
0000
0100
0000
0001
0010
0100
0000
,
1000
0001
0010
1000
,
0001
1000
0001
0000
1000
0100
0010
0000
,
1000
0000
0001
0000
1001
1001
0100
0000
,
0001
1000
0001
0000
1000
0010
0100
0000
,
1000
0000
1001
0000
0001
1000
0100
0000
;

//---------------dance-single - ----------------
#NOTEDATA:;
#CHARTNAME:;
#STEPSTYPE:dance-single;
#DESCRIPTION:;
#CHARTSTYLE:;
#DIFFICULTY:Hard;
#METER:9;
#RADARVALUES:0.384,0.354,0.305,0.102,0.000,202.000,27.000,9.000,0.000,0.000,0.000,0.000,0.000,0.384,0.354,0.305,0.102,0.000,202.000,27.000,9.000,0.000,0.000,0.000,0.000,0.000;
#CREDIT:;
#OFFSET:1.888;
#BPMS:0.000=93.990
;
#STOPS:;
#DELAYS:;
#WARPS:;
#TIMESIGNATURES:0.000=4=4
;
#TICKCOUNTS:0.000=4
;
#COMBOS:0.000=1
;
#SPEEDS:0.000=1.000=0.000=0
;
#SCROLLS:0.000=1.000
;
#FAKES:;
#LABELS:0.000=Song Start
;
#DISPLAYBPM:84.000;
#NOTES:
0000
0000
0000
0000
,
0000
0000
0000
0000
,
0000
0000
0000
0000
,
0001
0001
1000
0001
0000
0001
1001
0000
,
1000
0001
0100
0001
0100
1000
1001
0000
,
1000
0010
0100
0010
0000
0100
0001
0000
,
0001
0100
0010
0100
0000
0010
1000
0000
,
0001
0000
0001
0100
0000
1000
0100
0000
,
0001
0000
1000
0001
0010
0100
0010
0001
,
0001
0010
0100
2000
0002
0000
3003
0000
,
1001
0010
0100
0200
0000
0000
0300
1001
,
0001
0000
1000
0100
0000
0001
0100
0000
,
1000
0000
0001
1000
0010
0100
0010
1000
,
1001
0000
0100
0010
0001
0100
0002
0000
,
1003
0000
0100
0010
1000
0100
2000
0000
,
3001
0010
0100
0000
1000
0001
1001
1000
,
1001
0010
0001
0000
0100
0010
0100
0100
,
1001
0000
0100
0010
1000
0100
2000
0000
,
3001
0000
0100
0010
0001
0100
0002
0000
,
1003
0010
0100
0000
0001
1000
1001
0001
,
1001
0010
1000
0010
0100
0010
0100
0100
,
0010
1000
0000
0001
0000
1001
0000
0000
,
0100
0010
0000
1000
0000
0001
0000
1000
,
1000
0010
0000
0001
1000
0000
0001
0000
,
0100
0000
0010
0000
0220
0000
0330
0110
,
1001
0100
0001
0100
0010
1000
0010
1000
,
0100
0010
0100
0010
0001
0100
1010
1000
,
0001
1000
1001
1000
0010
0100
0110
0000
,
1001
0010
0100
1000
0010
0100
0101
0000
,
1001
0100
1000
0100
0010
0001
0010
0001
,
0101
0010
0100
0010
1000
0100
0010
0001
,
1000
0001
1001
0001
0010
0100
0110
0000
,
1001
0010
0100
0001
0010
0100
1100
0000
,
0011
0001
0100
0000
1000
1000
0100
0000
,
0001
0010
0100
0000
1000
0001
1001
0000
;

//---------------dance-double - ----------------
#NOTEDATA:;
#CHARTNAME:;
#STEPSTYPE:dance-double;
#DESCRIPTION:;
#CHARTSTYLE:;
#DIFFICULTY:Easy;
#METER:3;
#RADARVALUES:0.160,0.157,0.158,0.011,0.000,84.000,14.000,1.000,0.000,0.000,0.000,0.000,0.000,0.160,0.157,0.158,0.011,0.000,84.000,14.000,1.000,0.000,0.000,0.000,0.000,0.000;
#CREDIT:;
#OFFSET:1.888;
#BPMS:0.000=93.990
;
#STOPS:;
#DELAYS:;
#WARPS:;
#TIMESIGNATURES:0.000=4=4
;
#TICKCOUNTS:0.000=4
;
#COMBOS:0.000=1
;
#SPEEDS:0.000=1.000=0.000=0
;
#SCROLLS:0.000=1.000
;
#FAKES:;
#LABELS:0.000=Song Start
;
#DISPLAYBPM:84.000;
#NOTES:
00000000
00000000
00000000
00000000
,
00000000
00000000
00000000
00000000
,
00000000
00000000
00000000
00000000
,
00010000
10000000
00000000
00000000
,
10000000
00010000
00000000
00000000
,
00011000
00001000
00000000
00000000
,
00000010
00000010
00000000
00000000
,
00000001
00000001
00000000
00000000
,
00001000
00001000
00000000
00000000
,
00011000
00010000
00000000
00000000
,
00100000
00100000
00000000
00000000
,
10000000
10000000
00000000
00000000
,
00010000
00010000
00000000
00000000
,
01100000
01000000
01000000
00000000
,
10000000
01000000
00010000
00000000
,
00001000
00000100
00000001
00000001
,
00001000
00001000
00001000
00000000
,
00000110
00000100
00000100
00000000
,
00000001
00000100
00001000
00000000
,
00010000
01000000
10000000
10000000
,
00010000
00010000
00010000
00000000
,
10010000
00000000
01000000
00000000
,
00001000
00000000
00000010
00000000
,
00000010
00000000
00000100
00000000
,
00000001
00000000
00001000
00000000
,
00001001
00000001
00001001
00000001
,
00000001
00000000
00000100
00000000
,
00011000
00010000
00011000
00010000
,
00010000
00000000
01000000
00000000
,
10010000
10000000
10010000
10000000
,
10000000
00000000
01000000
00000000
,
00011000
00001000
00011000
00001000
,
00001000
00001000
00000010
00000010
,
00001002
00000000
00001000
00000000
,
00001000
00000000
00001000
00000003
;

//---------------dance-double - ----------------
#NOTEDATA:;
#CHARTNAME:;
#STEPSTYPE:dance-double;
#DESCRIPTION:;
#CHARTSTYLE:;
#DIFFICULTY:Medium;
#METER:6;
#RADARVALUES:0.255,0.236,0.045,0.079,0.000,147.000,4.000,7.000,0.000,0.000,0.000,0.000,0.000,0.255,0.236,0.045,0.079,0.000,147.000,4.000,7.000,0.000,0.000,0.000,0.000,0.000;
#CREDIT:;
#OFFSET:1.888;
#BPMS:0.000=93.990
;
#STOPS:;
#DELAYS:;
#WARPS:;
#TIMESIGNATURES:0.000=4=4
;
#TICKCOUNTS:0.000=4
;
#COMBOS:0.000=1
;
#SPEEDS:0.000=1.000=0.000=0
;
#SCROLLS:0.000=1.000
;
#FAKES:;
#LABELS:0.000=Song Start
;
#DISPLAYBPM:84.000;
#NOTES:
00000000
00000000
00000000
00000000
,
00000000
00000000
00000000
00000000
,
00000000
00000000
00000000
00000000
,
00010000
00000000
10000000
00000000
,
00010000
00100000
01000000
10000000
,
10000000
00010000
10000000
01000000
00000000
00000000
01000000
00000000
,
00010000
00001000
00010000
00000100
00000000
00000000
00000100
00000000
,
00000010
00000001
00000010
00000100
00000000
00000000
00000100
00000000
,
00001000
00000010
00001000
00000010
00000000
00000000
00000100
00000000
,
00000001
00001000
00000001
00000100
00000000
00000000
00000000
00000000
,
00001000
00010000
00001000
01000000
00000000
00000000
00000000
00000000
,
00100000
10000000
00100000
01000000
00000000
00000000
01000000
00000000
,
00010000
00100000
00010000
00000000
10000000
01000000
10000000
00000000
,
20010000
01000000
01000000
31000000
,
00020000
00031000
00002000
00003100
,
00000001
00001000
00000001
00000000
00000001
00000000
00000001
00000000
,
00000010
00000100
00000100
00001000
,
00001002
00000100
00000100
00000103
,
00002000
00013000
00020000
01030000
,
10000000
00010000
10000000
00000000
10000000
00000000
10000000
00000000
,
00100000
00000000
01000000
00000000
01000000
00000000
00010000
00100000
,
00100000
00000000
00000000
01000000
01000000
00000000
00000000
10000000
,
10000000
00000000
00000000
00100000
00100000
00000000
00000000
00010000
,
00010000
00000000
00000000
00000100
00000100
00000000
00000000
00000010
,
00000010
00000000
00000000
00000001
00000001
00000000
00000000
00001000
,
00001001
00000001
00000001
00000000
00000001
00000000
00000100
00000000
,
00000100
00001000
00010000
00000000
00010000
00001000
00010000
00000000
,
00000100
00010000
00001000
00000000
00001000
00000000
01000000
00000000
,
00010000
00000000
00000100
00000000
00001000
00010000
01000000
00000000
,
10010000
10000000
10000000
00000000
10000000
00000000
01000000
00000000
,
01000000
00010000
00001000
00000000
00001000
00010000
00001000
00000000
,
01000000
00001000
00010000
00000000
00010000
00000000
00000100
00000000
,
00001000
00000000
01000000
00000000
00010000
00001000
00000100
00000001
,
00002000
00000001
00000000
00000000
00000001
00000001
00000000
00000000
,
00000001
00000001
00000000
00000000
00000001
00000001
00003000
00000000
;

//---------------dance-double - ----------------
#NOTEDATA:;
#CHARTNAME:;
#STEPSTYPE:dance-double;
#DESCRIPTION:;
#CHARTSTYLE:;
#DIFFICULTY:Hard;
#METER:9;
#RADARVALUES:0.446,0.413,0.814,0.000,0.000,204.000,72.000,0.000,0.000,0.000,0.000,0.000,0.000,0.446,0.413,0.814,0.000,0.000,204.000,72.000,0.000,0.000,0.000,0.000,0.000,0.000;
#CREDIT:;
#OFFSET:1.888;
#BPMS:0.000=93.990
;
#STOPS:;
#DELAYS:;
#WARPS:;
#TIMESIGNATURES:0.000=4=4
;
#TICKCOUNTS:0.000=4
;
#COMBOS:0.000=1
;
#SPEEDS:0.000=1.000=0.000=0
;
#SCROLLS:0.000=1.000
;
#FAKES:;
#LABELS:0.000=Song Start
;
#DISPLAYBPM:84.000;
#NOTES:
00000000
00000000
00000000
00000000
,
00000000
00000000
00000000
00000000
,
00000000
00000000
00000000
00000000
,
00000001
00000001
00001001
00000001
00000000
00001000
00001001
00000000
,
00001000
00001000
00001001
00001000
00000000
00000001
00001000
00000001
,
00001000
00000001
00000101
00001000
00000000
00001000
00011000
00000000
,
00010000
01000000
10010000
00010000
00000000
00010000
10010000
00000000
,
10000000
00100000
01010000
00010000
00000000
00100000
01100000
00000000
,
01000000
10000000
10010000
00100000
00000000
00100000
01100000
00000000
,
10010000
10000000
11000000
00010000
00000000
00000000
00000000
00000000
,
00001000
00000100
00001001
00001001
00000000
00000000
00000000
00001001
,
00000001
00000010
00000110
00001000
00000000
00000010
00000110
00000000
,
00000100
00000001
00001001
00000010
00000000
00000010
00000110
00000000
,
00001001
00000001
00000100
00000100
00000000
00001000
00010000
00000100
,
00010000
00001000
00100000
01000000
00000000
01000000
10000000
10000000
,
10000000
00010000
00100000
01000000
00100000
10000000
00010000
10000000
,
00010000
00000000
00100000
00000000
01000000
10000000
00010000
00100000
,
10010000
10000000
01000000
01000000
00000000
00010000
00001000
01000000
,
00001000
00010000
00000010
00000100
00000000
00000100
00000001
00000001
,
00000001
00001000
00000010
00000100
00000010
00000001
00001000
00000001
,
00001000
00000000
00000010
00000000
00000100
00000001
00001000
00000010
,
00000110
00000110
00000000
00000110
00000001
00001100
00000000
00010000
,
00011000
00011000
00000000
01010000
00100000
11000000
00000000
00010000
,
01100000
01100000
00000000
01100000
10000000
01010000
00000000
00001000
,
00011000
00011000
00000000
00001100
00000010
00000101
00000010
00000100
,
00001001
00000100
00001001
00000000
00000110
00000001
00000110
00000000
,
00001100
00010000
00011000
00001000
01010000
00010000
00001000
00000000
,
00011000
01000000
00011000
00000000
01010000
00001000
01010000
00000000
,
10100000
01000000
01100000
00010000
00110000
01000000
11000000
00000000
,
10010000
01000000
10010000
00000000
01100000
10000000
01100000
00000000
,
01010000
00001000
00011000
00010000
00001100
00001000
00010000
00000000
,
00011000
00000100
00011000
00000000
00001100
00010000
00001100
00000000
,
00000011
00000100
00000110
00001000
00001010
00000100
00000101
00000010
,
00000100
00000100
00001100
00000000
00010000
00010000
00011000
00000000
,
00000100
00000100
00001100
00000000
00010000
00010000
00011000
00000000
;

//---------------dance-single - ----------------
#NOTEDATA:;
#CHARTNAME:;
#STEPSTYPE:dance-single;
#DESCRIPTION:;
#CHARTSTYLE:;
#DIFFICULTY:Beginner;
#METER:1;
#RADARVALUES:0.084,0.078,0.023,0.000,0.000,50.000,2.000,0.000,0.000,0.000,0.000,0.000,0.000,0.084,0.078,0.023,0.000,0.000,50.000,2.000,0.000,0.000,0.000,0.000,0.000,0.000;
#CREDIT:;
#OFFSET:1.888;
#BPMS:0.000=93.990
;
#STOPS:;
#DELAYS:;
#WARPS:;
#TIMESIGNATURES:0.000=4=4
;
#TICKCOUNTS:0.000=4
;
#COMBOS:0.000=1
;
#SPEEDS:0.000=1.000=0.000=0
;
#SCROLLS:0.000=1.000
;
#FAKES:;
#LABELS:0.000=Song Start
;
#DISPLAYBPM:84.000;
#NOTES:
// measure 0
0000
0000
0000
0000
,  // measure 1
0000
0000
0000
0000
,  // measure 2
0000
0000
0000
0000
,  // measure 3
1000
0000
0000
0000
,  // measure 4
0001
0000
0000
0000
,  // measure 5
0001
0000
0010
0000
,  // measure 6
1000
0000
0010
0000
,  // measure 7
0001
0000
0000
0001
,  // measure 8
0001
0000
0001
0000
,  // measure 9
1000
0000
0010
0000
,  // measure 10
0001
0000
0010
0000
,  // measure 11
1000
0000
0000
1000
,  // measure 12
1000
0000
1000
0000
,  // measure 13
0010
0000
0000
0000
,  // measure 14
0001
0000
0000
0000
,  // measure 15
0100
0000
0000
0000
,  // measure 16
1000
0000
0000
0000
,  // measure 17
0010
0000
0000
0000
,  // measure 18
1000
0000
0000
0000
,  // measure 19
0100
0000
0000
0000
,  // measure 20
0001
0000
0000
0000
,  // measure 21
1001
0000
0000
0000
,  // measure 22
0100
0000
0000
0000
,  // measure 23
0110
0000
0000
0000
,  // measure 24
0100
0000
0000
0000
,  // measure 25
0001
0001
0000
0000
,  // measure 26
0100
0000
0100
0000
,  // measure 27
1000
1000
0000
0000
,  // measure 28
0010
0000
0010
0000
,  // measure 29
1000
1000
0000
0000
,  // measure 30
0100
0000
0100
0000
,  // measure 31
0001
0001
0000
0000
,  // measure 32
0010
0000
0010
0000
,  // measure 33
0100
0000
0100
0000
,  // measure 34
0100
0000
0100
0000
;

//---------------dance-single - ----------------
#NOTEDATA:;
#CHARTNAME:;
#STEPSTYPE:dance-single;
#DESCRIPTION:;
#CHARTSTYLE:;
#DIFFICULTY:Challenge;
#METER:13;
#RADARVALUES:0.627,0.612,0.260,0.645,0.548,308.000,23.000,57.000,0.000,0.000,0.000,0.000,0.000,0.627,0.612,0.260,0.645,0.548,308.000,23.000,57.000,0.000,0.000,0.000,0.000,0.000;
#CREDIT:;
#OFFSET:1.888;
#BPMS:0.000=93.990
;
#STOPS:;
#DELAYS:;
#WARPS:;
#TIMESIGNATURES:0.000=4=4
;
#TICKCOUNTS:0.000=4
;
#COMBOS:0.000=1
;
#SPEEDS:0.000=1.000=0.000=0
;
#SCROLLS:0.000=1.000
;
#FAKES:;
#LABELS:0.000=Song Start
;
#DISPLAYBPM:84.000;
#NOTES:
0000
0000
0000
0000
,
0000
0000
0000
0000
,
0000
0000
0000
0000
,
0000
0000
0000
0000
,
1000
1000
0100
0010
0001
0000
0001
0010
0010
0000
1000
0010
1000
0000
0100
0100
,
0001
0100
0010
1000
0100
0000
2000
0000
0100
0000
0010
0000
3001
0000
0100
0000
,
0100
1000
0001
0010
2100
0000
0001
0000
3010
0000
0001
0000
2001
0000
0000
3000
,
0011
0001
0100
0110
0010
1000
1100
0000
0100
0000
0001
0000
1001
0000
0020
0000
,
0032
2003
3020
0230
0302
0023
0230
2300
,
3010
0100
0001
0100
0020
0000
0100
0100
0100
0100
0100
0000
1000
0000
1000
0000
,
1030
0001
1000
0100
0020
0000
0001
0001
0001
0001
0031
0000
1100
0000
0110
0000
,
0012
0010
0010
0010
0013
0000
0100
1000
0100
0000
0001
0010
0100
1000
0010
0100
,
0001
1000
0210
0000
0001
0000
0010
0000
1300
0000
0010
0000
0100
0000
0001
0000
,
1000
0000
0010
0000
0001
0000
0100
0000
1000
0100
1000
0100
1000
0100
1000
0100
,
1000
0010
0100
0001
0000
1001
1001
0000
0000
0000
0002
0000
0023
0000
0230
0000
,
2300
0000
0000
3200
0010
0000
0320
0000
0000
0001
0031
0000
0100
0000
0001
0000
,
0010
0001
0010
0001
0000
0010
0100
0010
0100
0000
1000
0010
0100
0000
0001
1000
,
0200
0000
0000
2300
0000
0000
3002
0000
0000
0023
0000
0000
0230
0000
0000
0000
,
0302
0000
0000
0203
0000
0000
0020
0000
0330
0000
1000
0000
0001
0000
0100
0000
,
0020
0000
0000
0001
0001
0000
0200
0000
0330
0000
0010
0000
1000
1000
1000
0000
,
1001
0100
0010
0001
0000
1000
0001
0000
0000
0000
0001
0000
1000
0000
0100
0000
,
0022
0000
0033
0000
1001
1000
0100
0000
,
2200
0000
3300
0220
0000
0330
0022
0033
,
2200
0000
3300
0000
0220
0000
0330
0000
0022
0033
1000
0010
0100
0001
0010
0100
,
1000
0000
0000
1000
0001
0000
0000
0001
0100
0000
0010
0000
1000
0100
0001
0100
,
0010
0001
0010
0100
1000
0000
0010
0100
0001
1000
0010
0100
0001
0000
0001
0010
,
0001
0010
0100
1000
0100
0010
0001
0100
0010
0000
0001
0000
1000
0010
0100
0001
,
1000
0000
0100
0000
0001
0100
1000
0100
0001
0000
1000
0000
0100
0010
0001
0010
,
0100
0000
1000
0000
0100
0000
0022
0000
0000
0000
0000
0000
0033
0000
1000
0100
,
0010
0000
0001
0000
0010
0100
1000
0100
0010
0000
1000
0000
0001
0100
0010
0100
,
0002
0000
0020
0003
0200
0030
2000
0300
0002
3000
0020
0003
0030
0000
0010
0100
,
0001
1000
0010
0100
0001
0000
0100
0010
0001
1000
0001
0010
0100
0000
0001
1000
,
0021
0000
0000
0000
0001
0000
0001
0000
0000
0000
1000
0000
0100
0000
0100
0100
,
0130
0001
1000
0010
0100
0000
0001
0010
0010
0000
0001
0010
0010
0010
0001
0000
,
1000
0000
0000
0000
0100
0000
0000
0000
0010
0000
0000
0000
0001
0000
0000
0000
1000
0000
0000
0000
0000
0000
0000
0000
0001
0000
0000
0000
0100
0000
0000
0000
0010
0000
0000
0000
1000
0000
0000
0000
0100
0000
0000
0000
0010
0000
0000
0000
0001
0000
0000
0000
2000
0000
0000
0000
0002
3003
0000
0000
0000
0000
0000
0000
;

//---------------dance-double - ----------------
#NOTEDATA:;
#CHARTNAME:;
#STEPSTYPE:dance-double;
#DESCRIPTION:;
#CHARTSTYLE:;
#DIFFICULTY:Challenge;
#METER:12;
#RADARVALUES:0.496,0.513,0.113,0.147,0.413,284.000,10.000,13.000,0.000,0.000,0.000,0.000,0.000,0.496,0.513,0.113,0.147,0.413,284.000,10.000,13.000,0.000,0.000,0.000,0.000,0.000;
#CREDIT:;
#OFFSET:1.888;
#BPMS:0.000=93.990
;
#STOPS:;
#DELAYS:;
#WARPS:;
#TIMESIGNATURES:0.000=4=4
;
#TICKCOUNTS:0.000=4
;
#COMBOS:0.000=1
;
#SPEEDS:0.000=1.000=0.000=0
;
#SCROLLS:0.000=1.000
;
#FAKES:;
#LABELS:0.000=Song Start
;
#DISPLAYBPM:94.000;
#NOTES:
00000000
00000000
00000000
00000000
,
00000000
00000000
00000000
00000000
,
00000000
00000000
00000000
00000000
,
00000000
00000000
00000000
00000000
,
00000001
00001000
00000100
00000000
00000010
00000000
00001000
00010000
00010000
00000000
00100000
00000000
10000000
00000000
01000000
00000000
,
00010000
00100000
00001000
00000001
00000100
00000010
00001000
00010000
,
01000000
00010000
10100000
00000000
00010000
00100000
00011000
00000000
,
00001000
00010000
00001000
00010000
00001000
00010000
00001000
00000000
00000001
00000000
00000010
00000000
00000100
00000000
00002000
00000000
,
00023000
00000000
20030000
00000000
30200000
00000000
02300000
00000000
03010000
00000000
00100000
00010000
00100000
00000100
00001000
00000100
,
00000001
00000010
00000100
00001000
00002000
00010000
00103000
01000000
,
00100000
01000000
00010000
10000000
00200000
00000000
00010000
00010000
00010000
00000000
00300000
00000000
01010000
00000000
10010000
00000000
,
00001000
00100000
00010000
00000000
00000010
00000000
00000001
00001000
00000100
00000000
00010000
00100000
01000000
10000000
00100000
01000000
,
00010000
10000000
00100000
00000000
00001000
00000000
00000001
00000000
00000100
00000000
00000010
00000000
00001000
00000000
00010000
00000000
,
00100000
00000000
01000000
00000000
10000000
00000000
01000000
00000000
00010000
00100000
00001000
00010000
00000100
00001000
00000010
00000100
,
00000001
00000000
00000100
00001000
00000000
00000000
00010000
00000000
00000000
00000000
01000000
00000000
00100000
00000000
10000000
00000000
,
00010000
00000000
00000000
00000000
00001000
00000000
00000010
00000000
00000000
00000100
00000001
00000000
00001000
00000000
00000100
00000000
,
00001000
00010000
00100000
01000000
00000000
10000000
00010000
01000000
00100000
00000000
10000000
01000000
00100000
00000000
00010000
00001000
,
00000100
00000000
00000000
00000011
00000000
00000000
00001000
00000000
00000000
00000010
00000000
00000000
00000100
00000000
00000000
00000000
,
00010000
00000000
00000000
00100000
00000000
00000000
01000000
00000000
00000000
00000000
10000000
00000000
00010000
00000000
01000000
00000000
,
00200000
00000000
00000000
00000000
00010000
00000000
00001000
00000000
00300000
00000000
00010000
00000000
00000100
00001000
00000010
00000000
,
00000001
00000000
00000100
00001000
00000000
00000000
00000100
00000000
00000000
00000000
00010000
00000000
10000000
00000000
01000000
00000000
,
00120000
00000000
00000100
00000000
00031000
00000001
00000100
00000000
,
00000110
00000000
00000000
00002000
00000000
00000000
00013000
00000000
,
00100000
00000000
00000000
00000000
10000000
00000000
00000000
00000000
00100000
00000000
10000000
01000000
00100000
00010000
00100000
00010000
,
00100000
00000000
00000000
00000000
00110000
00000000
00000000
00000000
00001100
00000000
00001000
00000000
00000001
00000100
00000010
00001000
,
00000100
00000000
00001000
00000000
00010000
00000000
10000000
01000000
00010000
00000000
00100000
01000000
00010000
00000000
10000000
01000000
,
00010000
00100000
00001000
00010000
00100000
00010000
00001000
00010000
00000100
00000000
00000001
00000000
00000010
00000100
00001000
00010000
,
00001000
00000000
00010000
00000000
00100000
10000000
00010000
10000000
00100000
00000000
01000000
00000000
10000000
00100000
00010000
00001000
,
00010000
00000000
00000100
00000000
00000010
00000000
00000002
00000000
00000000
00000000
00000000
00000000
00000003
00000000
00001000
00001000
,
00001000
00000000
00000100
00000000
00000001
00000010
00001000
00000100
00010000
00000000
00100000
00000000
10000000
00100000
01000000
00010000
,
00100000
00000000
00010000
00000000
00100000
00000000
00001000
00000000
00000010
00000000
00000100
00000000
00000001
00000000
00001000
00010000
,
00001000
00000000
00100000
00010000
01000000
00000000
10000000
00100000
01000000
00010000
10000000
00100000
01000000
00000000
00010000
00001000
,
00000010
00000000
00000000
00000000
00000100
00000000
00001000
00000000
00000000
00000000
00000001
00000000
00000010
00000000
00001000
00001000
,
00001000
00010000
10000000
00100000
01000000
00000000
00010000
00100000
00100000
00000000
00010000
00001000
00001000
00001000
00000100
00000000
,
00000001
00000000
00000000
00000000
00000100
00000000
00000000
00000000
00000010
00000000
00000000
00000000
00001000
00000000
00000000
00000000
00000100
00000000
00000000
00000000
00000000
00000000
00000000
00000000
00010000
00000000
00000000
00000000
00000000
00000000
00000000
00000000
00100000
00000000
00000000
00000000
10000000
00000000
00000000
00000000
01000000
00000000
00000000
00000000
00000000
00000000
00000000
00000000
00010000
00000000
00000000
00000000
00001000
00000000
00000000
00000000
00022000
00033000
00000000
00000000
00000000
00000000
00000000
00000000
;
