#TITLE:フー・フローツ;
#SUBTITLE:;
#ARTIST:Nanako;
#TITLETRANSLIT:who floats;
#SUBTITLETRANSLIT:;
#ARTISTTRANSLIT:;
#GENRE:;
#CREDIT:;
#BANNER:Who Floats.png;
#BACKGROUND:Who Floats-bg.png;
#LYRICSPATH:;
#CDTITLE:./CDTitles/jubeat saucer.png;
#MUSIC:Who Floats.ogg;
#OFFSET:0.000;
#SAMPLESTART:58.660;
#SAMPLELENGTH:15.000;
#SELECTABLE:YES;
#BPMS:0.000=180.000
;
#STOPS:
;
#BGCHANGES:;
#KEYSOUNDS:;
#ATTACKS:;

//---------------dance-single - ----------------
#NOTES:
     dance-single:
     :
     Hard:
     12:
     0.612,0.622,0.284,0.082,0.064,428.000,31.000,9.000,0.000,0.000,0.000,0.612,0.622,0.284,0.082,0.064,428.000,31.000,9.000,0.000,0.000,0.000:
0000
0000
0000
0000
,
0000
0000
0000
0000
,
0000
0000
0000
0000
,
0000
0000
0000
0000
,
0010
0001
0000
0100
0000
0001
0000
0010
,
0000
0100
1000
0010
,
0001
1000
0000
0100
0000
0010
0000
0011
,
0000
0010
0100
0010
,
1000
0010
0000
1000
0000
0001
0000
0010
,
0000
0100
1000
0010
,
1000
0000
0000
0000
0001
0000
0000
0220
,
0000
0000
0000
0330
,
0001
0000
0010
0000
0100
0000
1000
0000
0001
0000
1000
0100
1000
0000
0100
0000
,
0010
0100
0010
0100
0010
0001
0010
0001
,
1000
0010
0100
0001
0100
0100
0001
0100
,
1000
0100
0001
0100
0010
1000
0001
1000
,
0100
1000
0100
1000
0010
0010
1000
0001
,
0010
0001
0100
0010
1000
0100
0010
0001
,
1000
0001
0000
0001
0000
0000
0100
1100
,
0000
0000
0000
0000
,
2002
0000
0000
0000
0000
3003
0000
0010
,
2000
0000
0000
3000
,
0200
0000
0000
0000
0000
0300
0000
0001
,
0020
0000
0000
0030
,
0100
0100
1000
1000
,
0010
0010
0001
0001
,
0100
0000
1000
0000
0010
0000
0001
1000
,
0001
0000
0000
0000
,
1000
0100
0010
0001
0000
1000
0001
0100
,
0000
0010
1000
0100
0000
0010
0100
1000
,
0001
0000
1000
0100
0000
0100
0000
0010
,
0001
0010
1000
0010
,
0001
0100
0010
0100
0000
0010
1000
0100
,
0000
0011
0000
1100
0000
0011
0000
1100
,
0100
1000
0100
0010
0001
1000
0001
0010
,
0100
1000
0001
0100
0010
1000
0010
0100
,
0001
1000
0110
1001
,
0110
0000
0000
0000
1000
0100
0001
0000
,
1000
0001
0110
1001
,
0110
0000
0000
0000
0001
0100
1000
0000
,
0001
0001
0100
0010
0010
0100
1000
1000
,
0100
0010
0010
0100
0010
1000
0001
1000
,
0010
1010
1001
0101
,
1100
0000
0000
0000
,
0001
0010
0001
0010
0100
1000
0100
1000
,
0001
1000
0001
1000
0010
0100
0010
0100
,
0001
0010
0001
1000
0000
1010
0000
0101
,
0000
0010
0100
0000
1000
0001
0100
0000
,
1000
0100
0001
0100
1000
0000
0001
0010
,
1000
0010
0001
0000
1000
0100
0001
0100
,
1000
0000
0001
0010
0000
1100
0000
0101
,
0000
0010
0001
0100
,
1000
0010
1000
0010
0100
0001
0100
0001
,
1000
0001
1000
0001
0010
0100
0010
0100
,
1000
0010
1000
0001
0000
0011
0000
1100
,
0000
0010
0100
0000
0001
1000
0100
0000
,
0001
0100
1000
0100
0001
0000
1000
0010
,
0001
0010
1000
0000
0001
0100
1000
0100
,
0001
0000
1000
0010
0000
0101
0000
1100
,
0000
0000
0010
0000
1000
0000
0100
1000
,
0001
0000
0011
0000
1100
0000
0010
0001
,
1000
0000
0101
0000
1100
0000
0010
1000
,
0001
0000
0000
0100
0010
0000
0000
0000
,
0001
1000
0010
0100
0000
0010
1000
0010
,
0001
0000
1000
0000
0100
0000
0001
0000
0100
0000
1000
0000
,
0002
0000
0020
0033
,
1000
1000
0100
0010
0010
0100
0001
0001
,
0100
0010
0010
0100
1000
0100
0010
0001
,
0010
0001
0000
0000
0100
0001
0000
0000
0010
1000
0000
0000
0100
1000
0000
0000
,
0010
0100
0000
0000
0001
1000
0000
0000
0100
0010
0000
0000
1000
0001
0000
0000
,
1000
0000
0010
0000
0100
0000
0001
0000
1000
0000
0001
0100
0001
0000
0100
0000
,
0010
0100
0010
0100
0010
1000
0010
1000
,
0001
0010
0100
1000
0100
0100
1000
0100
,
0001
0100
1000
0100
0010
0001
1000
0001
,
0100
0001
0100
0001
0010
0010
0001
1000
,
0010
1000
0100
0010
0001
0100
0010
1000
,
0001
1000
0010
1000
0100
1000
0001
1000
,
1000
0001
0010
0001
0100
0001
1000
0001
,
0001
0010
0100
1000
0001
0100
0010
1000
,
1000
0010
0100
0001
1000
0100
0010
0001
,
1001
0000
0000
0000
;

//---------------dance-double - ----------------
#NOTES:
     dance-double:
     :
     Hard:
     12:
     0.608,0.622,0.238,0.091,0.069,429.000,26.000,10.000,0.000,0.000,0.000,0.608,0.622,0.238,0.091,0.069,429.000,26.000,10.000,0.000,0.000,0.000:
00000000
00000000
00000000
00000000
,
00000000
00000000
00000000
00000000
,
00000000
00000000
00000000
00000000
,
00000000
00000000
00000000
00000000
,
00000010
00001000
00000000
00000100
00000000
00001000
00000000
00000001
,
00000000
00000100
00001000
00010000
,
01000000
10000000
00000000
00010000
00000000
01000000
00000000
10200000
,
00000000
00000000
01000000
01300000
,
00100000
10000000
00000000
01000000
00000000
00100000
00000000
00001000
,
00000000
00000010
00000001
00000100
,
00000010
00000000
00000000
00000000
00001000
00000000
00000000
00000202
,
00000000
00000000
00000000
00000303
,
00001000
00000000
00000100
00000000
00001000
00000000
00000100
00000000
00000010
00000000
00000001
00000100
00000001
00000000
00000100
00000000
,
00001000
00000100
00001000
00000100
00001000
00010000
00001000
00010000
,
01000000
10000000
01000000
10000000
00010000
00010000
01000000
00100000
,
10000000
00100000
10000000
00100000
10000000
01000000
10000000
01000000
,
00010000
00001000
00010000
00001000
00000100
00000100
00000001
00000100
,
00000001
00000010
00000001
00000010
00000100
00001000
00000100
00001000
,
00000010
00010000
00000000
00100000
00000000
00000000
10000000
00010000
,
00000000
00000000
00000000
00000000
,
02200000
00000000
00000000
00000000
00000000
03300000
00000000
10000000
,
00200000
00000000
00000000
00300000
,
00020000
00000000
00000000
00000000
00000000
00030000
00000000
00001000
,
00000020
00000000
00000000
00000030
,
00000001
00000001
00000100
00000100
,
00001000
00010000
01000000
10000000
,
00010000
00000000
01000000
00000000
00100000
00000000
10000000
00010000
,
10000000
00000000
00000000
00000000
,
00100000
10000000
01000000
00000000
00100000
00001000
01000000
00000000
,
00100000
00010000
00001000
00000000
00000100
00000010
00001000
00000000
,
00000100
00000010
00000001
00000100
00000000
00001000
00000000
00000100
,
00000001
00001000
00000100
00000000
00000010
00001000
00000010
00001000
,
00010000
01000000
00100000
00000000
00010000
10000000
00100000
00000000
,
01000000
00010000
00100000
00000000
01000000
10000000
00100000
00000000
,
00010000
00100000
01000000
00100000
00010000
00001000
00000100
00000010
,
00001000
00000100
00000001
00000100
00001000
00000001
00000100
00000010
,
00001000
00000001
00001010
00011000
,
00110000
00000000
00000000
00000000
00010000
00100000
01000000
10000000
,
00100000
10000000
01010000
00011000
,
00001100
00000000
00000000
00000000
00001000
00000100
00000001
00000000
,
00001000
00001000
00000100
00000010
00000010
00000001
00000100
00000100
,
00001000
00010000
00010000
00100000
10000000
00010000
00100000
01000000
,
01000000
11000000
01010000
00110000
,
10100000
00000000
00000000
00000000
,
00010000
00100000
01000000
00100000
00001000
00010000
00000010
00001000
,
00000001
00000100
00001000
00000100
00000001
00000010
00000100
00001000
,
00010000
00000000
00100000
01000000
00000000
11000000
00000000
01010000
,
00000000
00001000
00010000
00000000
00100000
10000000
01000000
00000000
,
00001000
00010000
00100000
00010000
00001000
00000000
00100000
00010000
,
00001000
00010000
00100000
00000000
00001000
00010000
00000100
00001000
,
00000010
00000000
00000001
00000100
00000000
00000110
00000000
00001001
,
00000000
00000010
00010000
00000100
,
00001000
00000010
00000100
00000010
00010000
00001000
00100000
00010000
,
10000000
01000000
00010000
01000000
10000000
00100000
01000000
00010000
,
00001000
00000000
00000010
00000100
00000000
00000101
00000000
00001100
,
00000000
00010000
00001000
00000000
00000010
00000001
00000100
00000000
,
00010000
00001000
00000010
00001000
00010000
00000000
00000010
00001000
,
00010000
00001000
00000010
00000000
00010000
00001000
01000000
00010000
,
00100000
00000000
10000000
01000000
00000000
01100000
00000000
10010000
,
00000000
00000000
00100000
00000000
00010000
00000000
00001000
00010000
,
00000010
00000000
00001010
00000000
00000101
00000000
00000010
00000001
,
00000100
00000000
00001100
00000000
00011000
00000000
01000000
00010000
,
10000000
00000000
00000000
01000000
00100000
00000000
00000000
00000000
,
00010000
00000000
00000000
01000000
00000000
00000000
00100000
00000000
00000000
10000000
00000000
00000000
00000000
00000000
00000000
00100000
00000000
00000000
00000000
00000000
01000000
00000000
00000000
00000000
,
00010000
00000000
10000000
00000000
01000000
00000000
00010000
00000000
00001000
00000000
00000100
00000000
,
00000002
00000000
00000020
00000033
,
00000001
00000001
00000100
00000010
00000010
00000100
00001000
00001000
,
00000100
00000010
00000010
00010000
00001000
01000000
00100000
10000000
,
00010000
01000000
00000000
00000000
01000000
10000000
00000000
00000000
10000000
00100000
00000000
00000000
00100000
00010000
00000000
00000000
,
00010000
00001000
00000000
00000000
00001000
00000010
00000000
00000000
00000010
00000001
00000000
00000000
00000001
00000100
00000000
00000000
,
00001000
00000000
00000100
00000000
00001000
00000000
00000100
00000000
00000010
00000000
00000001
00000100
00000001
00000000
00000100
00000000
,
00001000
00000100
00001000
00000100
00001000
00010000
00001000
00010000
,
01000000
10000000
01000000
10000000
00010000
00010000
01000000
00100000
,
10000000
00100000
10000000
00100000
10000000
01000000
10000000
01000000
,
00010000
00001000
00010000
00001000
00000100
00000100
00000001
00000100
,
00000001
00000010
00000001
00000010
00000100
00001000
00000100
00001000
,
00000001
00000100
00000010
00010000
00001000
00100000
00010000
10000000
,
00100000
01000000
00001000
00010000
00000100
00001000
00000001
00000010
,
00000100
00000010
00000001
00000100
00001000
00010000
01000000
10000000
,
00010000
01000000
00100000
10000000
01000000
00010000
00001000
00000010
,
00000011
00000000
00000000
00000000
;

//---------------dance-single - ----------------
#NOTES:
     dance-single:
     :
     Challenge:
     15:
     0.853,1.000,0.905,0.183,0.252,534.000,99.000,20.000,0.000,0.000,0.000,0.853,1.000,0.905,0.183,0.252,534.000,99.000,20.000,0.000,0.000,0.000: // measure 0
0000
0000
0000
0000
,  // measure 1
0000
0000
0000
0000
,  // measure 2
0000
0000
0000
0000
,  // measure 3
0000
0000
0000
0000
,  // measure 4
1000
0001
0000
1100
0000
0101
0000
0110
,  // measure 5
0000
1000
0100
0000
0010
0001
0100
1000
,  // measure 6
0010
1000
0000
0110
0000
1010
0000
0011
,  // measure 7
0000
0010
0001
0000
0100
0001
0010
1000
,  // measure 8
0100
0010
0000
1001
0000
0110
0000
1001
,  // measure 9
0000
0010
1000
0000
0001
1000
0010
0100
,  // measure 10
0001
0000
0010
0000
0001
0000
1000
0220
,  // measure 11
0000
0000
0000
0330
,  // measure 12
1000
0000
0100
1000
0100
0000
0010
0000
0001
0000
0100
0001
0100
0000
0010
0000
,  // measure 13
1000
0000
0001
0000
0010
0000
0100
0000
1000
0000
0001
0000
0010
0100
0010
0000
,  // measure 14
1000
0000
0010
0000
0100
0000
0001
0010
0001
0000
1000
0000
0010
0000
0100
0000
,  // measure 15
0001
0000
0010
0000
1000
0000
0010
0100
0010
0000
0001
0000
0100
0000
1000
0000
,  // measure 16
0100
0000
0010
0000
0001
0000
0100
0010
0100
0000
0010
0000
0001
0000
1000
0000
,  // measure 17
0010
0000
1000
0000
0100
0000
0010
0001
0010
0000
0001
0000
1000
0000
0100
0000
,  // measure 18
0010
0001
0100
0001
1000
0010
0100
0220
,  // measure 19
0000
0000
0000
0000
0330
0000
1001
0010
,  // measure 20
0110
0000
0002
0010
0000
1000
0000
0100
,  // measure 21
0023
0001
0000
0100
0000
1000
0000
0100
,  // measure 22
2030
0001
0100
0100
3000
0010
0000
0001
,  // measure 23
2002
0000
0000
3003
0001
0100
1000
0010
,  // measure 24
0001
0000
0200
0010
0000
1000
0000
0010
,  // measure 25
0000
0001
0000
0010
0000
1000
0000
0010
,  // measure 26
0310
0000
0001
1000
1001
0000
0010
0100
,  // measure 27
0220
0000
0000
0330
1000
0010
0100
0001
,  // measure 28
0100
0010
0001
1000
0010
0100
0001
0100
,  // measure 29
0010
0001
1000
0100
0010
0100
1000
0100
,  // measure 30
0001
0010
0100
0001
0100
1000
0010
0100
,  // measure 31
0001
0000
0010
0001
1000
0010
1000
0100
,  // measure 32
0001
0100
0010
0100
0000
0011
1000
0100
,  // measure 33
0000
1010
0000
0110
0000
1001
0000
0101
,  // measure 34
0001
0010
1000
0001
0100
1000
0001
0010
,  // measure 35
1000
0010
0001
1000
0100
0001
1000
0010
,  // measure 36
1010
0010
0010
0010
0110
0000
0101
0000
,  // measure 37
0022
0000
0033
0000
0011
0010
0010
0010
,  // measure 38
0110
0010
0011
0010
1001
1000
1100
1000
,  // measure 39
2020
0000
0000
0000
3030
0000
0000
0000
1001
0000
1000
0100
1000
0100
1000
0100
,  // measure 40
1000
1100
0000
0011
0011
0000
1001
1001
,  // measure 41
0000
0011
0011
0000
0010
0001
1000
0100
,  // measure 42
0010
0010
0110
0010
1010
0010
0110
0010
,  // measure 43
0022
0000
0000
0033
,  // measure 44
0110
0010
0010
0010
0011
0010
0010
0010
,  // measure 45
1010
0100
0010
0001
0100
1000
0100
0001
,  // measure 46
0011
0000
0100
0110
0000
1010
0000
0021
,  // measure 47
0001
0100
1030
0100
,  // measure 48
0001
0100
1000
0100
1001
0000
1000
0100
,  // measure 49
0001
0100
1001
0000
0001
0100
1000
0100
,  // measure 50
1001
0000
0001
0101
0000
0110
0000
1010
,  // measure 51
0000
1001
0100
0100
0110
0100
0100
0100
,  // measure 52
0011
0001
0001
0001
1001
0001
0001
0001
,  // measure 53
0101
0100
0010
1000
0001
0100
1000
0010
,  // measure 54
0001
0000
0100
1001
0000
1010
0000
0101
,  // measure 55
0000
0000
0110
0000
1001
0000
0001
0010
0001
0000
0100
0000
1000
0000
0100
0000
,  // measure 56
1000
0010
0001
0010
1001
0000
0001
0010
,  // measure 57
1000
0010
1001
0000
1000
0010
0001
0010
,  // measure 58
1001
0000
1000
0010
0000
0101
0000
1100
,  // measure 59
0000
0000
0001
0000
0010
0000
1000
0001
1000
0000
0010
0000
0100
0001
0100
0000
,  // measure 60
1001
0000
0001
0000
0011
0000
0000
0000
1100
0000
0000
0100
0010
0000
0001
0000
,  // measure 61
1100
0000
0100
0000
0101
0000
0000
0000
0110
0000
0000
0100
0010
0000
0001
0000
,  // measure 62
1000
0100
0010
0002
0000
0000
0000
0000
,  // measure 63
0013
0100
0001
1000
0000
0100
0001
0100
,  // measure 64
1100
0000
1001
0000
0011
0000
1010
0000
0110
0000
0101
0000
,  // measure 65
1000
0010
1000
0010
1000
0010
1000
0010
1000
0001
1000
0001
1000
0001
1000
0001
,  // measure 66
0100
0110
0000
0011
0011
0000
1010
1010
,  // measure 67
0000
0101
0101
0000
0010
0001
0100
1000
,  // measure 68
0010
0001
1000
0001
0010
0001
1000
0001
0010
0001
1000
0001
,  // measure 69
1000
0100
1000
0001
1000
0100
1000
0001
1000
0100
1000
0001
,  // measure 70
1000
0000
0100
0000
0001
0000
0100
0000
1000
0000
0010
1000
0010
0000
0100
0000
,  // measure 71
0001
0100
0001
0000
0010
0000
0100
0000
1000
0000
0010
0000
0100
0000
0001
0000
,  // measure 72
0011
0000
0100
0000
0010
0000
0001
1000
0001
0000
0100
0000
0001
0000
0010
0000
,  // measure 73
0110
0000
0001
1000
0001
0000
0010
0000
0100
0000
1000
0000
0010
0000
0100
0000
,  // measure 74
1100
1000
0010
0100
0001
0010
1000
0010
,  // measure 75
0001
0100
0100
1000
0100
0100
0010
0100
,  // measure 76
0011
0010
0010
0010
1010
0010
0010
0010
,  // measure 77
0110
0010
0010
0010
1001
1000
1000
1000
,  // measure 78
1100
1000
1000
1000
1001
0001
0001
0001
,  // measure 79
0010
0001
0010
0001
0010
0001
0010
0001
1000
0001
1000
0001
1000
0001
1000
0001
,  // measure 80
0100
0000
0000
0000
;

//---------------dance-double - ----------------
#NOTES:
     dance-double:
     :
     Challenge:
     15:
     0.809,1.000,0.905,0.183,0.229,500.000,99.000,20.000,0.000,0.000,0.000,0.809,1.000,0.905,0.183,0.229,500.000,99.000,20.000,0.000,0.000,0.000:
00000000
00000000
00000000
00000000
,
00000000
00000000
00000000
00000000
,
00000000
00000000
00000000
00000000
,
00000000
00000000
00000000
00000000
,
00001000
00010000
00000000
00001000
00000000
01000000
00000000
00000000
,
00000000
00000000
00000000
00000000
,
00100000
00010000
00000000
01010000
00000000
00011000
00000000
00010100
,
00000000
00000000
00000000
00000000
,
00000001
00000010
00000000
00001010
00000000
00011000
00000000
00101000
,
00000000
00100000
10010000
01000000
,
10100000
00000000
01000000
00000000
00001000
00000000
00000000
00022000
,
00000000
00000000
00000000
00033000
,
00010000
00000000
01000000
00000000
00100000
00000000
10000000
00000000
01000000
00000000
00100000
00010000
00100000
00000000
00001000
00000000
,
00010000
00000100
00001000
00000100
00000010
00000001
00000010
00000010
,
00010000
00000000
00001000
00000000
00100000
00000000
00001000
00010000
00001000
00000000
01000000
00000000
00010000
00000000
00100000
00000000
,
00001000
00000000
00010000
00000000
00100000
00000000
01000000
10000000
01000000
00000000
00100000
00000000
00001000
00000000
00010000
00000000
,
00001000
00000000
00010000
00000000
00000010
00000000
00001000
00000010
00001000
00000000
00000001
00000000
00000010
00000000
00001000
00000000
,
00010000
00000000
01000000
00000000
10000000
00000000
01000000
00010000
01000000
00000000
10000000
00000000
10100000
00000000
00000000
00000000
,
00100000
00010000
10000000
01000000
00010000
00001000
00000100
00002200
,
00000000
00000000
00000000
00000000
00003300
00000000
00010000
00000010
,
00020000
00000000
00100000
00100000
00000000
10000000
00000000
01000000
,
00000000
00001000
00000000
00000010
00000000
00000001
00000000
00000100
,
00031000
00000000
01000000
01000000
00000000
00010000
00000000
10000000
,
20020000
00000000
00000000
30030000
00010000
01000000
00001000
00010000
,
00000100
00000000
00002000
00000100
00000000
00000010
00000000
00010000
,
00000000
00100000
00000000
01000000
00000000
00010000
00000000
00100000
,
00103000
00000000
00010000
00001000
00010100
00000000
00001000
00010000
,
02002000
00000000
03003000
00000000
00010000
00010000
00010000
00010000
,
10000000
00100000
01000000
00010000
00100000
00001000
00010000
00001000
,
00000010
00000000
00000001
00000000
00000010
00000000
00000100
00000000
00001000
00000000
00010000
00001000
00010000
00000000
00000000
00000000
,
00010000
00100000
01000000
00001000
01000000
10000000
01000000
00100000
,
00010000
00000000
01100000
00000000
10100000
00100000
00100000
00100000
,
01000000
00010000
00100000
00001000
00000000
00010000
00001000
00000010
,
00000000
00000110
00000000
00011000
00000000
01100000
00000000
00010000
,
00001000
00000100
00000001
00000100
00001000
00000100
00000001
00000100
,
00010000
01000000
10000000
01000000
00010000
01000000
10000000
01000000
,
00110000
00010000
00010000
00010000
00011000
00000000
00001100
00000000
,
00020020
00000000
00030030
00000000
00000011
00000010
00000010
00000010
,
00001010
00001000
00001000
00001000
00011000
00001000
00001000
00001000
,
02002000
00000000
00000000
00000000
03003000
00000000
00000000
00000000
00010000
00000000
10000000
01000000
10000000
00000000
10000000
01000000
,
10000000
10010000
00000000
00101000
00101000
00000000
00010010
00010010
,
00000000
00001010
00001010
00000000
00000001
00000100
00001000
00010000
,
00100000
00100000
10100000
00100000
00110000
00100000
01100000
00100000
,
20200000
00000000
00000000
30300000
,
01100000
00100000
00100000
00100000
10100000
00100000
00100000
00100000
,
00110000
01000000
00100000
00010000
00000100
00001000
00000100
00000010
,
00000110
00000000
00001001
00001001
00000000
00001100
00000000
00022000
,
00000000
00000000
00000000
00033000
00100000
00000000
01000000
00000000
,
10000000
01000000
00010000
00001000
00000011
00000000
00000001
00000010
,
00001000
00010000
11000000
00000000
00010000
00020000
10000000
10030000
,
01000000
00000000
00011000
00011000
00000000
01001000
00000000
00011000
,
00000000
00010100
00001000
00000000
00001010
00001000
00001000
00001000
,
00011000
00010000
00010000
00010000
01010000
00010000
00010000
00010000
,
00110000
01000000
10000000
01000000
00010000
00100000
00001000
00100000
,
10010000
00000000
01000000
01100000
00000000
00011000
00000000
00000110
,
00000000
00000000
00000001
00000000
00000010
00000000
00000100
00001000
00000100
00000000
00000010
00000000
00000001
00000000
00000000
00000000
,
00000101
00001000
00010000
01000000
10100000
00000000
11000000
00010000
,
00001000
00000100
00000011
00000000
00001000
00001000
00010000
00001000
,
00011000
00000000
00010000
00100000
00000000
01010000
00000000
01100000
,
00000000
00000000
00011000
00000000
00001000
00000000
00100000
00010000
00100000
00000000
01000000
00000000
10000000
01000000
10000000
00000000
,
01100000
00000000
00000000
00000000
10010000
00000000
00000000
00000000
01100000
00000000
00000000
01000000
00100000
00000000
00010000
00000000
,
00001100
00000000
00000000
00000000
00000101
00000000
00000000
00000000
00000110
00000000
00000000
00000100
00000010
00000000
00001000
00000000
,
00000001
00000010
00001000
00020000
00000000
00000000
00000000
00000000
,
00031000
00010000
01000000
10000000
00000000
00010000
01000000
10000000
,
10100000
00000000
00110000
00000000
00011000
00000000
00001010
00000000
00000011
00000000
00001001
00000000
,
00000001
00001000
00000001
00001000
00000001
00001000
00000001
00001000
00000001
00001000
00000001
00001000
00000001
00001000
00000001
00001000
,
00000001
00001001
00000000
00011000
00011000
00000000
10010000
10010000
,
00000000
11000000
11000000
00000000
00110000
01000000
00100000
01000000
,
10000000
00100000
10000000
01000000
10000000
00010000
10000000
00100000
01000000
00010000
00100000
00001000
,
00100000
00001000
00010000
00000010
00010000
00001000
00010000
00000100
00001000
00000100
00000010
00000001
,
00001000
00000000
00000010
00000000
00000100
00000000
00000001
00000000
00000010
00000000
00000100
00001000
00000100
00000000
00001000
00000000
,
00010000
00010000
01000000
00100000
10000000
00010000
00110000
00000000
,
11000000
10000000
00100000
01000000
00010000
00001000
00010000
00000100
,
00001100
00000010
00000001
00000010
00001000
00010000
00001000
00100000
,
00110000
01000000
10000000
00010000
01000000
10000000
01000000
00010000
,
00100000
01000000
10000000
01000000
00100000
00010000
00010000
01000000
,
00110000
00100000
00100000
00100000
10100000
00100000
00100000
00100000
,
01100000
00100000
00100000
00100000
00011000
00001000
00001000
00001000
,
00001100
00001000
00001000
00001000
00001001
00001000
00001000
00001000
,
00000010
00000100
00000010
00000100
00000010
00000100
00000010
00000100
00000010
00000100
00000010
00000100
00000010
00000100
00000010
00000100
,
00000010
00000000
00000000
00000000
;
