#TITLE:Valanga;
#SUBTITLE:;
#ARTIST:DJ TOTTO;
#TITLETRANSLIT:;
#SUBTITLETRANSLIT:;
#ARTISTTRANSLIT:;
#GENRE:;
#CREDIT:;
#BANNER:Valanga.png;
#BACKGROUND:Valanga-bg.png;
#LYRICSPATH:;
#CDTITLE:;
#MUSIC:Valanga.ogg;
#OFFSET:0.000;
#SAMPLESTART:65.000;
#SAMPLELENGTH:15.000;
#SELECTABLE:YES;
#BPMS:0.000=186.000
;
#STOPS:
;
#BGCHANGES:;
#KEYSOUNDS:;
#ATTACKS:;

//---------------dance-single - ----------------
#NOTES:
     dance-single:
     :
     Challenge:
     17:
     0.960,1.000,0.196,0.545,0.856,702.000,23.000,64.000,0.000,0.000,0.000,0.960,1.000,0.196,0.545,0.856,702.000,23.000,64.000,0.000,0.000,0.000:
0000
0000
0000
0000
,
0000
0000
0000
0000
,
0000
0000
0000
0000
,
0000
0000
0000
0000
,
0000
0000
0000
0000
,
0000
0000
0000
0000
,
0000
0000
0000
0000
,
0000
0000
0000
0000
,
0000
0000
0000
0000
,
2000
0000
0000
3020
0000
0000
2030
0000
,
0000
3200
0000
0000
0302
0000
0000
0203
,
0000
0000
0320
0000
0000
2030
0000
0000
,
3002
0000
0000
0023
0000
0000
0230
0000
,
0310
1000
0100
0001
,
0010
1000
0100
0001
,
1000
0100
0010
0001
1000
0010
0100
0001
,
1000
0100
0010
0001
0100
0010
1000
0100
0010
0001
0100
0010
1000
0000
0000
0000
,
1001
0000
0001
1000
0200
0000
0000
0000
0310
1000
0100
0000
0010
0001
0100
0000
,
0010
0000
0100
0001
0020
0000
0000
0000
0130
0001
1000
0000
0100
0010
0001
0100
,
0010
0000
0001
1000
0020
0000
0000
0000
0130
0010
0001
0000
0100
0010
1000
0000
,
0001
0000
0010
0001
0200
0000
0000
0000
1300
0001
0100
0000
0001
1000
0010
1000
,
0100
0000
0010
0001
0200
0000
0000
0000
0310
1000
0001
0000
0010
0001
0100
0000
,
0010
0000
1000
0010
0200
0000
0000
0000
0301
1000
0100
0000
0010
0100
0010
0100
,
1000
0000
0100
0000
0001
0100
0001
0000
1000
0001
0100
0000
1000
0100
1000
0000
,
0100
0001
0010
0000
0100
1000
0100
0000
0010
0001
1000
0000
0010
0100
0010
0000
,
1000
0001
0100
0001
2000
0000
0000
0000
3010
0100
0001
0100
0010
0000
1000
0000
,
0001
0010
0100
0010
0002
0000
0000
0000
1003
0010
0100
0010
1000
0000
0001
0000
,
0100
0001
1000
0001
0200
0000
0000
0000
0310
0001
1000
0001
0010
0000
0100
0000
,
0010
0100
1000
0100
0020
0000
0000
0000
0031
1000
0100
1000
0001
0010
0100
0010
,
0100
0001
0100
0001
0100
0000
0010
0000
1000
0100
1000
0100
1000
0000
0010
0000
,
0100
1000
0100
1000
0100
0000
0010
0000
0001
0100
0001
0100
0001
0000
0010
0000
,
0100
1000
0110
0001
0101
0100
0010
1010
,
1000
0000
0001
0000
0100
0000
0010
0000
0100
1000
0010
1000
0100
0010
0001
0100
,
0002
1000
0000
0100
0100
0000
0010
0010
,
0000
0000
1000
0000
1003
0000
0000
0000
0100
0010
0100
0001
1000
0100
0010
0100
,
2000
0100
0000
0001
0001
0000
0010
0010
,
0000
0000
0000
0100
0000
0000
3100
0000
0000
0000
0000
0000
0001
0000
0001
0000
0010
0000
0100
0000
0100
0000
1000
0000
,
0002
0100
0000
1000
1000
0000
0010
0010
,
0000
0000
0100
0000
0103
0000
0000
0000
0010
0001
0010
0001
1000
0001
0100
0010
,
2000
0001
0000
0010
0010
0000
0001
0001
,
0000
0000
0100
0000
3100
0000
0000
0000
0001
0010
0100
1000
0001
0100
0010
1000
,
0100
0101
0010
1000
1100
0001
0100
0110
,
0010
0000
1000
0000
1001
0000
0100
0000
0010
1000
0001
1000
0100
1000
0001
1000
,
0010
0110
1000
0001
0011
0001
0100
0110
,
0010
0000
0000
1000
0000
0000
1100
0000
0000
0010
0000
0000
1000
0000
1000
0000
0001
0000
0100
0000
0100
0000
0010
0000
,
1000
1100
0001
0010
0101
0010
0100
1010
,
0100
0000
1000
0000
0011
0000
0100
0000
0010
0001
1000
0010
0100
0010
1000
0001
,
0100
0101
0010
1000
1010
0100
0010
0011
,
0001
0000
1000
0000
1100
0000
0001
0000
0010
0001
0010
0100
1000
0100
0010
0001
,
0020
0100
0100
0100
,
0100
0000
0000
0000
0130
0000
0001
0100
0001
0000
0010
0000
0001
0000
0100
0000
,
0010
0000
1000
0100
1000
0000
0001
0100
0001
0000
0100
0000
0010
0000
1000
0000
,
0100
0000
0010
0000
0001
0000
0100
0001
0100
0010
1000
0000
0100
0000
0010
0000
,
0002
0000
0000
0203
0010
0000
2300
0000
0100
3020
0000
0000
0130
0000
0001
0000
,
2002
0000
0000
0000
3003
0000
0001
0010
0200
0000
0310
0000
0100
0000
1000
0000
,
0100
0000
1000
0100
0020
0000
0130
0001
0020
0000
0031
0000
0001
0000
0100
0000
,
0010
0000
0010
0000
1000
0000
0010
0100
0002
0000
0000
0100
0000
0000
0010
0000
,
2003
0000
0000
0000
3100
0000
0010
0000
0002
0000
0000
1000
0000
0000
1003
0000
,
2002
0000
0000
0000
3003
0000
1000
0100
0010
0000
0001
0000
1000
0010
0100
0001
,
0010
0000
0001
0010
0001
0000
1000
0010
0100
0000
0001
0000
0100
0000
0010
0000
,
1000
0000
0100
0000
0010
0000
0001
1000
0100
0010
0001
0000
0001
1000
0100
1000
,
0002
0000
0000
0023
0100
0000
2030
0000
0010
3200
0000
0000
0301
0000
0010
0000
,
2002
0000
0000
0000
3003
0000
0100
0010
1000
0000
0100
0000
1000
0100
0010
0100
,
2000
0000
0000
0000
3001
0000
0010
0001
0100
0000
0010
1000
0100
0000
0010
0000
,
0100
0000
0010
0100
1000
0100
1000
0000
0001
0000
0100
0000
0010
0100
0010
0100
,
2000
0000
0000
0002
0000
0000
0000
3003
,
0010
0000
0100
0000
0010
0000
1000
0000
0010
1000
0100
1000
0010
0100
0001
0100
,
0010
0100
0010
0100
1000
0000
0010
0000
0100
0001
0100
0001
0010
0000
0100
0000
,
1000
0100
1000
0100
0010
0000
0001
0000
1000
0010
0100
0010
1000
0001
0010
0100
,
1000
0010
1000
0010
0100
0000
0001
0000
0010
0001
0010
0001
0100
0000
0010
0000
,
1000
0100
1000
0010
0100
0000
0010
0000
1000
0001
0100
0001
1000
0001
0010
0001
,
0100
0010
1000
0010
0100
0000
0010
0000
0100
0010
0001
0010
0100
0000
0010
0000
,
1000
0100
0010
0001
0100
0000
0010
0000
1000
0010
0100
0010
1000
0001
0010
0100
,
2000
0000
3010
1000
0200
0000
0310
0001
2000
0000
3100
0010
0002
0000
1003
0010
,
0200
0000
0301
0100
2000
0000
3001
0010
2000
0000
3010
1000
0200
0000
0301
0000
,
0010
0001
0010
0100
0020
0000
0130
0000
1000
0100
0010
0001
0020
0000
0130
0000
,
0010
1000
0010
0100
0002
0000
0013
0000
1000
0100
0010
0001
0100
0010
1000
0100
,
0010
0100
1000
0001
0200
0000
0310
0000
1000
0100
0001
1000
0020
0000
0130
0000
,
0001
0010
0100
1000
0010
0100
0001
1000
0100
1000
0001
0010
0100
1000
0010
1000
,
0100
0000
0010
0000
0100
0000
0001
0000
0100
0000
0010
0000
0100
1000
0100
1000
,
0100
0000
0010
0000
0001
0000
0100
0000
0010
1000
0001
0100
0010
1000
0100
1000
,
0002
0100
0000
1000
1000
0000
0010
0010
,
0000
0000
0100
0000
0103
0000
0000
0000
1000
0100
0001
0100
0010
0100
2000
0000
,
0000
0000
0000
0000
,
0000
0000
0000
0000
,
0000
0000
0000
0000
,
0000
0000
0000
0000
0000
0000
0000
3000
;

//---------------dance-double - ----------------
#NOTES:
     dance-double:
     :
     Challenge:
     17:
     0.921,1.000,0.051,0.460,0.822,697.000,6.000,54.000,0.000,0.000,0.000,0.921,1.000,0.051,0.460,0.822,697.000,6.000,54.000,0.000,0.000,0.000: // measure 0
00000000
00000000
00000000
00000000
,  // measure 1
00000000
00000000
00000000
00000000
,  // measure 2
00000000
00000000
00000000
00000000
,  // measure 3
00000000
00000000
00000000
00000000
,  // measure 4
00000000
00000000
00000000
00000000
,  // measure 5
00000000
00000000
00000000
00000000
,  // measure 6
00000000
00000000
00000000
00000000
,  // measure 7
00000000
00000000
00000000
00000000
,  // measure 8
00000000
00000000
00000000
00000000
,  // measure 9
20000000
00000000
00000000
30020000
00000000
00000000
00032000
00000000
,  // measure 10
00000000
00003002
00000000
00000000
00002003
00000000
00000000
00023000
,  // measure 11
00000000
00000000
20030000
00000000
00000000
30020000
00000000
00000000
,  // measure 12
00032000
00000000
00000000
00003002
00000000
00000000
00001003
00000000
,  // measure 13
00021000
01000000
10000000
00130000
,  // measure 14
00012000
00000100
00000001
00003010
,  // measure 15
00000100
00000010
00001000
00000010
00000001
00000100
00000010
00001000
,  // measure 16
00000001
00000100
00000010
00001000
00000010
00001000
00000100
00010000
00000100
00001000
00000100
00010000
00001000
00000000
00000000
00000000
,  // measure 17
00100000
00000000
10000000
00100000
02000000
00000000
00000000
00000000
03100000
10000000
01000000
00000000
10000000
01000000
00010000
00000000
,  // measure 18
00001000
00000000
00010000
00001000
00000200
00000000
00000000
00000000
00001300
00000001
00000100
00000000
00001000
00000010
00000100
00000010
,  // measure 19
00001000
00000000
00000001
00000010
00000200
00000000
00000000
00000000
00000310
00000001
00001000
00000000
00000010
00001000
00000001
00000000
,  // measure 20
00000100
00000000
00000010
00001000
00000200
00000000
00000000
00000000
00000310
00000001
00001000
00000000
00000001
00000010
00000100
00000010
,  // measure 21
00000001
00000000
00000100
00000010
00002000
00000000
00000000
00000000
00003010
00000001
00000100
00000000
00000001
00000100
00001000
00000000
,  // measure 22
00010000
00000000
00001000
00010000
00200000
00000000
00000000
00000000
00310000
00100000
01000000
00000000
00010000
01000000
00100000
10000000
,  // measure 23
01000000
00000000
00100000
00000000
00010000
00100000
00010000
00000000
10000000
00000000
01000000
00000000
00100000
00010000
00100000
00000000
,  // measure 24
00001000
00010000
00001000
00000000
00000100
00001000
00000100
00000000
00000010
00001000
00000001
00000000
00000100
00000000
00000000
00000000
,  // measure 25
00000100
00000010
00001000
00000010
00000200
00000000
00000000
00000000
00000301
00000100
00000010
00001000
00000100
00000000
00010000
00000000
,  // measure 26
00001000
00010000
00000100
00010000
00002000
00000000
00000000
00000000
00013000
00001000
00100000
00010000
01000000
00100000
10000000
01000000
,  // measure 27
00100000
00010000
10000000
00010000
00200000
00000000
00000000
00000000
01300000
00100000
00010000
00100000
01000000
00000000
00001000
00000000
,  // measure 28
00010000
00000100
00001000
00000100
00020000
00000000
00000000
00000000
00030100
00001000
00000100
00001000
00000100
00000010
00000001
00000100
,  // measure 29
00000001
00000010
00000001
00000010
00000001
00000000
00000100
00000000
00000010
00001000
00000010
00001000
00000010
00000000
00001000
00000000
,  // measure 30
00000100
00010000
00000100
00010000
00000100
00000000
00010000
00000000
00001000
00100000
00001000
00100000
00001000
00000000
00010000
00000000
,  // measure 31
00100000
10000000
10000000
00100000
01000000
01000000
00010000
00010000
,  // measure 32
00001000
00000000
00000010
00000000
00000001
00000000
00000100
00000000
00000010
00000001
00001000
00000010
00010000
00001000
00010000
00000000
,  // measure 33
00002000
00010000
00000000
01000000
01000000
00000000
00100000
00100000
,  // measure 34
00000000
00000000
00010000
00000000
00013000
00000000
00000000
00000000
00001000
00010000
00001000
00100000
00010000
01000000
00100000
10000000
,  // measure 35
02000000
00100000
00000000
00001000
00001000
00000000
00010000
00010000
,  // measure 36
00000000
00000000
00000000
10000000
00000000
00000000
13000000
00000000
00000000
00000000
00000000
00000000
00010000
00000000
01000000
00000000
00100000
00000000
10000000
00000000
01000000
00000000
00010000
00000000
,  // measure 37
00002000
00010000
00000000
00000100
00000100
00000000
00000001
00000001
,  // measure 38
00000000
00000000
00000010
00000000
00003010
00000000
00000000
00000000
00010000
00001000
00010000
00000100
00001000
00000010
00000100
00000001
,  // measure 39
00002000
00000100
00000000
00010000
00010000
00000000
00100000
00100000
,  // measure 40
00000000
00000000
00010000
00000000
00013000
00000000
00000000
00000000
01000000
00010000
01000000
00010000
01000000
10000000
01000000
10000000
,  // measure 41
01000000
10000000
10000000
01000000
00010000
00010000
00001000
00000010
,  // measure 42
00000010
00000000
00000001
00000000
00000100
00000000
00000010
00000000
00000010
00001000
00000100
00010000
00000100
00001000
00000100
00010000
,  // measure 43
00001000
00010000
00010000
01000000
10000000
10000000
00100000
00010000
,  // measure 44
00010000
00000000
00000000
00001000
00000000
00000000
00000100
00000000
00000000
00000100
00000000
00000000
00010000
00000000
00001000
00000000
00000100
00000000
00000001
00000000
00000010
00000000
00000100
00000000
,  // measure 45
00001000
00000001
00000001
00000010
00001000
00001000
00000100
00010000
,  // measure 46
00010000
00000000
00001000
00000000
01000000
00000000
01000000
00000000
00010000
00100000
00010000
00100000
01000000
10000000
01000000
00100000
,  // measure 47
01000000
10000000
10000000
00010000
01000000
01000000
00001000
00010000
,  // measure 48
00010000
00000000
00000100
00000000
00001000
00000000
00001000
00000000
00010000
00001000
00010000
00000100
00001000
00000010
00000100
00000000
,  // measure 49
00001002
00001000
00001000
00001000
,  // measure 50
00001000
00000000
00000000
00000000
00001003
00000000
00000001
00000010
00000100
00000000
00000001
00000000
00000100
00000000
00000100
00000000
,  // measure 51
00000010
00000000
00000001
00000010
00000100
00000000
00000001
00000100
00001000
00000000
00000010
00000000
00010000
00000000
00001000
00000000
,  // measure 52
00100000
00000000
00010000
00000000
01000000
00000000
00100000
10000000
01000000
00100000
00010000
00000000
01000000
00000000
00001000
00000000
,  // measure 53
00020000
00000000
00000000
00032000
00010000
00000000
00003200
00000000
00001000
00000320
00000000
00000000
00000130
00000000
00000001
00000000
,  // measure 54
00002002
00000000
00000000
00000000
00003003
00000000
00000001
00000010
00001000
00000000
00010000
00000000
00001000
00000000
00100000
00000000
,  // measure 55
00010000
00000000
00100000
00010000
01000000
00000000
00100000
10000000
00010000
00000000
00100000
00000000
00010000
00000000
00010000
00000000
,  // measure 56
01000000
00000000
00100000
00000000
00010000
00000000
01000000
00010000
00002000
00000000
00000000
00000010
00000000
00000000
00000100
00000000
,  // measure 57
00003010
00000000
00000000
00000000
00000001
00000000
00000100
00000000
00002000
00000000
00000000
00010000
00000000
00000000
00103000
00000000
,  // measure 58
00022000
00000000
00000000
00000000
00033000
00000000
00001000
00010000
00100000
00000000
00001000
00000000
00010000
00001000
00010000
00001000
,  // measure 59
00100000
00000000
00010000
10000000
01000000
00000000
00100000
00010000
01000000
00000000
00001000
00000000
00010000
00000000
00000100
00000000
,  // measure 60
00001000
00000000
00000100
00000000
00000010
00000000
00000001
00000010
00000100
00000010
00000001
00000000
00000100
00000000
00000010
00000000
,  // measure 61
00000200
00000000
00000000
00020300
00001000
00000000
00230000
00000000
00010000
02300000
00000000
00000000
03100000
00000000
10000000
00000000
,  // measure 62
22000000
00000000
00000000
00000000
33000000
00000000
10000000
01000000
00100000
00000000
00010000
00000000
01000000
00000000
00010000
00000000
,  // measure 63
00100000
00000000
00001000
00010000
00000100
00000000
00001000
00000010
00000100
00000000
00000001
00000000
00000010
00000000
00000001
00000000
,  // measure 64
00000100
00000000
00000010
00001000
00000001
00000010
00000100
00000000
00000010
00000000
00001000
00000000
00000100
00000000
00000000
00000000
,  // measure 65
00020000
00000000
00000000
00002000
00000000
00000000
00000000
00033000
,  // measure 66
01000000
00000000
00010000
00000000
00100000
00000000
00001000
00000000
00010000
00001000
00100000
00010000
01000000
00100000
10000000
00010000
,  // measure 67
01000000
00100000
10000000
01000000
00100000
00000000
01000000
00000000
00010000
00001000
00010000
00000100
00001000
00000000
00000100
00000000
,  // measure 68
00001000
00000010
00000100
00000010
00001000
00000000
00000001
00000000
00000010
00000100
00000010
00000001
00000100
00000010
00001000
00000010
,  // measure 69
00000100
00000001
00000100
00000010
00001000
00000000
00000100
00000000
00010000
00001000
00010000
00100000
00010000
00000000
01000000
00000000
,  // measure 70
00100000
10000000
00010000
00100000
00001000
00000000
00010000
00000000
00001000
00000100
00001000
00000100
00000010
00000100
00000010
00000100
,  // measure 71
00000001
00000100
00000001
00000010
00000001
00000000
00000100
00000000
00000010
00001000
00000001
00001000
00000010
00000000
00000100
00000000
,  // measure 72
00001000
00010000
00001000
00100000
00010000
00000000
01000000
00000000
00100000
10000000
00010000
00100000
01000000
10000000
00010000
01000000
,  // measure 73
00200000
00000000
10300000
01000000
00020000
00000000
01030000
00010000
00002000
00000000
00013000
00001000
00000020
00000000
00000031
00000010
,  // measure 74
00002000
00000000
00003010
00001000
00020000
00000000
00031000
00010000
02000000
00000000
03010000
01000000
20000000
00000000
30100000
00000000
,  // measure 75
10000000
01000000
10000000
00100000
01000000
00000000
00010000
00000000
00100000
00001000
00100000
00001000
00010000
00000000
00000100
00000000
,  // measure 76
00001000
00000010
00000100
00000010
00001000
00000000
00000001
00000000
00000001
00000010
00000100
00001000
00000001
00000010
00000100
00001000
,  // measure 77
00000001
00000100
00000010
00001000
00000100
00000000
00000010
00000000
00001000
00000100
00010000
01000000
00100000
00000000
01000000
00000000
,  // measure 78
00100000
01000000
10000000
01000000
00100000
00001000
00010000
00001000
00000010
00000100
00000001
00001000
00000100
00001000
00000010
00000100
,  // measure 79
00000001
00000000
00000100
00000000
00000010
00000000
00001000
00000000
00010000
00000000
00100000
00000000
01000000
10000000
01000000
10000000
,  // measure 80
01000000
00000000
00100000
00000000
00010000
00000000
00001000
00000000
00000100
00001000
00000100
00001000
00000001
00000100
00000001
00001000
,  // measure 81
00000100
00000100
00000001
00000100
00000100
00000010
00001000
00001000
,  // measure 82
00000100
00000000
00010000
00000000
00010000
00000000
00001000
00000000
00100000
00010000
00100000
01000000
10000000
01000000
00200000
00000000
,  // measure 83
00000000
00000000
00000000
00000000
,  // measure 84
00000000
00000000
00000000
00000000
,  // measure 85
00000000
00000000
00000000
00000000
,  // measure 86
00000000
00000000
00000000
00000000
00000000
00000000
00000000
00300000
;
