#TITLE:Taking It To The Sky;
#SUBTITLE:;
#ARTIST:U1 feat. Tammy S. Hansen;
#TITLETRANSLIT:;
#SUBTITLETRANSLIT:;
#ARTISTTRANSLIT:;
#GENRE:;
#CREDIT:;
#BANNER:Taking It To The Sky.png;
#BACKGROUND:Taking It To The Sky-bg.png;
#LYRICSPATH:;
#CDTITLE:./CDTITLES/DanceDanceRevolution X2.png;
#MUSIC:Taking It To The Sky.mp3;
#OFFSET:0.679;
#SAMPLESTART:12.230;
#SAMPLELENGTH:15.000;
#SELECTABLE:YES;
#DISPLAYBPM:130.000;
#BPMS:0.000=130.435
,4.000=129.991
;
#STOPS:
;
#BGCHANGES:;
#KEYSOUNDS:;
#ATTACKS:;

//---------------dance-single - ----------------
#NOTES:
     dance-single:
     :
     Beginner:
     1:
     0.070,0.077,0.000,0.000,0.000,47.000,0.000,0.000,0.000,0.000,0.000,0.070,0.077,0.000,0.000,0.000,47.000,0.000,0.000,0.000,0.000,0.000:
0000
0000
0000
0000
,
0000
0000
0000
0000
,
0000
0000
0000
0000
,
0000
0000
0000
0000
,
0000
0000
0000
0000
,
0001
0000
0000
0000
,
0000
0000
0000
0000
,
1000
0000
0000
0000
,
1000
0000
0000
0000
,
0001
0000
0000
0000
,
0001
0000
0000
0000
,
1000
0000
0000
0000
,
0001
0000
0000
0000
,
0010
0000
0000
0000
,
0000
0000
0000
0000
,
1000
1000
0000
0000
,
1000
1000
0000
0000
,
0001
0000
0000
0000
,
0000
0000
0000
0000
,
0001
0000
0000
0000
,
1000
0000
0000
0000
,
0010
0000
0000
0000
,
0000
0000
0000
0000
,
0001
0001
0000
0000
,
0001
0001
0000
0000
,
1000
0000
0000
0000
,
0000
0000
0000
0000
,
1000
0000
1000
0000
,
1000
0000
0000
0000
,
0010
0000
0000
0000
,
0000
0000
0000
0000
,
0001
0000
0001
0000
,
0001
0000
0000
0000
,
0010
0000
0000
0000
,
0000
0000
0000
0000
,
0001
0000
0000
0000
,
0000
0000
0000
0000
,
1000
0000
0000
0000
,
1000
0000
0000
0000
,
0001
0000
0000
0000
,
0001
0000
0000
0000
,
1000
0000
0000
0000
,
1000
0000
0001
0000
,
1000
0000
0000
0000
,
1000
0000
0001
0000
,
0001
0000
0000
0000
,
0001
0000
1000
0000
,
0001
0000
0000
0000
,
0001
0000
1000
0000
,
1000
0000
0000
0000
,
;

//---------------dance-single - ----------------
#NOTES:
     dance-single:
     :
     Easy:
     3:
     0.148,0.159,0.000,0.105,0.000,89.000,0.000,10.000,0.000,0.000,0.000,0.148,0.159,0.000,0.105,0.000,89.000,0.000,10.000,0.000,0.000,0.000:
0000
0000
0000
0000
,
0000
0000
0000
0000
,
0000
0000
0000
0000
,
0000
0000
0000
0000
,
0000
0000
0000
0000
,
2000
0000
3000
0000
,
0002
0000
0003
0000
,
0001
1000
1000
0001
,
1000
0000
0000
0000
,
0001
1000
1000
0001
,
0000
0000
0000
0000
,
1000
0000
0010
0000
,
0001
0000
1000
0000
,
0002
0000
0003
0000
,
0010
0000
0000
0000
,
1000
1000
1000
0001
,
1000
1000
1000
0001
,
0020
0000
0030
0000
,
0100
0000
0000
0000
,
1000
0000
0010
0000
,
0001
0000
1000
0000
,
0002
0000
0003
0000
,
0010
0000
0000
0000
,
1000
1000
1000
0001
,
1000
1000
1000
0001
,
2000
0000
0000
3000
,
0000
0000
0000
0000
,
0001
0000
0010
0000
,
0001
0001
0010
0000
,
1000
0000
0100
0000
,
0000
0000
0000
0000
,
0001
0000
0010
0000
,
0001
0001
0010
0000
,
1000
0000
1000
0000
,
1000
0000
0000
0000
,
0002
0000
0003
0000
,
2000
0000
3000
0000
,
0001
1000
1000
0000
,
1000
0000
0000
0000
,
0001
1000
1000
0000
,
0000
0000
0010
0000
,
0001
1000
1000
0001
,
1000
0000
0000
0000
,
0001
1000
1000
0001
,
0000
0000
0010
0000
,
1000
0001
0001
1000
,
0001
0000
0000
0000
,
1000
0001
0001
1000
,
0000
0000
0010
0000
,
2000
0000
3000
0000
,
0002
0000
0003
0000
,
;

//---------------dance-single - ----------------
#NOTES:
     dance-single:
     :
     Medium:
     5:
     0.273,0.344,0.052,0.252,0.000,153.000,5.000,24.000,0.000,0.000,0.000,0.273,0.344,0.052,0.252,0.000,153.000,5.000,24.000,0.000,0.000,0.000:
0000
0000
0000
0000
,
0000
0000
0000
0000
,
0000
0000
0000
0000
,
0000
0000
0000
0000
,
0000
0000
0000
0000
,
1000
1000
0010
0000
,
0002
0000
1003
1001
,
0001
0102
1000
1003
,
0010
2000
0100
3100
,
1000
0100
0001
0100
,
0020
0000
0030
0000
,
0010
1000
0001
0010
,
0001
1000
0001
0100
,
0002
0000
1003
1000
,
0100
0000
0001
0001
,
1000
0010
0001
0100
,
1000
0010
0001
0100
,
2000
0000
3010
0010
,
0200
0000
0300
0000
,
0010
0001
1000
0010
,
1000
0001
1000
0100
,
2000
0000
3001
0001
,
0100
0000
1000
1000
,
0001
0010
1000
0100
,
0001
0010
1000
0100
,
0002
0000
0013
0010
,
0020
0000
0030
0000
,
0001
0100
0001
0100
,
0001
0010
0100
0000
,
1000
0001
0100
0000
,
0010
0010
0100
0100
,
1000
0100
1000
0100
,
1000
0010
0100
0000
,
0001
1000
0100
0100
,
0010
0000
0000
0000
,
1000
1000
0001
0000
,
0020
0000
0030
0000
,
0001
0101
1000
1000
,
0010
1000
0100
0100
,
1000
0100
0001
1000
,
0002
0013
0200
1300
,
0001
0102
1000
1003
,
0010
2000
0100
3100
,
1000
0100
0001
0100
,
2000
3020
0230
0301
,
1000
2100
0001
3001
,
0010
0002
0100
0103
,
0001
0100
1000
0100
,
0002
0023
0230
1300
,
0001
0001
1000
0000
,
0020
0000
0030
0000
,
;

//---------------dance-single - ----------------
#NOTES:
     dance-single:
     :
     Hard:
     8:
     0.387,0.373,0.063,0.241,0.000,229.000,6.000,23.000,0.000,0.000,0.000,0.387,0.373,0.063,0.241,0.000,229.000,6.000,23.000,0.000,0.000,0.000:
0000
0000
0000
0000
,
0000
0000
0000
0000
,
0000
0000
0000
0000
,
0000
0000
0000
0000
,
0000
0000
0000
0000
,
0020
0000
1030
0100
,
0020
0000
0031
1001
,
0100
0010
1000
0020
0001
0000
0001
0030
,
0001
0010
2000
0000
0100
0000
3100
0000
,
0001
0010
0100
0000
1000
0010
0100
0010
,
2000
0000
0000
3000
,
0010
0000
1000
0000
0100
0000
0010
0001
,
0010
0000
0100
0000
1000
0010
0100
0010
,
2000
0000
0001
0000
3010
1000
0100
0000
,
0001
0000
0010
0100
,
1000
0002
1000
0003
1000
0010
0100
0010
,
1000
0002
1000
0003
1000
0020
1000
0130
,
0000
0010
0000
1000
0000
0110
0000
1000
,
0000
0001
0100
0010
0000
1000
0100
1000
,
0010
0000
0001
0000
0100
0000
0010
1000
,
0010
0000
0100
0000
0001
0010
0100
0010
,
0002
0000
1000
0000
0013
0001
0100
0000
,
1000
0000
0010
0100
,
0001
2000
0001
3000
0001
0010
0100
0010
,
0001
2000
0001
3000
0001
0020
0001
0130
,
0000
0010
0000
0001
0000
0110
0000
0001
,
0000
1000
0100
0001
0000
0001
0100
0001
,
1000
0000
0100
0000
1000
0010
0100
0010
,
1000
0000
0001
0000
0100
0010
0100
0010
,
1000
0000
0100
0000
0010
0001
0010
0000
,
0100
0001
0100
0000
0100
0001
0100
0000
,
0001
0000
0100
0000
0001
0010
0100
0010
,
0001
0000
1000
0000
0100
0010
0100
0010
,
0001
0000
0100
0000
0010
1000
0010
0200
,
0000
0000
0000
0300
,
0020
0000
0031
0100
,
0020
0000
0100
0130
,
0100
0010
1000
0010
0001
0000
0001
0000
,
0001
0010
2000
0000
0100
0000
3100
0000
,
0001
0010
0100
0000
1000
0010
0100
0000
,
0001
0100
0010
1100
,
0100
0010
0001
0020
1000
0000
1000
0030
,
1000
0010
0002
0000
0100
0000
0103
0000
,
1000
0010
0100
0000
0001
0010
0100
0010
,
0001
1000
0100
0000
0010
0000
1100
0000
,
0100
0010
1000
0020
0001
0000
0001
0030
,
0001
0010
2000
0000
0100
0000
3100
0000
,
0001
0010
0100
0000
1000
0010
0100
0010
,
1000
0001
0100
0000
0010
0000
0101
0000
,
0020
0000
1030
0100
,
0020
0000
0000
0030
;

//---------------dance-double - ----------------
#NOTES:
     dance-double:
     :
     Easy:
     4:
     0.211,0.210,0.000,0.115,0.000,130.000,0.000,11.000,0.000,0.000,0.000,0.211,0.210,0.000,0.115,0.000,130.000,0.000,11.000,0.000,0.000,0.000:
00000000
00000000
00000000
00000000
,
00000000
00000000
00000000
00000000
,
00000000
00000000
00000000
00000000
,
00000000
00000000
00000000
00000000
,
00000000
00000000
00000000
00000000
,
10000000
10000000
00100000
00000000
,
01000000
00000000
00010000
00000000
,
10000000
01000000
00010000
00010000
,
00001000
00000010
00000002
00000003
,
00000001
00000100
00001000
00001000
,
00010000
00000000
00000000
00000000
,
00000010
00001000
00000001
00000100
,
00000010
00000000
00010000
00000100
,
00000020
00000000
00000130
00000000
,
00001000
00000000
00000001
00000001
,
00001000
00000010
00010000
00000000
,
00000100
00010000
00001000
00000000
,
02000000
00000000
03010000
00000000
,
00100000
00000000
00000000
00000000
,
00100000
00010000
10000000
01000000
,
00100000
00000000
00001000
01000000
,
00200000
00000000
01300000
00000000
,
00010000
00000000
10000000
10000000
,
00010000
00100000
00001000
00000000
,
01000000
00001000
00010000
00000000
,
00000020
00000000
00000000
00000000
,
00000000
00000000
00000030
00000000
,
00001000
00000100
00001000
00000100
,
00010000
00001000
00010000
00000000
,
00001000
00000000
01000000
00000000
,
00010000
00010000
10000000
10000000
,
00010000
01000000
00010000
01000000
,
00001000
00010000
00001000
00000000
,
00010000
00000000
00000100
00000100
,
00001000
00000000
00000000
00000000
,
00000001
00000001
00000010
00000000
,
00001000
00000000
00000100
00000000
,
00000001
00000100
00001000
00000000
,
00010000
00100000
20000000
30000000
,
10000000
01000000
00010000
00000000
,
00001000
00000010
00000002
00000003
,
00000001
00000100
00001000
00001000
,
00010000
00100000
20000000
30000000
,
10000000
01000000
00010000
00010000
,
00001000
00000010
00000002
00000003
,
00000001
00000010
00001000
00001000
,
00010000
01000000
20000000
30000000
,
10000000
00100000
00010000
00010000
,
00001000
00000100
00000002
00000003
,
00001000
00001000
00000010
00000000
,
00000100
00000000
00000000
00000000
,
;

//---------------dance-double - ----------------
#NOTES:
     dance-double:
     :
     Medium:
     6:
     0.313,0.291,0.063,0.231,0.000,181.000,6.000,22.000,0.000,0.000,0.000,0.313,0.291,0.063,0.231,0.000,181.000,6.000,22.000,0.000,0.000,0.000:
00000000
00000000
00000000
00000000
,
00000000
00000000
00000000
00000000
,
00000000
00000000
00000000
00000000
,
00000000
00000000
00000000
00000000
,
00000000
00000000
00000000
00000000
,
10000000
01000000
00100000
00000000
,
00010000
00100000
01000000
00000000
,
20000000
30010000
00200000
00301000
,
00010000
00000000
00000010
00000000
00001000
00000010
00000100
00000000
,
00000002
00001003
00000020
00010030
,
00000100
00000000
00000000
00000000
,
00001000
00000001
00000010
00000001
,
00000100
00000000
00000010
00000000
00001000
00000100
00001000
00000000
,
00000002
00000000
00000103
00000010
,
00002000
00000000
00003100
00010000
,
00001000
00000000
01001000
00000000
00100000
00010000
00100000
00000000
,
01000000
00000000
01010000
00000000
10000000
00000000
10000000
01000000
,
00100000
00010000
00000000
00100000
00000000
00001000
00000000
00100000
,
00000000
01000000
00000000
01000000
00000000
00100000
00000000
00000000
,
00010000
10000000
00100000
10000000
,
01000000
00000000
00100000
00000000
00010000
01000000
00010000
00000000
,
20000000
00000000
31000000
00100000
,
00020000
00000000
01030000
00001000
,
00010000
00000000
00010100
00000000
00000010
00001000
00000010
00000000
,
00000100
00000000
00001100
00000000
00000001
00000000
00000001
00000100
,
00000010
00001000
00000000
00000010
00000000
00010000
00000000
00000010
,
00000000
00000100
00000000
00000100
00000000
00000010
00000000
00000000
,
00001000
00000010
00001000
00000100
,
00010000
00000010
00010000
00001000
,
00000100
00000000
00000001
00000010
,
00000100
00010000
00001000
00000000
00001000
00100000
00010000
00000000
,
00010000
00100000
00010000
01000000
,
00001000
00100000
00001000
00010000
,
00011000
00000000
00000010
00000100
,
00000220
00000000
00000330
00000000
,
00001000
00000100
00001000
00000000
,
00000010
00000100
00000001
00000000
,
00000002
00001003
00000020
00010030
,
00001000
00000000
01000000
00000000
00010000
10000000
01000000
00000000
,
20000000
30010000
00200000
00301000
,
00010000
00000000
00000100
00000000
00001000
00000001
00000100
00000000
,
00000002
00001003
00000020
00010030
,
00001000
00000000
00100000
00000000
00010000
00100000
01000000
00000000
,
20000000
30010000
00200000
00301000
,
00010000
00000000
00000010
00000000
00001000
00000010
00000100
00000000
,
00000002
00001003
00000200
00010300
,
00001000
00000000
01000000
00000000
00010000
01000000
00100000
00000000
,
20000000
30010000
02000000
03001000
,
00010000
00000000
00000100
00000000
00001000
00000100
00000010
00000000
,
00000001
00000100
00000001
00000000
,
00000010
00001000
00000100
00000000
,
;

//---------------dance-double - ----------------
#NOTES:
     dance-double:
     :
     Hard:
     8:
     0.367,0.397,0.021,0.241,0.000,220.000,2.000,23.000,0.000,0.000,0.000,0.367,0.397,0.021,0.241,0.000,220.000,2.000,23.000,0.000,0.000,0.000:
00000000
00000000
00000000
00000000
,
00000000
00000000
00000000
00000000
,
00000000
00000000
00000000
00000000
,
00000000
00000000
00000000
00000000
,
00000000
00000000
00000000
00000000
,
10000000
00010000
00100000
00000000
,
00000010
00000001
00000100
00000000
,
00002000
00000000
00003100
00000000
00000001
00000010
00000200
00000000
,
00010300
00001000
00100000
00001000
00010000
00001000
00000100
00001000
,
00020000
00000000
01030000
00000000
10000000
00100000
02000000
00000000
,
03100000
00000000
00000000
00000000
,
00001000
00000000
00000100
00000000
00000010
00000000
00000100
00001000
,
00010000
00000000
00000010
00000000
00001000
00000001
00000010
00000000
,
00000200
00000000
00001300
00000010
,
00000100
00000000
00001010
00000100
,
00020000
00000000
00000010
00000000
00030100
00001000
00000010
00010000
,
00002000
00000000
00100000
00000000
00010000
00000000
00003100
00000001
,
00000010
00000100
00000000
00000001
00000000
00001000
00000000
00010000
,
00000000
00001000
00000000
00100000
00000000
00001000
00000000
01000000
,
00010000
00000000
01000000
00000000
00100000
00000000
01000000
00010000
,
00001000
00000000
00100000
00000000
00010000
10000000
00100000
00000000
,
02000000
00000000
03010000
00100000
,
01000000
00000000
00110000
01000000
,
00002000
00000000
00100000
00000000
01003000
00010000
00100000
00001000
,
00020000
00000000
00000010
00000000
00001000
00000000
01030000
10000000
,
00100000
01000000
00000000
10000000
00000000
00010000
00000000
00001000
,
00000000
00010000
00000000
00000010
00000000
00010000
00000000
00000100
,
00001000
00000000
00000010
00000000
00001000
00000000
00000001
00000010
,
00000001
00000000
00001000
00000000
00000010
00000000
00000100
00000001
,
00000010
00001000
00000010
00000001
,
00000100
00000001
00001000
00000000
00001000
00000100
00010000
00001000
,
00010000
00000000
00100000
00000000
00010000
00000000
10000000
00100000
,
10000000
00000000
00010000
00000000
00100000
00000000
01000000
10000000
,
00020000
00000000
00130000
00001000
,
00000010
00000000
00000000
00000000
,
10000000
00010000
10000000
00000000
,
00100000
01000000
00100000
00000000
,
00020000
00000000
01030000
00000000
10000000
00010000
02000000
00000000
,
03001000
00010000
00000010
00010000
00001000
00010000
00100000
00000000
,
00002000
00000000
00003100
00000000
00000001
00001000
00000200
00000000
,
00010300
00001000
00100000
00001000
00010000
00001000
00000010
00000000
,
00020000
00000000
01030000
00000000
10000000
00100000
02000000
00000000
,
03001000
00010000
00000010
00010000
00001000
00010000
01000000
00010000
,
00002000
00000000
00003100
00000000
00000001
00000010
00000200
00000000
,
00010300
00001000
00100000
00001000
00010000
00001000
00000100
00001000
,
00020000
00000000
00130000
00000000
10000000
01000000
00200000
00000000
,
00301000
00010000
00000100
00010000
00001000
00010000
00100000
00010000
,
00002000
00000000
00003010
00000000
00000001
00000100
00000020
00000000
,
00010030
00001000
01000000
00001000
00010000
00001000
00000010
00001000
,
00010000
10000000
00010000
00000000
,
01000000
00100000
01000000
00000000
,
;

//---------------dance-single - ----------------
#NOTES:
     dance-single:
     :
     Challenge:
     11:
     0.490,0.472,0.199,0.073,0.184,301.000,19.000,7.000,0.000,0.000,0.000,0.490,0.472,0.199,0.073,0.184,301.000,19.000,7.000,0.000,0.000,0.000:
0000
0000
0000
0000
,
0000
0000
0000
0000
,
0000
0000
0000
0000
,
0000
0000
0000
0000
,
0000
0000
0000
0000
,
0001
0010
1000
0010
0000
1100
0000
0011
,
1000
0000
0000
0000
0100
0000
0000
0100
0001
0000
0000
0000
1001
0000
0000
0000
,
0001
0010
0001
0100
0010
0001
0010
0100
,
1000
0010
0100
0001
0010
0100
1000
0001
,
0100
0010
1000
0010
1000
0001
0100
0010
,
1000
0000
0000
1000
0100
0000
0000
0100
0010
0000
0000
0010
0001
0000
0000
0001
,
1000
0000
0011
0000
0100
1000
0010
0001
,
0010
0000
1000
0000
0100
0000
0000
0001
0010
0000
0100
0000
0010
0000
0100
0000
,
1000
0000
0021
0000
0100
0130
1000
0000
,
0001
0000
0010
0000
0100
0000
0000
1000
0010
0000
0100
0000
0001
0000
0010
0000
,
0001
0000
0010
0000
0100
0010
0100
0010
,
1000
0001
1000
0000
1001
0000
0000
0000
0001
1000
0001
0000
0010
0000
0200
0000
,
0000
0010
0000
0001
0000
0010
0000
1000
,
0000
0000
0001
0000
0001
0000
0301
0010
1000
0000
0010
0000
0001
0000
0100
0000
,
1000
0000
0002
0100
0100
0100
0000
0010
,
0000
1003
0001
1000
0100
0001
0100
1000
,
0001
0000
1000
0000
1000
0000
0000
0000
0010
0000
0001
0000
0100
0010
1000
0000
,
0100
0000
0000
0000
0000
0000
0000
1000
0010
0000
0000
1000
0100
0000
0000
0010
,
0001
1000
0001
0010
0000
0010
0100
0010
,
0001
1000
0001
0100
0000
0010
0001
0100
,
0010
1000
0010
0001
0000
0010
1000
0001
,
0000
1000
0100
0001
0000
0001
0100
0001
,
1000
0000
0000
1000
0100
0000
0000
0100
0010
0000
0000
0010
0001
0000
0000
0001
,
1000
0000
0000
1000
0010
0000
0000
0010
0100
0000
0000
0100
0001
0000
0010
0000
,
1000
0000
0000
1000
0010
0000
0000
0010
0001
0000
0000
0001
0100
0000
0000
0100
,
1000
0000
0000
1000
0001
0000
0000
0001
1000
0000
0000
1000
0010
0000
0001
0000
,
0010
0000
0000
0010
0100
0000
0000
0100
0010
0000
0000
0010
0100
0000
0000
0100
,
0001
0000
0000
0001
0010
0000
0000
0010
1000
0000
0000
1000
0100
0000
0010
0000
,
0002
0000
0100
0000
0010
0013
1000
0220
,
0000
0000
0000
0330
,
0001
1000
0010
1000
0000
0101
0000
2010
,
0000
0000
0000
0010
3010
0000
1001
0000
,
0100
0010
1000
0010
0000
0010
0000
0010
,
0001
0010
1000
0010
0100
0000
0100
0000
,
0001
0010
0100
0010
1000
0010
0100
0000
,
0001
0100
0010
1100
,
0001
0010
0001
0010
1000
0010
1000
0010
,
0100
0001
0010
0100
1000
0010
0100
0001
,
1000
0100
0010
0100
1000
0001
0100
0010
,
0100
0001
0010
1000
0010
0001
0100
1000
,
0100
0010
1000
0010
0100
0001
0010
0001
,
1000
0001
0100
0001
0010
0001
0100
0001
,
1000
0010
0100
0001
1000
0100
1000
0100
,
0011
1010
0101
1100
,
1001
0000
1100
0011
,
1001
0000
0000
0000
;

//---------------dance-double - ----------------
#NOTES:
     dance-double:
     :
     Challenge:
     11:
     0.457,0.420,0.105,0.021,0.299,293.000,10.000,2.000,0.000,0.000,0.000,0.457,0.420,0.105,0.021,0.299,293.000,10.000,2.000,0.000,0.000,0.000: // measure 0
00000000
00000000
00000000
00000000
,  // measure 1
00000000
00000000
00000000
00000000
,  // measure 2
00000000
00000000
00000000
00000000
,  // measure 3
00000000
00000000
00000000
00000000
,  // measure 4
00000000
00000000
00000000
00000000
,  // measure 5
00000100
00010000
00100000
00010000
00000000
00001000
00000000
00010000
,  // measure 6
00000100
00000000
00000000
00000000
00001000
00000000
00000000
01000000
00100000
00000000
00000000
00000000
10000000
00000000
00000000
00000000
,  // measure 7
00001000
00000100
00000010
00000100
00000001
00000100
00000010
00000100
,  // measure 8
00001000
00000000
00000001
00000000
00000100
00000000
00010000
00000000
00100000
00001000
00000000
00000000
01000000
10000000
00000000
00000000
,  // measure 9
00010000
10000000
00100000
01000000
00010000
00100000
01000000
10000000
,  // measure 10
00010000
00000000
00000000
00100000
00001000
00000000
00000000
00000010
00001000
00000000
00000000
00000001
00000010
00000000
00000000
00001000
,  // measure 11
00000200
00000000
00010000
00000000
00001300
00010000
00100000
00010000
,  // measure 12
00001000
00000000
00100000
00000000
00010000
00000000
10000000
01000000
00100000
00000000
00010000
00000000
10000000
00000000
00100000
00000000
,  // measure 13
00010000
00000000
00012000
00000000
01000000
01000000
01003000
00000000
,  // measure 14
00000100
00000000
00001000
00000000
00010000
00000000
00001000
00000010
00000001
00000000
00000100
00000000
00000010
00000000
00001000
00000000
,  // measure 15
00000100
00000000
00000000
00010000
00000000
00100000
10000000
01000000
,  // measure 16
00100000
00010000
00001000
00000000
00000100
00000000
00000000
00000000
00000010
00000100
00000001
00000000
00001000
00000000
00010000
00000000
,  // measure 17
00000000
00000000
10000000
00000000
00100000
00010000
01000000
00000000
00000000
00000000
10000000
00000000
00000000
00000000
00100000
00000000
,  // measure 18
00010000
00000000
01000000
00000000
10000000
00000000
00100000
00010000
00000100
00000000
00001000
00000000
00100000
00000000
00001000
00000000
,  // measure 19
00010000
00000000
00000100
00000010
00000001
00001000
00000000
00000001
,  // measure 20
00000000
00000100
00000010
00001000
00000010
00000100
00000010
00001000
,  // measure 21
00000001
00000000
00000100
00000000
00010000
00000000
00000000
00000000
10000000
00000000
01000000
00000000
00100000
00010000
00100000
00010000
,  // measure 22
00000000
00000000
00000000
10000000
00100000
00010000
01000000
00010000
,  // measure 23
00100000
10000000
01000000
10000000
00000000
00010000
00001000
00000010
,  // measure 24
00001000
00010000
00001000
00000010
00000000
00000001
00001000
00000100
,  // measure 25
00001000
00000001
00000010
00001000
00000000
00100000
01000000
10000000
,  // measure 26
00000000
00010000
00100000
01000000
00000000
10000000
01000000
00100000
,  // measure 27
00001000
00000000
00000000
00001000
00010000
00000000
00000000
00010000
00000010
00000000
00000000
00000010
00001000
00000000
00000000
00001000
,  // measure 28
00100000
00000000
00000000
00100000
00010000
00000000
00000000
00010000
10000000
00000000
00000000
10000000
00010000
00000000
00100000
00000000
,  // measure 29
00001000
00000000
00000000
00001000
00000010
00000000
00000000
00000010
00000001
00000000
00000000
00000001
00000100
00000000
00000000
00000100
,  // measure 30
00010000
00000000
00000000
00010000
00000100
00000000
00000000
00000100
00000001
00000000
00000000
00000001
00001000
00000000
00010000
00000000
,  // measure 31
00001000
00000000
00000000
00001000
00000001
00000000
00000000
00000001
00000010
00000000
00000000
00000010
00000100
00000000
00000000
00000100
,  // measure 32
00010000
00000000
00000000
00010000
10000000
00000000
00000000
10000000
00100000
00000000
00000000
00100000
10000000
00000000
01000000
00000000
,  // measure 33
00100000
10000000
00100000
01000000
00010000
00001000
00100000
00010000
,  // measure 34
00000000
00000000
00000000
00000000
,  // measure 35
00000001
00000010
00000100
00001000
00000000
00110000
00000000
11000000
,  // measure 36
00000000
00000000
00000000
00000000
,  // measure 37
10000000
01000000
00100000
00010000
00000000
00000110
00000000
00001001
,  // measure 38
00000000
00000000
00000000
00000000
,  // measure 39
00010000
10000000
01000000
00100000
00000000
00001100
00000000
00000011
,  // measure 40
00000000
00000000
00000000
00000000
,  // measure 41
10000000
00000000
00000000
10000000
01000000
00000000
00000000
01000000
00100000
00000000
00000000
00100000
00010000
00000000
00000000
00010000
,  // measure 42
01000000
00000000
00000000
01000000
00100000
00000000
00000000
00100000
10000000
00000000
00000000
10000000
00010000
00000000
00100000
00000000
,  // measure 43
00001000
00000000
00000000
00001000
00000100
00000000
00000000
00000100
00000010
00000000
00000000
00000010
00000001
00000000
00000000
00000001
,  // measure 44
00000010
00000000
00000000
00000010
00001000
00000000
00000000
00001000
00000001
00000000
00000000
00000001
00000100
00000000
00000010
00000000
,  // measure 45
00010000
00000000
00000000
00010000
10000000
00000000
00000000
10000000
01000000
00000000
00000000
01000000
00100000
00000000
00000000
00100000
,  // measure 46
10000000
00000000
00000000
10000000
00010000
00000000
00000000
00010000
01000000
00000000
00000000
01000000
00100000
00000000
00010000
00000000
,  // measure 47
00001000
00000100
00000001
00000100
00001000
00000010
00000100
00000001
,  // measure 48
00001000
00000000
00000000
00000000
00010000
00010000
00010000
00000000
,  // measure 49
00100000
00000000
00101000
00001100
,  // measure 50
00011000
00000000
00000000
00000000
;
