#VERSION:0.81;
#TITLE:TRIP MACHINE EVOLUTION;
#SUBTITLE:;
#ARTIST:DE-JAVU;
#TITLETRANSLIT:;
#SUBTITLETRANSLIT:;
#ARTISTTRANSLIT:;
#GENRE:;
#ORIGIN:;
#CREDIT:;
#BANNER:TRIP MACHINE EVOLUTION.png;
#BACKGROUND:TRIP MACHINE EVOLUTION-bg.png;
#PREVIEWVID:;
#JACKET:TRIP MACHINE EVOLUTION-jacket.png;
#CDIMAGE:;
#DISCIMAGE:;
#LYRICSPATH:;
#CDTITLE:./CDTitles/DanceDanceRevolution X3 VS 2ndMIX.png;
#MUSIC:TRIP MACHINE EVOLUTION.mp3;
#OFFSET:0.590;
#SAMPLESTART:42.980;
#SAMPLELENGTH:15.000;
#SELECTABLE:YES;
#DISPLAYBPM:190.000;
#BPMS:0.000=380.000,
8.000=190.000,
130.000=95.000,
131.000=190.000;
#STOPS:8.000=1.579,
37.000=0.947,
131.000=0.316,
228.500=0.158,
229.000=0.158,
229.500=0.158;
#DELAYS:;
#WARPS:;
#TIMESIGNATURES:0.000=4=4;
#TICKCOUNTS:0.000=4;
#COMBOS:0.000=1;
#SPEEDS:0.000=1.000=0.000=0;
#SCROLLS:0.000=1.000;
#FAKES:;
#LABELS:0.000=Song Start;
#BGCHANGES:;
#KEYSOUNDS:;
#ATTACKS:
;

//---------------dance-single - ----------------
#NOTEDATA:;
#CHARTNAME:;
#STEPSTYPE:dance-single;
#DESCRIPTION:;
#CHARTSTYLE:;
#DIFFICULTY:Easy;
#METER:9;
#RADARVALUES:0.481,0.511,0.509,0.078,0.000,284.000,52.000,8.000,0.000,0.000,0.000,0.000,0.000,0.481,0.511,0.509,0.078,0.000,284.000,52.000,8.000,0.000,0.000,0.000,0.000,0.000;
#CREDIT:;
#OFFSET:0.590;
#BPMS:0.000=380.000
,8.000=190.000
,130.000=95.000
,131.000=190.000
;
#STOPS:8.000=1.579
,37.000=0.947
,131.000=0.316
,228.500=0.158
,229.000=0.158
,229.500=0.158
;
#DELAYS:;
#WARPS:;
#TIMESIGNATURES:0.000=4=4
;
#TICKCOUNTS:0.000=4
;
#COMBOS:0.000=1
;
#SPEEDS:0.000=1.000=0.000=0
;
#SCROLLS:0.000=1.000
;
#FAKES:;
#LABELS:0.000=Song Start
;
#DISPLAYBPM:95.000:380.000;
#NOTES:
0000
0000
0000
0000
,
0000
0000
0000
0000
,
0000
0000
0001
0100
,
0010
0000
1000
0001
,
0010
0000
0001
1000
,
0010
0000
0100
0010
,
0010
0000
0100
1000
,
0001
0000
1000
0100
,
0010
0000
0100
0010
,
0001
0000
0100
1000
,
0010
1000
0001
1000
,
0100
1000
0010
1000
,
0001
1000
0100
1000
,
0001
1000
0001
0010
,
0100
0010
0001
0010
,
1000
0010
0100
0010
,
0001
1000
0001
0010
,
0100
1000
0001
1001
,
1000
0001
0100
0101
,
0001
0100
0010
0110
,
0100
0010
1000
1100
,
1000
1000
0100
1100
,
1000
0010
0001
0011
,
0010
0001
1000
1001
,
0001
0010
0100
0110
,
0010
0000
0010
0000
1000
0000
0000
1000
,
0000
0000
0100
0000
0010
0100
0000
0010
,
0000
0100
0010
0000
0001
0000
0000
0001
,
0000
1000
0001
0000
0200
0000
0000
0000
,
0000
0000
0300
0000
1000
0000
0000
1000
,
0000
0000
0001
0000
0001
1000
0000
1000
,
0001
0000
1000
0000
0100
0000
0000
0011
,
0000
1100
0220
0330
,
0001
0101
1000
0001
,
2000
0100
0010
3001
,
1000
1010
0001
1000
,
0002
0100
0010
1003
,
0010
0110
1000
0001
,
2000
0100
0001
3010
,
0100
0101
1000
0010
,
0200
0001
0010
0301
,
0100
0000
0101
0000
0000
1000
0000
1000
,
0000
0010
0000
0001
0000
0001
1000
0000
,
0100
0000
1100
0000
0000
0010
0000
0010
,
0000
1000
0000
0001
0000
1000
0001
0000
,
0010
0000
1001
0000
0000
0100
0000
0110
,
0000
0010
0000
1000
0000
0010
0100
0000
,
0010
0000
1100
0000
0000
0001
0000
0011
,
0000
0100
0000
1100
0000
0001
1000
0000
,
0100
0100
1100
0100
,
0100
0101
0010
0100
,
1010
1000
1010
0011
,
0001
0011
0100
0010
,
0011
0000
0001
0001
0001
0000
1100
0000
,
1000
1000
1000
0000
0100
0000
0110
0000
,
1100
0000
0001
0001
0001
0000
0101
0000
,
1000
1000
1000
0000
0110
0000
1001
0000
,
0000
0020
0000
0030
0000
0100
0000
1000
,
0000
0100
0000
0010
0000
1000
0000
0100
,
0000
0010
0000
1000
0000
0001
0000
0101
,
0000
1000
0000
1010
0000
0000
0001
0000
,
0101
0000
0001
0000
0001
0100
0000
1000
,
0000
0010
0000
0001
0000
0100
0000
0010
,
0000
0001
0000
1000
0000
0100
0000
0011
,
0000
0100
0000
1001
0000
0000
0001
0000
,
0011
0000
0001
0000
0001
1000
0000
0100
,
0000
0010
0000
0011
0000
0001
0000
1000
,
0000
0100
0000
0001
0000
1000
0000
1100
,
0000
0001
0000
0110
0000
0000
0001
0000
,
1001
0000
0001
0000
0001
0100
0000
0001
,
0000
1000
0000
1001
0000
0100
0000
0010
,
0000
0001
0000
1001
0000
0010
0001
0010
,
0000
0100
1000
0100
0000
0011
0000
1100
,
0000
0011
0000
1100
0000
0010
0010
0010
,
0000
0100
0100
0100
0000
1001
0000
0000
;

//---------------dance-single - ----------------
#NOTEDATA:;
#CHARTNAME:;
#STEPSTYPE:dance-single;
#DESCRIPTION:;
#CHARTSTYLE:;
#DIFFICULTY:Medium;
#METER:12;
#RADARVALUES:0.647,0.620,0.548,0.078,0.000,399.000,56.000,8.000,0.000,0.000,0.000,0.000,0.000,0.647,0.620,0.548,0.078,0.000,399.000,56.000,8.000,0.000,0.000,0.000,0.000,0.000;
#CREDIT:;
#OFFSET:0.590;
#BPMS:0.000=380.000
,8.000=190.000
,130.000=95.000
,131.000=190.000
;
#STOPS:8.000=1.579
,37.000=0.947
,131.000=0.316
,228.500=0.158
,229.000=0.158
,229.500=0.158
;
#DELAYS:;
#WARPS:;
#TIMESIGNATURES:0.000=4=4
;
#TICKCOUNTS:0.000=4
;
#COMBOS:0.000=1
;
#SPEEDS:0.000=1.000=0.000=0
;
#SCROLLS:0.000=1.000
;
#FAKES:;
#LABELS:0.000=Song Start
;
#DISPLAYBPM:95.000:380.000;
#NOTES:
0000
0000
0000
0000
,
0000
0000
0000
0000
,
0000
0001
0001
0010
,
1000
0001
0010
1000
,
0001
0100
0100
0010
,
1000
0000
0100
0000
0010
0000
1000
0001
,
1000
0001
0100
0000
1000
0000
0001
0000
,
0100
1000
0001
0100
,
1000
0000
0010
0000
0100
0000
0001
0100
,
1000
0010
0000
0000
0100
0000
0001
0000
,
0100
1001
0010
1000
,
0010
0100
0001
0000
0010
0000
0001
0000
,
0100
1010
0001
1000
,
0100
0010
0001
0000
0100
0000
1010
0000
,
0100
0001
0010
1100
,
1000
0001
0010
0000
0100
0000
1010
0000
,
0001
0010
0001
0110
,
1000
0001
1000
0000
0010
0000
0101
0000
,
0010
0010
0001
0000
0100
0000
1010
0000
,
0001
0001
0100
0000
0010
0000
1100
0000
,
0010
0010
0100
0000
1000
0100
1000
0000
,
0001
1001
0100
1010
,
0001
0001
1000
0000
0100
0000
0011
0000
,
1000
1000
0001
0000
0100
0000
1001
0000
,
0010
0010
0100
0000
0001
1000
0001
1000
,
0001
1000
1001
0000
0101
0000
0000
1001
,
0000
0000
1100
0000
1000
0001
0000
0001
,
0100
0001
0010
0001
1001
0000
0000
1100
,
0000
0101
2002
0000
,
0000
0000
3003
0000
1000
0100
0000
0010
,
0100
0000
0010
0001
1000
0100
0010
0001
,
0100
0001
0010
0000
1000
1100
0000
0001
,
1001
0101
0200
0310
,
0100
0000
1001
0000
1000
0010
1000
0010
,
0000
1010
0000
0101
0000
0100
0010
0100
,
0001
1000
0001
0000
0001
0100
0001
0100
,
0000
0101
0000
1010
0000
0010
0100
0010
,
0100
0000
1001
0000
1000
0100
0010
0001
,
0000
0011
0000
1100
0000
0001
0100
0001
,
1000
0010
1000
0000
0001
0100
0010
1000
,
0000
1010
0000
0101
0000
0010
0001
1000
,
0100
0000
1002
0000
0010
0010
0000
1003
,
0000
0001
0000
0010
0001
1000
0001
0100
,
0010
1000
0002
0000
0100
0100
0000
0013
,
0000
0001
0000
1000
0001
0010
0100
1000
,
0001
0000
1100
0000
0100
0010
0001
0100
,
0000
1100
0000
0100
1000
0001
0100
0010
,
1000
0100
0010
0000
0010
0001
0000
1100
,
0000
0011
0000
0101
0000
1100
0000
1001
,
0001
0100
0001
0100
0001
0000
1000
0100
,
1000
0100
1000
0000
0001
1000
1001
0000
,
0010
0001
0100
0001
0010
0000
0100
1000
,
0010
1000
0100
0000
1000
0100
0001
0100
,
0010
0100
1000
1000
1000
0000
0010
0100
,
0001
0001
0001
0000
0010
0100
1001
0000
,
1000
1000
1000
0001
1001
0000
0001
0001
,
0001
1000
1001
0000
0001
1000
0001
1000
,
0000
0010
0110
0010
0000
0100
0000
1001
,
0000
0001
0100
0010
0000
0100
0000
0010
,
0100
1000
0100
0010
0100
0001
0000
1010
,
0000
0100
0001
0010
0001
0200
0010
0000
,
0001
0000
0010
0000
0301
1000
0000
0010
,
0000
0001
0100
0010
1000
0100
0000
0001
,
0100
0010
0100
0001
0100
1000
0000
1100
,
0000
0001
0010
0100
1000
0002
0010
0000
,
1000
0000
0010
0000
1003
0010
0000
0110
,
0000
1000
0100
0001
0000
0101
0000
0010
,
0100
0001
0100
0010
1000
0100
0000
0011
,
0000
1000
0100
0001
0100
2000
0010
0000
,
0100
0000
0010
0000
3100
0000
0001
0010
,
0100
1000
0001
1000
0100
0000
0001
0010
,
0100
1000
0100
0001
0100
0010
0001
0100
,
0010
0100
1000
0100
0100
0001
1000
0001
,
1000
0010
0100
0010
0100
0001
0001
0101
,
0000
1000
1000
1100
0000
1001
0000
0000
;

//---------------dance-single - ----------------
#NOTEDATA:;
#CHARTNAME:;
#STEPSTYPE:dance-single;
#DESCRIPTION:;
#CHARTSTYLE:;
#DIFFICULTY:Hard;
#METER:16;
#RADARVALUES:0.950,0.949,0.782,0.156,0.562,584.000,80.000,16.000,0.000,0.000,0.000,0.000,0.000,0.950,0.949,0.782,0.156,0.562,584.000,80.000,16.000,0.000,0.000,0.000,0.000,0.000;
#CREDIT:;
#OFFSET:0.590;
#BPMS:0.000=380.000
,8.000=190.000
,130.000=95.000
,131.000=190.000
;
#STOPS:8.000=1.579
,37.000=0.947
,131.000=0.316
,228.500=0.158
,229.000=0.158
,229.500=0.158
;
#DELAYS:;
#WARPS:;
#TIMESIGNATURES:0.000=4=4
;
#TICKCOUNTS:0.000=4
;
#COMBOS:0.000=1
;
#SPEEDS:0.000=1.000=0.000=0
;
#SCROLLS:0.000=1.000
;
#FAKES:;
#LABELS:0.000=Song Start
;
#DISPLAYBPM:95.000:380.000;
#NOTES:
0000
0000
0000
0000
,
0000
0000
0000
0000
,
0220
0330
1001
0000
0010
0100
1000
0000
,
0001
0000
1010
0000
0100
0010
0001
0000
,
1000
0000
0101
0000
0010
0001
1000
0000
,
0001
0000
1001
0000
0100
0000
0001
0010
,
0100
1000
1001
0000
0100
0010
1000
0000
,
0001
0000
1100
0000
0010
0001
0100
0000
,
0011
0000
0100
0000
1000
0100
0001
1000
,
0001
0000
1000
0200
0000
0000
0300
0000
1100
0000
0000
0000
1000
0000
0100
0000
,
0010
0100
0000
0010
0001
0000
0100
0000
0101
0000
0000
0000
0001
0000
0010
0000
,
0001
0010
0000
0100
1000
0000
0010
0000
0110
0000
0000
0000
0010
0000
1000
0000
,
0001
0100
0000
0010
1000
0000
0010
0000
1010
0000
0000
0000
0100
0000
0001
0000
,
0010
0001
0000
1000
0100
0000
0010
0001
0200
0000
0000
0000
0301
0000
0100
0000
,
1000
0100
0000
0010
1000
0000
0001
0000
0102
0000
0000
0000
1003
0000
0100
0000
,
0010
0001
0000
0100
0001
0000
0010
0000
0021
0000
0000
0000
1030
0000
0010
0000
,
0001
0010
0000
0001
0100
0000
1000
0000
1200
0000
0000
0000
0301
0000
0100
0000
,
0010
0100
0000
0010
1000
0000
0001
0000
1001
0000
0100
0000
0010
0000
0001
0000
,
0100
0010
0000
1000
0100
0000
0010
0000
0001
0000
0100
0000
0010
0000
0001
0000
,
0010
1000
0000
0001
0100
0000
0000
0000
0100
0000
0010
0000
0100
0000
0001
0000
,
1000
0100
0000
0010
1000
0000
0001
0000
0100
0000
1000
0000
0001
0000
0100
0000
,
0010
1000
0000
0010
0100
0000
0000
0000
0010
0000
0001
0000
0100
0000
1000
0000
,
0001
0100
0000
1000
0001
0000
0010
0000
1000
0000
0100
0000
0001
0000
0100
0000
,
0010
0001
0000
0010
0100
0000
0000
0000
0010
0000
0001
0000
0010
0000
1000
0000
,
0001
0100
0000
0010
0001
0000
1000
0000
0010
0000
0100
0000
0010
0000
0100
0000
,
1001
0000
0000
0000
0110
0000
0000
0000
1000
0100
0000
0000
0110
0000
0001
0100
,
0000
0000
0110
0000
1000
0100
0000
0000
0110
0000
0001
0100
0000
0000
0110
0000
,
0001
0100
1000
0000
1000
0100
0001
0000
1000
0100
0000
0000
1010
0000
0001
0100
,
0000
0000
0011
0000
1000
0100
0000
0000
0120
0000
0000
0000
0000
0000
0100
0000
,
0200
0000
0000
0000
0330
0000
0000
0000
1000
0100
0010
0000
0010
0000
0001
0100
,
0010
0000
0010
0000
1000
0100
0010
0000
0010
0000
0100
0000
0001
0000
0100
0000
,
1000
0000
0100
0000
0010
0000
0100
0000
1000
0010
0100
0000
0100
0000
0001
0010
,
0100
0000
0100
0000
0010
0100
0010
0000
0210
0000
0000
0000
0020
0000
0330
0000
,
0110
0000
0000
0000
1001
0000
0000
0000
1000
0000
0001
0100
0001
0000
0010
0000
,
0100
0000
0010
0000
0001
0000
0100
0000
0010
0000
1000
0010
1000
0000
0100
0000
,
0010
0000
0100
0000
0110
0000
0000
0000
0100
0000
1000
0100
1000
0000
0001
0000
,
0100
0000
0010
0100
0000
0000
0100
0010
0000
0000
0010
1000
0000
0000
1000
0001
,
0100
0000
0000
0000
0110
0000
0000
0000
0100
0000
1000
0001
1000
0000
0001
0000
,
0100
0000
1000
0000
0100
0000
0010
0000
0100
0000
0001
0100
0001
0000
1000
0000
,
0100
0000
0010
0000
0110
0000
0000
0000
1000
0000
0100
0010
0100
0000
0001
0000
,
0100
0000
1000
0100
0000
0000
0100
0001
0000
0000
0001
0010
0000
0000
0010
0100
,
1000
0000
0000
0000
1001
0000
0000
0000
1000
0000
0001
0010
0001
0000
0100
0000
,
1000
0000
0100
0010
0100
0000
0001
0000
0010
0000
0100
0000
1000
0000
0010
0000
,
1000
0000
0010
0001
0010
0000
1000
0000
0001
0000
0100
0010
0100
0000
0010
0000
,
1000
0000
0100
0001
0000
0000
1000
0010
0000
0000
0001
1000
0000
0000
0010
1000
,
0100
0000
0000
0000
1001
0000
0000
0000
0010
0000
1000
0010
1000
0000
0010
0000
,
0001
0000
0010
1000
0010
0000
0001
0000
1000
0000
0100
0000
0010
0000
0100
0000
,
0001
0000
1000
0100
1000
0000
0010
0000
0001
0000
0010
1000
0010
0000
0001
0000
,
0100
0000
0010
1000
0000
0000
0100
0001
0000
0000
1000
0100
0000
0000
0001
0000
,
0110
0100
0001
0001
0101
0000
0011
0001
,
0010
0010
0110
0000
0110
0100
0001
1000
,
1010
0010
0110
0100
1001
0000
0101
0100
,
0110
0000
0010
0000
1001
0000
0000
0000
0010
1000
0010
1000
0001
0100
0001
0100
,
0010
1000
1100
1100
1001
0000
0010
0001
,
0101
0101
1001
0000
0101
1000
0110
0001
,
1010
1010
1100
0110
0110
0000
0011
0011
,
0101
0000
0110
0000
0110
0000
0000
0000
0001
0010
0100
1000
0001
0010
0100
1000
,
0000
1200
0001
1300
0000
0110
0000
1001
,
0000
0010
0100
0000
1000
0000
0001
0000
0010
0001
0200
0000
0000
0000
0310
0000
,
0100
0001
0010
0000
0010
0000
0100
0000
0010
0000
1000
0000
0010
0100
0002
0000
,
1000
0000
1003
0000
0010
0000
0100
0000
0110
0000
0000
0000
0010
1000
0000
0000
,
1000
0100
0000
0000
0100
0001
0000
0000
0001
0010
0100
0000
0000
0000
0110
0000
,
0000
0100
0010
0000
0001
0000
1000
0000
0100
1000
0020
0000
0000
0000
0031
0000
,
0010
1000
0100
0000
0100
0000
0010
0000
0100
0000
0001
0000
0010
0100
2000
0000
,
0001
0000
3001
0000
0100
0000
0010
0000
1010
0000
0000
0000
0100
0001
0000
0000
,
0001
0010
0001
0000
1000
0000
0100
0000
0010
0000
0101
0000
0000
0000
1001
0000
,
0000
0001
0010
0000
1000
0000
0001
0000
1000
0100
0001
0000
0000
0000
0010
0000
,
0001
0010
1000
0000
0010
0000
0001
0000
0100
0000
1000
0000
0001
1000
0100
0000
,
0010
0001
0010
0000
0100
0000
1000
0000
1001
0000
0000
0000
0100
1000
0000
0000
,
1000
0010
1000
0000
0001
0000
0100
0000
0010
0000
1100
0000
1000
0000
0100
0000
,
0001
0000
0100
0000
0010
0100
1000
0000
0001
0000
0011
0000
0001
0000
0100
0000
,
1000
0000
0100
0000
0010
0100
0001
0000
1000
0000
1001
0000
0010
0001
0100
0000
,
0010
0000
0110
0000
0010
1000
0100
0000
0010
0000
0001
0100
0001
0000
1000
0010
,
1000
0000
0010
0100
0010
0100
0001
0010
0100
1000
0100
0000
0110
0000
0011
0000
,
0100
0010
0110
1010
0000
1001
0000
0000
;

//---------------dance-double - ----------------
#NOTEDATA:;
#CHARTNAME:;
#STEPSTYPE:dance-double;
#DESCRIPTION:;
#CHARTSTYLE:;
#DIFFICULTY:Easy;
#METER:9;
#RADARVALUES:0.398,0.401,0.235,0.068,0.000,254.000,24.000,7.000,0.000,0.000,0.000,0.000,0.000,0.398,0.401,0.235,0.068,0.000,254.000,24.000,7.000,0.000,0.000,0.000,0.000,0.000;
#CREDIT:;
#OFFSET:0.590;
#BPMS:0.000=380.000
,8.000=190.000
,130.000=95.000
,131.000=190.000
;
#STOPS:8.000=1.579
,37.000=0.947
,131.000=0.316
,228.500=0.158
,229.000=0.158
,229.500=0.158
;
#DELAYS:;
#WARPS:;
#TIMESIGNATURES:0.000=4=4
;
#TICKCOUNTS:0.000=4
;
#COMBOS:0.000=1
;
#SPEEDS:0.000=1.000=0.000=0
;
#SCROLLS:0.000=1.000
;
#FAKES:;
#LABELS:0.000=Song Start
;
#DISPLAYBPM:95.000:380.000;
#NOTES:
00000000
00000000
00000000
00000000
,
00000000
00000000
00000000
00000000
,
00000000
00000000
00000010
00000000
,
00000100
00000000
00001000
00010000
,
00001000
00000000
00100000
00000000
,
01000000
00000000
10000000
00010000
,
00100000
00000000
00001000
00000000
,
00010000
00000000
00000100
00000010
,
00000001
00000000
00000100
00000000
,
00001000
00000000
00010000
00001000
,
00000000
00001000
01000000
00010000
,
00000000
00010000
10000000
00100000
,
00000000
00100000
00010000
00001000
,
00000010
00001000
00000100
00000010
,
00000000
00000010
00001000
00000001
,
00000000
00000001
00000010
00001000
,
00000000
00001000
00010000
00100000
,
00010000
01000000
00100000
01100000
,
00000000
10000000
01000000
11000000
,
00000000
01000000
00010000
00011000
,
00000000
00000100
00000001
00000101
,
00000000
00000001
00000010
00000011
,
00000000
00001000
00010000
00011000
,
00000000
00100000
10000000
10100000
,
00000000
10000000
00010000
10010000
,
00100000
00000000
00001000
00000000
00010000
00000000
00000000
00010000
,
00000000
00000000
00000010
00000000
00000010
00000000
00000000
00001000
,
00000000
00000000
00000001
00000000
00000100
00000000
00000000
00001000
,
00000000
00010000
02000000
00000000
,
00000000
00000000
03000000
00000000
00100000
00000000
00000000
00100000
,
00000000
00000000
00001000
00000000
00001000
00000000
00000000
00010000
,
00000000
00000000
00000100
00000000
00000010
00000000
00000000
00000010
,
00000000
00000001
00000200
00000300
,
00000001
00001001
00000010
00000100
,
00000020
00000001
00000100
00001030
,
00010000
00010010
00000100
00001000
,
00020000
00000010
00001000
00030100
,
00010000
00011000
00001000
00100000
,
00002000
00010000
00100000
01003000
,
00010000
00110000
00100000
01000000
,
20000000
00100000
00010000
31000000
,
00100000
00000000
01100000
00000000
00000000
00010000
00000000
00010000
,
00000000
00001000
00000000
00000100
00000000
00000001
00001000
00000000
,
00000010
00000000
00000110
00000000
00000000
00000001
00000000
00000001
,
00000000
00000100
00000000
00001000
00000000
00000010
00000100
00000000
,
00000010
00000000
00001001
00000000
00000000
00000010
00000000
00000010
,
00000000
00000100
00000000
00001000
00000000
00010000
00001000
00000000
,
00010000
00000000
00011000
00000000
00000000
00001000
00000000
00010000
,
00000000
01000000
00000000
10000000
00000000
00010000
01000000
00000000
,
10000000
10000000
01000000
00010000
,
00010000
01000000
00100000
00100000
,
00001000
00001000
00011000
00010000
,
00010000
00011000
00001000
00010000
,
00001000
00001000
00000010
00000001
,
00000001
00000010
00000100
00000100
,
00001000
00000001
00001001
00000100
,
00000010
00000110
00001000
00010000
,
00000000
02000000
00000000
03000000
00000000
00100000
00000000
10000000
,
00000000
00100000
00000000
01000000
00000000
00010000
00000000
00000000
,
00000000
00100000
00000000
00001000
00000000
00010000
00000000
00001000
,
00000000
00000010
00000000
00000001
00000000
00000000
00001000
00000000
,
00001000
00000000
00001000
00000000
00001000
00000001
00000000
00000100
,
00000000
00000010
00000000
00001000
00000000
00000100
00000000
00000000
,
00000000
00010000
00000000
00100000
00000000
01000000
00000000
01100000
,
00000000
00010000
00000000
10000000
00000000
00000000
00010000
00000000
,
00010000
00000000
00010000
00000000
00010000
10000000
00000000
01000000
,
00000000
00010000
00000000
01000000
00000000
00100000
00000000
00001000
,
00000000
00010000
00000000
00001000
00000000
00000010
00000000
00000001
,
00000000
00000010
00000000
00000100
00000000
00000000
00001000
00000000
,
00001000
00000000
00001000
00000000
00001000
00000001
00000000
00000100
,
00000000
00001000
00000000
00000100
00000000
00000010
00000000
00001000
,
00000000
00010000
00000000
00001000
00000000
00010000
00000000
00100000
,
00000000
01000000
00000000
00010000
00000000
10000000
00000000
00010000
,
00000000
11000000
00000000
00110000
00000000
10000000
01000000
00010000
,
00000000
00001000
00010000
01000000
00000000
10010000
00000000
00000000
;

//---------------dance-double - ----------------
#NOTEDATA:;
#CHARTNAME:;
#STEPSTYPE:dance-double;
#DESCRIPTION:;
#CHARTSTYLE:;
#DIFFICULTY:Medium;
#METER:12;
#RADARVALUES:0.625,0.547,0.518,0.078,0.000,386.000,53.000,8.000,0.000,0.000,0.000,0.000,0.000,0.625,0.547,0.518,0.078,0.000,386.000,53.000,8.000,0.000,0.000,0.000,0.000,0.000;
#CREDIT:;
#OFFSET:0.590;
#BPMS:0.000=380.000
,8.000=190.000
,130.000=95.000
,131.000=190.000
;
#STOPS:8.000=1.579
,37.000=0.947
,131.000=0.316
,228.500=0.158
,229.000=0.158
,229.500=0.158
;
#DELAYS:;
#WARPS:;
#TIMESIGNATURES:0.000=4=4
;
#TICKCOUNTS:0.000=4
;
#COMBOS:0.000=1
;
#SPEEDS:0.000=1.000=0.000=0
;
#SCROLLS:0.000=1.000
;
#FAKES:;
#LABELS:0.000=Song Start
;
#DISPLAYBPM:95.000:380.000;
#NOTES:
00000000
00000000
00000000
00000000
,
00000000
00000000
00000000
00000000
,
00000000
00001000
01000000
00001000
,
00010000
00000010
00010000
00001000
,
00000100
00000010
00000100
00001000
,
00010000
00000000
01000000
00000000
00100000
00000000
00010000
10000000
,
00010000
10000000
01000000
00000000
10000000
00000000
01000000
00000000
,
00010000
00001000
00100000
00001000
,
00010000
00001000
00001000
00000100
,
00000010
00000000
00001000
00000100
,
00001000
00000001
00000010
00000000
00000100
00000000
00001000
00000000
,
00000001
00000110
00001000
00010000
,
00001000
00010000
00100000
00000000
10000000
00000000
00100000
00000000
,
01000000
01100000
00010000
00100000
,
01000000
10000000
00010000
00000000
00100000
00000000
00001000
00000000
,
00010000
00011000
00000010
00001000
,
00000010
00001000
00000100
00000000
00000010
00000000
00000001
00000000
,
00001000
00000110
00001000
00010100
,
00000000
00001000
00010000
00000000
01000000
00000000
10100000
00000000
,
00010000
10000000
01000000
00000000
00100000
00000000
01001000
00000000
,
00000000
00010000
00001000
00000000
00000010
00000100
00000010
00000000
,
00000001
00001001
00000100
00001010
,
00000000
00000001
00001000
00000000
00000100
00000000
00011000
00000000
,
00010000
00001000
01000000
00000000
00100000
00000000
10010000
00000000
,
00000000
00100000
01000000
00000000
00010000
01000000
00010000
10000000
,
00010000
00100000
00010000
00000000
11000000
00000000
01000000
00100000
,
00000000
00100000
00001000
00000000
00011000
00000000
00010000
00000100
,
00000000
00000100
00000010
00000100
00001000
00000000
00000010
00000100
,
00000000
00000100
00001000
00000000
00022000
00000000
00000000
00000000
,
00000000
00000000
00033000
00000000
00101000
00000000
00010000
01000000
,
00000000
00100000
10000000
00000000
10010000
00000000
10000000
01000000
,
00000000
00100000
00001000
00010000
00000100
00000000
00000010
00000100
,
00000000
00001001
00000200
00000310
,
00000001
00000000
00000101
00000000
00000010
00000100
00000000
00001100
,
00000000
00000101
00000000
00000010
00001000
00000010
00001000
00000010
,
00000100
00001000
00010000
00000000
00010000
00001000
00000000
00101000
,
00000000
01010000
00000000
01000000
00010000
00100000
01000000
10000000
,
00100000
00000000
11000000
00000000
00100000
00010000
00000000
01010000
,
00000000
10100000
00000000
00100000
01000000
10000000
01000000
00010000
,
00100000
00001000
00100000
00000000
00010000
00001000
00000000
00011000
,
00000000
00010010
00000000
00001000
00000100
00000010
00000001
00000100
,
00001000
00000000
00000110
00000000
00000001
00000101
00000000
00001100
,
00000000
00000011
00000000
00001000
00000001
00000100
00000010
00000100
,
00001000
00010000
00020000
00000000
00001000
00001000
00000000
00130000
,
00000000
01100000
00000000
00010000
00100000
01000000
10000000
00010000
,
10000000
00000000
11000000
00000000
10000000
10100000
00000000
01001000
,
00000000
00110000
00000000
00100000
00001000
00010000
00001000
00000100
,
00000010
00001000
00000200
00000000
00000010
00000010
00000000
00001300
,
00000000
00001001
00000000
00000011
00000000
00001010
00000000
00001001
,
00000001
00000100
00000001
00000100
00000001
00000000
00001000
00000100
,
00001000
00000100
00001000
00000000
00010000
00001000
00010000
00000000
,
00100000
00010000
00100000
00010000
00100000
00000000
00100000
10000000
,
00100000
10000000
00100000
00000000
10000000
01000000
00100000
00010000
,
01000000
00010000
10000000
01000000
00010000
00000000
00001000
00000100
,
00000001
00001000
00000010
00000000
00000110
00000000
00001001
00000000
,
00000100
00000010
00010000
00010000
00010000
00000000
01000000
00100000
,
00001000
00001000
00001000
00000000
00010000
01000000
10000000
00100000
,
00000000
10000000
00010000
00001000
00000000
00000100
00000000
00001001
,
00000000
00000001
00000100
00000010
00000000
00000100
00000000
00001000
,
00010000
00001000
00100000
00010000
00100000
01000000
00000000
00110000
,
00000000
00010000
10000000
00100000
00000000
20000000
01000000
00000000
,
00010000
00000000
00100000
00000000
30010000
01000000
00000000
01100000
,
00000000
10000000
01000000
00100000
00000000
01100000
00000000
00010000
,
00001000
00010000
00000100
00000010
00000001
00000100
00000000
00000110
,
00000000
00000100
00000001
00000010
00000000
00000002
00000010
00000000
,
00001000
00000000
00000100
00000000
00001003
00000100
00000000
00000110
,
00000000
00000010
00000001
00001000
00000000
00001001
00000000
00000010
,
00000001
00000100
00001000
00010000
00001000
00010000
00000000
00011000
,
00000000
00001000
00010000
00100000
00100000
02000000
10000000
00000000
,
00100000
00000000
00010000
00000000
03001000
00100000
00010000
00100000
,
00010000
10000000
01000000
00100000
00000000
00010000
00100000
00001000
,
00010000
00000100
00001000
00000100
00000000
00000001
00000010
00000100
,
00000000
00001000
00000010
00000100
00000000
00001000
00010000
00100000
,
00010000
00001000
00000010
00001000
00010000
00100000
00100000
01100000
,
00000000
10000000
10000000
10010000
00000000
10010000
00000000
00000000
;

//---------------dance-single - TRIP EVO----------------
#NOTEDATA:;
#CHARTNAME:TRIP EVO;
#STEPSTYPE:dance-single;
#DESCRIPTION:TRIP EVO;
#CHARTSTYLE:;
#DIFFICULTY:Edit;
#METER:19;
#RADARVALUES:1.000,1.000,0.792,0.342,0.694,651.000,81.000,35.000,0.000,0.000,0.000,0.000,0.000,1.000,1.000,0.792,0.342,0.694,651.000,81.000,35.000,0.000,0.000,0.000,0.000,0.000;
#CREDIT:TRIP EVO;
#OFFSET:0.590;
#BPMS:0.000=380.000
,8.000=190.000
,130.000=95.000
,131.000=190.000
;
#STOPS:8.000=1.579
,37.000=0.947
,131.000=0.316
,228.500=0.158
,229.000=0.158
,229.500=0.158
;
#DELAYS:;
#WARPS:;
#TIMESIGNATURES:0.000=4=4
;
#TICKCOUNTS:0.000=4
;
#COMBOS:0.000=1
;
#SPEEDS:0.000=1.000=0.000=0
;
#SCROLLS:0.000=1.000
;
#FAKES:;
#LABELS:0.000=Song Start
;
#DISPLAYBPM:95.000:380.000;
#NOTES:
0000
0000
0000
0000
,
0000
0000
0000
0000
,
0210
0000
0301
0000
0100
0010
1000
0000
,
0011
0000
1020
0000
0031
0100
1000
0000
,
2001
0000
0100
0000
3001
1000
0102
0000
,
1000
0000
0000
0000
0100
0000
0000
0000
0013
0000
0000
0001
0100
0000
0001
0000
,
1000
0010
0100
1000
0001
0010
1000
0010
,
0001
0000
1000
0010
0100
1000
0010
0001
,
1000
0000
0001
0100
0010
0001
1000
0100
,
0001
0000
0010
0200
0000
0000
0300
0000
1100
0000
0000
0000
1000
0000
0100
0000
,
0010
0100
0000
0010
0001
0000
0100
0000
0101
0000
0000
0000
0001
0000
1000
0000
,
0100
0010
0000
0001
0010
0000
1000
0000
1010
0000
0000
0000
0010
0000
0100
0000
,
0001
1000
0000
0100
1000
0000
0010
0000
0110
0000
0000
0000
0100
0000
0001
0000
,
1000
0000
0010
0001
0100
0000
0010
1000
0200
0000
0000
0000
0301
0000
0010
0000
,
0001
0100
0000
0001
0010
0000
1000
0000
1100
0000
0000
0000
0010
0000
0100
0000
,
0001
1000
0000
0100
0010
0000
1000
0000
1100
0000
0000
0000
0001
0000
1000
0000
,
0010
0100
0000
0001
0100
0000
1000
0000
1100
0000
0000
0000
0001
0000
1000
0000
,
0100
0010
0100
0001
0010
0100
1000
0001
1000
0000
0100
0000
0010
0000
1000
0000
,
0001
1000
0000
0100
1000
0000
0100
0000
0110
0000
0000
0000
0010
0000
0001
0000
,
0010
0100
0000
0010
1000
0000
0100
0000
1001
0000
0000
0000
0100
0000
0010
0000
,
0001
1000
0000
0001
0010
0000
0100
0000
0110
0000
0000
0000
0001
0000
0100
0000
,
1000
0010
1000
0100
0010
0001
0010
0100
1000
0000
0010
0000
0100
0000
1000
0000
,
0001
0010
0100
0000
1001
0000
0010
0000
1000
0000
0100
0000
0001
0000
0100
0000
,
0001
0010
0001
0000
1100
0000
0000
0000
0010
0000
0001
0000
0010
0000
1000
0000
,
0001
1000
0100
0000
0010
0000
0100
0000
0010
0000
1000
0000
0001
0000
0100
0000
,
0011
0000
0110
0000
1100
0000
0000
0000
1000
0100
0010
0000
0100
0000
1000
0100
,
0010
0000
1000
0000
0001
0100
0010
0000
0010
0000
0001
0100
1000
0000
0010
0000
,
0001
0100
0001
0000
1000
0100
1000
0000
0010
0100
0010
0000
0001
0000
0001
0100
,
0010
0000
1000
0000
0010
0100
0010
0002
2000
0000
0000
0000
0003
0000
0010
0000
,
0001
0000
0001
0000
0001
0000
0001
0000
3010
0100
0010
0000
1000
0000
0001
0100
,
0010
0000
0001
0000
0010
0100
1000
0000
0010
0100
0001
0000
0010
0000
1000
0100
,
0010
0000
0101
0000
0010
0000
0100
0000
0001
0010
0100
0000
1010
0000
0100
0010
,
0001
0000
0000
0000
0000
0000
0000
0000
1000
0000
0000
0000
0000
0000
0000
0000
0001
0000
0000
0000
1000
0000
0000
0000
0100
0000
0000
0000
1000
0000
0000
0000
0020
0000
0000
0000
0000
0000
0000
0000
0000
0000
0000
0000
0000
0000
0000
0000
2000
3030
0000
0000
0000
0000
0000
0000
0000
0000
0000
0000
0000
0000
0000
0000
,
0200
0000
0010
0000
0320
0000
0000
0000
1030
0000
0001
0100
0010
0000
1000
0000
,
0100
0000
0010
0000
1000
0000
0001
0000
0100
0000
1000
0010
0100
0000
0100
0000
,
0010
0001
0010
0100
2000
0000
0000
0000
3100
0000
1000
0100
1000
0000
0001
0000
,
0100
0000
0010
0000
0001
0000
0100
0000
0001
0000
0010
0000
1000
0000
0010
0001
,
0100
0000
0010
0000
0001
0100
0000
0000
0100
0000
1000
0001
1000
0000
0001
0000
,
0100
0000
1000
0000
0100
0000
0010
0000
0100
0000
0001
0100
0001
0000
1000
0000
,
0100
0001
0010
0100
1000
0000
0000
0000
1000
0000
0100
0010
0100
0000
0001
0000
,
0100
0000
1000
0000
0010
0000
0100
0000
0010
0000
0001
0000
0100
0000
0010
0100
,
1000
0000
0001
0000
0010
1000
0000
0000
1000
0000
0001
0010
0001
0000
0100
0000
,
1000
0000
0100
0010
0100
0000
0001
0000
0010
0000
0100
0000
1000
0000
0001
0000
,
0010
0100
0001
0100
0010
0000
1000
0000
0001
0000
0100
0010
0100
0000
0010
0000
,
1000
0000
0100
0000
0001
0000
1000
0000
0010
0000
0001
0000
0100
0000
0010
1000
,
0100
0000
0001
0000
0100
0010
0000
0000
0010
0000
1000
0100
0010
0000
0001
0000
,
0100
0000
0010
1000
0100
0000
0001
0000
1000
0000
0100
0000
0010
0000
0100
0000
,
0001
0100
0010
1000
0100
0000
0010
0000
0001
0000
0010
1000
0010
0000
0001
0000
,
0100
0000
0010
0000
1000
0000
0100
0000
0001
0000
1000
0000
0010
0001
0100
0010
,
1100
0101
0011
1010
1001
0000
0011
0011
,
0110
0000
1100
0000
1100
0000
0000
0000
1000
0000
1000
0000
0001
0000
0001
0100
,
1000
1010
1001
0101
0101
0000
1001
1001
,
0101
0000
0011
0000
0011
0000
0000
0000
1000
0100
0001
0100
1000
0010
0001
0010
,
1000
1100
0101
0011
1010
1001
0110
0011
,
1010
1100
0101
1001
0011
0101
1010
1100
,
1100
1010
0110
0101
0011
1001
0011
0101
,
1001
0000
1010
0000
1100
0000
0110
0000
0001
0010
0001
0010
1000
0010
1000
0100
,
0000
0000
0000
0000
0000
0000
0020
0000
0002
0033
0000
0000
0000
0000
0200
0000
0020
0330
0000
0000
0000
0000
2000
0000
0200
3300
0000
0000
0000
0000
0000
0000
0000
0000
0000
0000
0000
0000
0000
0000
0110
0000
0000
0000
0000
0000
0000
0000
0000
0000
0000
0000
0000
0000
0000
0000
2010
0000
0000
0000
0000
0000
0000
0000
,
0000
3010
0100
0000
1000
0000
0010
0001
1000
0001
0010
0000
0000
0000
1000
0000
,
0100
0001
0010
0000
0010
0000
1000
0100
0001
0000
1000
0000
0001
0100
0010
0000
,
1000
0000
0001
0100
0010
0000
0100
0000
0210
0000
0000
0000
0320
0001
0030
0000
,
2000
0100
3000
0000
0002
1000
0003
0000
0001
0010
0100
0000
0000
0000
0120
0000
,
0000
0130
1000
0000
0001
0000
1000
0010
0100
0001
0010
0000
0000
0000
0001
0000
,
1000
0100
0001
0000
0010
0000
1000
0001
0010
0000
1000
0000
0001
0100
0010
0000
,
1000
0000
0100
0000
0001
0000
0010
0000
0200
1000
0300
0000
0002
0100
0003
0000
,
1000
0100
1000
0100
1000
0010
0100
0001
1000
0100
0010
0000
0000
0000
0201
0000
,
0000
0301
0010
0000
1000
0000
0001
1000
0100
1000
0010
0000
0000
0000
0010
0000
,
0001
0010
1000
0000
0010
0000
0001
0000
0100
0000
1000
0000
0001
1000
0100
0000
,
0010
0001
0010
0000
0100
0000
1000
0000
1001
0000
0000
0000
0020
1000
0030
0000
,
0100
0010
0001
0000
1000
0000
0010
0100
0010
1000
0001
0000
1000
0000
0100
0000
,
1000
0010
0100
0000
0010
0001
0100
0000
1000
0000
0011
0000
0001
0000
0100
0000
,
0010
0001
0010
0000
1000
0100
0001
0000
0010
0000
0100
0010
1000
0001
0010
0000
,
1001
0000
0010
1000
0010
0100
0001
0000
0100
0000
1000
0010
0001
0010
1000
0100
,
0001
0100
1000
0001
0010
1000
0001
0100
1000
0010
0100
0000
0110
0000
0220
0000
,
0330
0000
0000
0000
0000
0000
0000
0000
0010
0000
0000
0000
0000
0000
0000
0000
0110
0000
0000
0000
0000
0000
0000
0000
0220
0000
0000
0000
0000
0000
0000
0000
0330
0000
0000
0000
0000
0000
0000
0000
2002
3003
0000
0000
0000
0000
0000
0000
0000
0000
0000
0000
0000
0000
0000
0000
0000
0000
0000
0000
0000
0000
0000
0000
;

//---------------dance-double - ----------------
#NOTEDATA:;
#CHARTNAME:;
#STEPSTYPE:dance-double;
#DESCRIPTION:;
#CHARTSTYLE:;
#DIFFICULTY:Hard;
#METER:16;
#RADARVALUES:0.898,0.949,0.675,0.156,0.474,558.000,69.000,16.000,0.000,0.000,0.000,0.000,0.000,0.898,0.949,0.675,0.156,0.474,558.000,69.000,16.000,0.000,0.000,0.000,0.000,0.000;
#CREDIT:;
#OFFSET:0.590;
#BPMS:0.000=380.000
,8.000=190.000
,130.000=95.000
,131.000=190.000
;
#STOPS:8.000=1.579
,37.000=0.947
,131.000=0.316
,228.500=0.158
,229.000=0.158
,229.500=0.158
;
#DELAYS:;
#WARPS:;
#TIMESIGNATURES:0.000=4=4
;
#TICKCOUNTS:0.000=4
;
#COMBOS:0.000=1
;
#SPEEDS:0.000=1.000=0.000=0
;
#SCROLLS:0.000=1.000
;
#FAKES:;
#LABELS:0.000=Song Start
;
#DISPLAYBPM:95.000:380.000;
#NOTES:
00000000
00000000
00000000
00000000
,
00000000
00000000
00000000
00000000
,
00000012
00000000
00000103
00000000
00001000
00000000
00010000
00100000
,
01000000
00000000
00010000
00000000
10000000
00000000
01000000
00100000
,
00010000
00000000
10000000
00000000
01000000
00000000
00010000
00001000
,
00000100
00000000
00000001
00000000
00000100
00000000
00000010
00001000
,
00010000
01000000
00200000
00000000
01300000
00000000
10010000
10000000
,
01000000
00000000
00100000
00000000
00001000
00000000
00011000
00010000
,
00000100
00000000
00001100
00000000
00000011
00000000
00000101
00000010
,
00000100
00000000
00001000
00000020
00000000
00000000
00000030
00000000
00000100
00000000
00000000
00000000
00001001
00000000
00000100
00000000
,
00000001
00001000
00000010
00000000
00000011
00000000
00001000
00000010
,
00010000
00001000
00100000
00000000
01100000
00000000
00110000
00001000
,
00010000
01000000
10000000
00000000
01100000
00000000
10010000
10000000
,
00100000
00010000
00001000
00010000
00011000
00000000
00001100
00000100
,
00000010
00000001
00001000
00000000
00000110
00000000
00000101
00000001
,
00000100
00001000
00010000
00000000
00101000
00000000
01010000
01000000
,
10000000
01000000
00010000
00000000
10010000
00000000
01100000
00100000
,
01000000
00010000
00001000
00000100
00000110
00000000
00000010
00000001
,
00000100
00000010
00000000
00001000
00010000
00000000
00100000
00000000
00010000
00000000
00000000
00000000
00100000
00000000
01000000
00000000
,
10000000
01000000
00000000
01000000
00010000
00000000
00001000
00000000
00011000
00000000
00000000
00000000
00000010
00000000
00000001
00000000
,
00001000
00000100
00000000
00000001
00000100
00000000
00001000
00000000
00000010
00000000
00000000
00000000
00000100
00000000
00001000
00000000
,
00010000
01000000
00000000
01000000
00100000
00000000
10000000
00000000
10010000
00000000
00000000
00000000
00100000
00000000
00010000
00000000
,
01000000
00100000
00000000
10000000
01000000
00000000
00010000
00000000
00000100
00000000
00010000
00000000
00001000
00000000
00100000
00000000
,
01000000
00010000
00000000
00001000
00000010
00000000
00000001
00000000
00001000
00000000
00000100
00000000
00000001
00000000
00000100
00000000
,
00000010
00000001
00000000
00001000
00000001
00000000
00000100
00000000
00001000
00000000
00001000
00000000
00010000
00000000
00010000
00000000
,
00010100
00000000
00000000
00000000
00011000
00000000
00000000
00000000
00001000
00010000
00000000
00000000
01000000
00000000
00010000
00001000
,
00000000
00000000
00000100
00000000
00001000
00010000
00000000
00000000
00100000
00000000
00010000
00001000
00000000
00000000
00000010
00000000
,
00000001
00000000
00000100
00000000
00001000
00000000
00010000
00000000
00100000
00010000
00000000
00000000
00001000
00000000
00000010
00001000
,
00000000
00010000
00100000
01000000
01200000
00000000
00000000
01000000
,
02000000
00000000
00000000
00000000
03300000
00000000
00000000
00000000
10000000
00010000
00000000
00000000
00001000
00000000
00010000
10000000
,
00000000
00000000
01000000
00000000
00010000
00001000
00000000
00000000
00000100
00000000
00001000
00010000
00000000
00000000
00001000
00000000
,
00000100
00000000
00000001
00000000
00000010
00000000
00000010
00000000
00000001
00001000
00000000
00000000
00010000
00000000
00001000
00000001
,
00000000
00000100
00001000
00010000
00021000
00000000
00200000
00330000
,
01000000
00000000
00000000
00000000
10010000
00000000
00000000
00000000
00100000
00000000
00010000
10000000
00010000
00000000
00100000
00000000
,
01000000
00000000
00010000
00000000
00001000
00000000
00000010
00000000
00000001
00000000
00000010
00000100
00001000
00000000
00000001
00000000
,
00000100
00001000
00011000
00000000
00010000
00001000
00000100
00000010
,
00001000
00000000
00010000
01000000
00000000
00000000
00010000
10000000
00000000
00000000
00100000
00010000
00000000
00000000
00010000
00001000
,
00000100
00000000
00000000
00000000
00001001
00000000
00000000
00000000
00000010
00000000
00001000
00000001
00001000
00000000
00000010
00000000
,
00000100
00000000
00001000
00000000
00010000
00000000
00100000
00000000
10000000
00000000
01000000
00100000
00010000
00000000
10000000
00000000
,
01000000
00010000
00011000
00000000
00001000
00010000
01000000
00100000
,
00010000
00000000
00001000
00000100
00000000
00000000
00001000
00000001
00000000
00000000
00000010
00001000
00000000
00000000
00001000
00010000
,
00100000
00000000
00000000
00000000
10010000
00000000
00000000
00000000
01000000
00000000
10000000
00100000
10000000
00000000
01000000
00000000
,
00010000
00000000
00001000
00010000
00001000
00000000
00000100
00000000
00000010
00000000
00010000
00000000
00001000
00000000
00000100
00000000
,
00000010
00000000
00001000
00000100
00000010
00000000
00000001
00000000
00001000
00000000
00000001
00000010
00000001
00000000
00000100
00000000
,
00001000
00000000
00010000
00100000
00000000
00000000
10000000
01000000
00000000
00000000
00010000
00001000
00000000
00000000
00000010
00000001
,
00000010
00000000
00000000
00000000
00001001
00000000
00000000
00000000
00000010
00000000
00000001
00000100
00000001
00000000
00000010
00000000
,
00000100
00000000
00010000
00001000
00010000
00000000
00001000
00000000
01000000
00000000
00010000
00000000
00100000
00000000
01000000
00000000
,
10000000
00000000
00010000
00100000
01000000
00000000
10000000
00000000
00010000
00000000
10000000
01000000
10000000
00000000
00100000
00000000
,
00010000
00000000
00001000
00000100
00000000
00000000
00000001
00000010
00000000
00000000
00001000
00010000
00000000
00000000
01000000
10000000
,
01000000
01100000
00010000
00001000
00011000
00000000
00000100
00000110
,
00001000
00010000
00011000
00000000
01000000
10000000
01000000
00010000
,
00011000
00010000
00000110
00000100
00000110
00000000
00011000
00001000
,
01100000
00000000
01000000
00000000
01100000
00000000
00000000
00000000
00100000
00010000
00100000
00010000
10000000
01000000
10000000
01000000
,
00100000
00010000
00001000
00001100
00000110
00000000
00000100
00001000
,
00010000
00110000
01100000
00000000
01010000
00100000
11000000
00000000
,
11000000
01000000
00110000
00001000
00010100
00000000
00001100
00000100
,
00000011
00000000
00001000
00000000
00000101
00000000
00000000
00000000
00000001
00000100
00000001
00000100
00000010
00001000
00000010
00001000
,
00000000
00002010
00010000
00003100
00000000
00011000
00000000
01100000
,
00000000
00000000
10000000
00000000
01000000
00000000
00100000
00000000
00010000
10000000
01000000
00000000
00000000
00000000
00100000
00000000
,
00001000
01000000
00010000
00000000
00010000
00100000
00001000
00000000
00010000
00000000
00000100
00000000
00000100
00001000
00000020
00000000
,
00000100
00000000
00000130
00000000
00000001
00000000
00001000
00000000
00000001
00000000
00000000
00000000
00000002
00000100
00000000
00000000
,
00000203
00001000
00000000
00000000
00002300
00010000
00000000
00000000
00013000
00001000
00000100
00000000
00000000
00000000
00000110
00000000
,
00000000
00000000
00000001
00000000
00000100
00000000
00000010
00000000
00001000
00000001
00000100
00000000
00000000
00000000
00000010
00000000
,
00010000
00000100
00001000
00000000
00001000
00000010
00010000
00000000
00001000
00000000
01000000
00000000
01000000
00010000
00200000
00000000
,
01000000
00000000
01300000
00000000
10000000
00000000
00010000
00000000
10000000
00000000
00000000
00000000
20000000
01000000
00000000
00000000
,
30010000
00100000
00010000
00100000
10000000
00100000
10000000
00000000
00100000
00000000
01100000
00000000
00000000
00000000
10100000
00000000
,
00000000
00000000
10000000
00000000
01000000
00000000
00010000
00000000
00001000
00100000
00010000
00000000
00000000
00000000
00101000
00000000
,
00010000
00000100
00000010
00000000
00000010
00000100
00001000
00000000
00000001
00000000
00000100
00000000
00000010
00000100
00002000
00000000
,
00010000
00000000
00013000
00000000
01000000
00000000
00100000
00000000
00010000
00000000
00000000
00000000
20000000
01000000
00000000
00000000
,
30010000
01000000
00010000
01000000
10000000
01000000
10000000
00000000
00010000
00000000
10010000
00000000
10000000
00000000
01000000
00000000
,
00010000
00000000
00001000
00000000
00010000
00000100
00000010
00000000
00000001
00000000
00000011
00000000
00000001
00000000
00000100
00000000
,
00001000
00000000
00010000
00000000
00001000
01000000
00100000
00000000
10000000
00000000
10010000
00000000
10000000
00000000
01000000
00000000
,
00010000
00000000
00011000
00000000
00001000
00000000
00000100
00000000
00000001
00000000
00000010
00000001
00000010
00000001
00000100
00000001
,
00000100
00000001
00001000
00000010
00001000
00000100
00010000
00001000
00010000
00001000
00010000
00000000
00001000
00000000
00011000
00000000
,
00000000
01000000
00100000
01100000
00000000
10010000
00000000
00000000
;

//---------------dance-double - TRIP EVO----------------
#NOTEDATA:;
#CHARTNAME:TRIP EVO;
#STEPSTYPE:dance-double;
#DESCRIPTION:TRIP EVO;
#CHARTSTYLE:;
#DIFFICULTY:Edit;
#METER:19;
#RADARVALUES:1.000,1.000,0.782,0.587,0.729,623.000,80.000,60.000,0.000,0.000,0.000,0.000,0.000,1.000,1.000,0.782,0.587,0.729,623.000,80.000,60.000,0.000,0.000,0.000,0.000,0.000;
#CREDIT:TRIP EVO;
#OFFSET:0.590;
#BPMS:0.000=380.000
,8.000=190.000
,130.000=95.000
,131.000=190.000
;
#STOPS:8.000=1.579
,37.000=0.947
,131.000=0.316
,228.500=0.158
,229.000=0.158
,229.500=0.158
;
#DELAYS:;
#WARPS:;
#TIMESIGNATURES:0.000=4=4
;
#TICKCOUNTS:0.000=4
;
#COMBOS:0.000=1
;
#SPEEDS:0.000=1.000=0.000=0
;
#SCROLLS:0.000=1.000
;
#FAKES:;
#LABELS:0.000=Song Start
;
#DISPLAYBPM:95.000:380.000;
#NOTES:
00000000
00000000
00000000
00000000
,
00000000
00000000
00000000
00000000
,
00021000
00000000
10030000
00000000
01000000
00000000
00001000
00010000
,
00001010
00000000
00012000
00000000
00013000
00000000
00000100
00000010
,
00000002
00000000
00000103
00001000
00001000
00010000
00010000
00100000
,
10000000
00000000
00010000
01000000
00100000
00010000
10000000
00010000
,
00001000
00000010
00001000
00000001
00001000
00000100
00010000
00100000
,
10000000
00000000
00001000
01000000
00100000
00001000
00000100
00000010
,
00001000
00000000
00010000
01000000
00100000
01000000
00001000
00010000
,
00000010
00000000
00010000
00002000
00000000
00000000
00003000
00000000
00001100
00000000
00000000
00000000
00000021
00000000
00001000
00000000
,
00000000
00000001
00000130
00000000
00011000
00000000
01200000
00010000
,
00000000
00001000
01300000
00000000
10010000
00000000
10200000
01000000
,
00000000
00010000
10300000
00000000
01000000
00010000
00001000
00000010
,
00010000
00000000
00001000
00000000
00100000
00010000
01000000
00100000
01000000
00000000
00000000
00000000
12000000
00000000
10000000
00000000
,
00000000
00010000
03001000
00000000
00001010
00000000
00012000
00000100
,
00000000
00100000
00013000
00000000
00000011
00000000
00000201
00000010
,
00000000
00010000
00001300
00000000
01001000
00000000
00011000
00000100
,
00001000
01000000
00100000
01000000
00001000
00000000
00000000
00100000
00010000
00000000
01000000
00000000
00100000
00000000
10000000
00000000
,
00100000
10000000
00000000
01000000
00100000
00000000
01000000
00000000
00110000
00000000
00000000
00000000
00001000
00000000
00000100
00000000
,
00010000
00100000
00000000
00010000
00000100
00000000
00010000
00000000
00011000
00000000
00000000
00000000
00000100
00000000
00000010
00000000
,
00000100
00010000
00000000
00001000
00010000
00000000
01000000
00000000
01100000
00000000
00000000
00000000
00010000
00000000
01000000
00000000
,
00100000
10000000
00000000
00010000
01000000
00000000
00001000
00010000
00000010
00000000
00000000
00000000
00000001
00000000
00000100
00000000
,
00000010
00001000
00000000
00000100
00000001
00000000
00001000
00000000
00100000
00000000
01000000
00000000
00010000
00000000
01000000
00000000
,
00010000
00100000
00000000
01000000
00100000
00000000
00000000
00000000
10000000
00000000
00010000
00000000
00100000
00000000
10000000
00000000
,
01000000
00010000
00000000
00100000
00001000
00000000
00010000
00000000
00000010
00000000
00000100
00000000
00010000
00000000
00001000
00000000
,
01000000
00000000
00100000
00000000
00001000
00000000
00010000
00000000
00000010
00000100
00000000
00000000
00011000
00000000
01000000
00100000
,
00000000
00000000
00011000
00000000
00000010
00000100
00000000
00000000
00011000
00000000
01000000
00100000
00000000
00000000
00010000
00000000
,
10000000
01000000
00010000
00000000
00001000
00000010
00000001
00000000
00000010
00000100
00000000
00000000
00011000
00000000
01000000
00100000
,
00000000
00000000
00011000
00000000
00000010
00000100
00000000
00000000
00021000
00000000
00000000
00000000
00000000
00000000
00001000
00000000
,
00000000
00000000
00000000
00000000
00030000
00000000
00000000
00000000
10000000
01000000
00100000
00000000
01000000
00000000
10000000
01000000
,
00100000
00000000
00010000
00000000
00000100
00010000
00000100
00000000
00001000
00000100
00000010
00000000
00000100
00000000
00001000
00000100
,
00000010
00000000
00000001
00000000
00000010
00010000
00001000
00000000
00010000
00000010
00010000
00000000
00001000
00000000
00100000
01000000
,
00010000
00000000
00000000
00000000
00000000
00000000
00000000
00000000
10000000
00000000
00000000
00000000
00000000
00000000
00000000
00000000
00100000
00000000
00000000
00000000
00001000
00000000
00000000
00000000
00010000
00000000
00000000
00000000
00001000
00000000
00000000
00000000
00020000
00000000
00000000
00000000
00000000
00000000
00000000
00000000
00000000
00000000
00000000
00000000
00000000
00000000
00000000
00000000
00002000
00033000
00000000
00000000
00000000
00000000
00000000
00000000
00000000
00000000
00000000
00000000
00000000
00000000
00000000
00000000
,
00012000
00000000
00000000
00000000
00003002
00000000
00000000
00000000
00001003
00000000
00000100
00001000
00000100
00000000
00000010
00000000
,
00000001
00000000
00000100
00000000
00001000
00000000
00000010
00000000
00001000
00000000
00010000
10000000
00100000
00000000
01000000
00000000
,
00010000
00001000
00100000
00010000
00100000
00000000
00000000
00000000
01000000
00000000
10000000
00100000
01000000
00000000
00020000
00001000
,
00030000
00000000
00000200
00000010
00000300
00000000
00020000
00000100
00030000
00000000
00020000
00000000
00130000
00010000
01000000
00100000
,
20000000
00000000
00000000
00000000
30200000
00000000
00000000
00000000
00310000
00000000
00001000
00000100
00000001
00000000
00000010
00000000
,
00000100
00000000
00001000
00000000
00000001
00000000
00000010
00000000
00000100
00000000
00001000
00100000
00010000
00000000
00001000
00000000
,
00000010
00000001
00000010
00000100
00001000
00000000
00000000
00000000
00100000
00000000
01000000
00010000
10000000
00000000
00200000
01000000
,
00300000
00000000
20000000
00100000
30000000
00000000
00002000
00100000
00003000
00000000
00020000
00000000
01030000
00100000
10000000
00010000
,
00200000
00000000
00000000
00000000
00302000
00000000
00000000
00000000
00013000
00000000
01000000
00010000
01000000
00000000
00100000
00000000
,
00010000
00000000
10000000
00100000
01000000
00000000
00010000
00000000
10000000
00000000
01000000
00000000
00010000
00000000
00100000
00000000
,
00001000
00100000
00010000
00100000
00001000
00000000
00000000
00000000
00000001
00000000
00000010
00000100
00001000
00000000
00000200
00010000
,
00000300
00000000
02000000
00010000
03000000
00000000
20000000
00100000
30000000
00000000
00020000
00000000
00030100
00001000
00000100
00001000
,
00000002
00000000
00000000
00000000
00002003
00000000
00000000
00000000
00013000
00000000
00000100
00001000
00000010
00000000
00000100
00000000
,
00010000
00000000
00001000
00000010
00000100
00000000
00001000
00000000
00000010
00000000
00000001
00000000
00000100
00000000
00000010
00000000
,
00000100
00010000
00001000
00010000
00001000
00000000
00000000
00000000
00010000
00000000
00100000
10000000
01000000
00000000
00020000
01000000
,
00030000
00000000
00200000
10000000
00300000
00000000
02000000
00010000
03000000
00000000
20000000
00000000
31000000
00100000
01000000
00100000
,
10000000
01010000
00011000
00101000
00001100
00000000
00001001
00000011
,
00001010
00010100
00011000
00000000
00101000
00011000
10010000
01010000
,
10100000
11000000
10100000
01010000
00110000
00000000
00011000
00001010
,
00001100
00000000
00000011
00000000
00001001
00000000
00000000
00000000
00000001
00000100
00001000
00010000
01000000
00010000
00001000
00010000
,
00100000
10100000
00110000
01010000
00011000
00001010
00001100
00000101
,
00000011
00000000
00000110
00000000
00001001
00000000
00001010
00000000
00000010
00010000
00001000
01000000
00001000
00010000
00000010
00010000
,
00001000
00001100
00000101
00000011
00001010
00011000
00101000
00110000
,
01010000
00000000
01100000
00000000
10100000
00000000
11000000
00000000
10000000
01000000
00100000
00010000
00001000
00000100
00000010
00000001
,
00000000
00000000
00000000
00000000
00000000
00000000
02000000
00000000
00200000
03300000
00000000
00000000
00000000
00000000
00020000
00000000
00002000
00033000
00000000
00000000
00000000
00000000
00000200
00000000
00000020
00000330
00000000
00000000
00000000
00000000
00000000
00000000
00000000
00000000
00000000
00000000
00000000
00000000
00000000
00000000
00000011
00000000
00000000
00000000
00000000
00000000
00000000
00000000
00000000
00000000
00000000
00000000
00000000
00000000
00000000
00000000
00002010
00000000
00000000
00000000
00000000
00000000
00000000
00000000
,
00000000
00003010
00000001
00000000
00000100
00000000
00001000
00000000
00100000
00010000
00001000
00000000
00000000
00000000
01000000
00000000
,
10000000
00010000
00100000
00000000
00010000
00001000
00000010
00000000
00000001
00000000
00001000
00010000
00100000
01000000
10000000
00000000
,
10000000
00000000
00010000
01000000
00100000
00000000
01000000
00000000
00200000
00010000
00000000
00000000
00302000
00100000
00000000
00000000
,
20003000
01000000
00000000
00000000
30002000
00010000
00000000
00000000
00003001
00000010
00000100
00000000
00000000
00000000
00000102
00000000
,
00000000
00000103
00001000
00000000
00010000
00000000
00000100
00000000
00001000
00000010
00000001
00000000
00000000
00000000
00010000
00000000
,
00001000
00100000
00010000
00000000
00100000
01000000
10000000
00000000
00010000
00000000
00001000
00100000
00001000
00010000
00001000
00000000
,
00010000
00000000
00100000
00001000
00010000
00000000
00000010
00000000
00000002
00001000
00000000
00000000
00020003
00100000
00000000
00000000
,
10030000
00100000
01000000
00010000
00001000
00000100
00000010
00000001
00000100
00000010
00010000
00000000
00000000
00000000
00102000
00000000
,
00000000
00103000
00010000
00000000
00000100
00000000
00000010
00010000
00001000
00010000
00001000
00000000
00000000
00000000
00000010
00000000
,
00000100
00010000
00001000
00000000
01000000
00001000
00010000
00000000
01000000
00000000
10000000
01000000
00100000
00010000
10000000
00000000
,
01000000
00000000
00100000
00010000
00000100
00000000
00001000
00000000
00000020
00000100
00000000
00000000
00002030
00010000
00000000
00000000
,
00003100
00000001
00000100
00000000
00000001
00000100
00000010
00000100
00001000
00010000
01000000
00000000
00010000
00000000
01000000
00000000
,
00001000
00000000
00100000
00000000
00010000
01000000
00100000
00000000
01000000
00000000
00001000
00000000
01000000
00000000
00100000
00000000
,
10000000
00000000
01000000
00010000
00001000
00000000
00000010
00000000
00000100
00000000
00001000
00000010
00000001
00000000
00000001
00000100
,
00001000
00000000
00010000
00100000
10000000
00000000
00010000
00001000
00000100
00000000
00000001
00000100
00000010
00010000
00001000
01000000
,
00100000
00010000
00100000
01000000
00010000
10000000
01000000
00010000
00001000
00000010
00000001
00000000
00001001
00000000
00002002
00000000
,
00003003
00000000
00000000
00000000
00000000
00000000
00000000
00000000
00010000
00000000
00000000
00000000
00000000
00000000
00000000
00000000
10010000
00000000
00000000
00000000
00000000
00000000
00000000
00000000
20020000
00000000
00000000
00000000
00000000
00000000
00000000
00000000
30030000
00000000
00000000
00000000
00000000
00000000
00000000
00000000
00022000
00033000
00000000
00000000
00000000
00000000
00000000
00000000
00000000
00000000
00000000
00000000
00000000
00000000
00000000
00000000
00000000
00000000
00000000
00000000
00000000
00000000
00000000
00000000
;

//---------------dance-double - ----------------
#NOTEDATA:;
#CHARTNAME:;
#STEPSTYPE:dance-double;
#DESCRIPTION:;
#CHARTSTYLE:;
#DIFFICULTY:Challenge;
#METER:18;
#RADARVALUES:1.000,1.000,0.704,0.156,0.724,638.000,72.000,16.000,0.000,0.000,0.000,0.000,0.000,1.000,1.000,0.704,0.156,0.724,638.000,72.000,16.000,0.000,0.000,0.000,0.000,0.000;
#CREDIT:;
#OFFSET:0.590;
#BPMS:0.000=380.000
,8.000=190.000
,130.000=95.000
,131.000=190.000
;
#STOPS:8.000=1.579
,37.000=0.947
,131.000=0.316
,228.500=0.158
,229.000=0.158
,229.500=0.158
;
#DELAYS:;
#WARPS:;
#TIMESIGNATURES:0.000=4=4
;
#TICKCOUNTS:0.000=4
;
#COMBOS:0.000=1
;
#SPEEDS:0.000=1.000=0.000=0
;
#SCROLLS:0.000=1.000
;
#FAKES:;
#LABELS:0.000=Song Start
;
#DISPLAYBPM:95.000:380.000;
#NOTES:
00000000
00000000
00000000
00000000
,
00000000
00000000
00000000
00000000
,
00022000
00033000
01000000
10000000
01000000
00010000
00100000
00001000
,
00010000
00010100
00011000
00010100
,
00011000
00000000
00100000
00000000
00001000
00000010
00000001
00000000
,
00000010
00000000
00000100
00000000
00000100
00000000
00000010
00001000
,
00010000
00100000
01000000
00000000
10000000
01000000
00010000
00000000
,
00001000
00000010
00000001
00000000
00000001
00000100
00001000
00000000
,
00010000
00100000
10000000
00000000
10000000
01000000
00010000
00001000
,
00000010
00000000
00000001
00000200
00000000
00000000
00000300
00000000
00000010
00000001
00000000
00001000
00000010
00000000
00000100
00000000
,
00000010
00001000
00000000
00010000
01000000
00000000
00010000
00000000
10000000
00000000
00000000
00000000
10010000
00000000
00000000
00000000
,
01000000
00000000
00100000
00010000
00100000
00000000
01000000
00000000
10000000
01000000
00000000
00100000
00010000
00000000
01000000
00000000
,
00001000
00010000
00000000
00000100
00001000
00000000
00000010
00000000
00000100
00000000
00000000
00000000
00000110
00000000
00000000
00000000
,
00000001
00000000
00001000
00000100
00001000
00000100
00000010
00000000
00000100
00000000
00000000
00000000
00000010
00000001
00000000
00000100
,
00001000
00010000
00001000
00100000
00010000
00000000
00110000
00000000
,
00100000
00000000
00001000
00010000
00001000
00000000
00100000
00000000
01000000
10000000
00000000
00000000
10000000
00000000
00000000
01000000
,
00010000
00000000
00001000
00000000
00000100
00000000
00000010
00000000
00000100
00000000
00000000
00000000
00001001
00000000
00000000
00000010
,
00000001
00000000
00001000
00000000
00000001
00000100
00000001
00000100
00000010
00000000
00000000
00000000
00000010
00000000
00000100
00000000
,
00000001
00000100
00000000
00001000
00000000
00010000
00001000
00000000
00100000
00000000
00010000
00000000
10000000
00000000
01000000
00000000
,
00100000
00010000
00000000
00100000
00000000
00001000
00010000
00000000
00000100
00000000
00001000
00000000
00000100
00000000
00000010
00000000
,
00000001
00000100
00000000
00000010
00000000
00000100
00001000
00000000
00010000
00000000
00001000
00000000
01000000
00000000
00010000
00000000
,
00100000
01000000
00000000
10000000
01000000
00100000
00010000
00000000
10010000
00000000
00000000
00000000
01000000
00000000
00010000
00000000
,
00100000
01000000
00000000
00010000
00000000
00001000
00000010
00000000
00000100
00000000
00000010
00000000
00000001
00000000
00001000
00000001
,
00000100
00001000
00000000
00000100
00001000
00000000
00010000
00000000
00100000
00000000
10000000
00000000
00100000
00000000
01000000
00000000
,
00010000
00100000
00000000
01000000
10000000
00100000
10000000
00000000
01000000
00000000
01000000
00000000
00100000
00000000
00100000
00000000
,
00001000
00000000
00010000
00000000
00001000
00000000
00000000
00000000
00011000
00000000
00001000
00000100
00000001
00000000
00000110
00000000
,
00000001
00000100
00001000
00000000
00011000
00000000
00001000
00010000
00100000
00000000
01000000
00000000
10000000
00000000
01000000
00000000
,
00010000
01000000
00100000
00000000
10000000
01000000
00100000
00000000
10010000
00000000
10000000
01000000
00010000
00000000
00011000
00000000
,
00010000
00001000
00000100
00000000
00000010
00000000
00001000
00000100
00000020
00000000
00000000
00000000
00000001
00000000
00000031
00000000
,
00000020
00000000
00000100
00000000
00000100
00000000
00000130
00000000
00001000
00000001
00000100
00000000
00000010
00000000
00001000
00000100
,
00010000
00000000
00001000
00000000
00010000
00001000
01000000
00000000
00100000
00000000
10000000
00000000
01000000
00000000
00100000
00000000
,
00001000
00000000
00010000
00000000
01000000
00000000
10000000
00000000
00010000
00100000
10000000
00000000
00100000
00000000
01000000
00010000
,
00001000
00000000
00010000
00000000
00000100
00001000
00000010
00000000
00000210
00000000
00000000
00000000
00000002
00000000
00000303
00000000
,
00000010
00000000
00000001
00000000
00000101
00000000
00000000
00000000
00000001
00000000
00000100
00000010
00001000
00000000
00000100
00000000
,
00010000
00000000
00001000
00100000
00010000
00000000
01000000
00000000
00010000
00000000
01000000
00100000
10000000
00000000
01000000
00000000
,
00010000
00000000
00001000
00010000
00001000
00000000
00010000
00000000
00001000
00000000
00000100
00000000
00000001
00000000
00001001
00000000
,
00000000
00000000
00000001
00000100
00000000
00000000
00001000
00010000
00000000
00000000
00100000
10000000
00000000
00000000
10000000
00010000
,
10000000
00000000
00100000
00000000
10100000
00000000
00000000
00000000
10000000
00000000
00100000
01000000
00010000
00000000
00100000
00000000
,
00001000
00000000
00010000
00000100
00001000
00000000
00000010
00000000
00001000
00000000
00000010
00000100
00000001
00000000
00000010
00000000
,
00001000
00000000
00010000
00001000
00010000
00000000
00001000
00000000
00010000
00000000
00100000
00000000
10000000
00000000
10010000
00000000
,
00000000
00000000
10000000
01000000
00000000
00000000
00010000
00001000
00000000
00000000
00000010
00000001
00000000
00000000
00000001
00001000
,
00000001
00000000
00000100
00000000
00001001
00000000
00000000
00000000
00001000
00000000
00000001
00000100
00001000
00000000
00000100
00000000
,
00000010
00000000
00001000
00000010
00010000
00000000
00001000
00000000
00010000
00000000
01000000
10000000
00100000
00000000
01000000
00000000
,
00010000
00000000
00100000
01000000
10000000
00000000
01000000
00000000
00010000
00000000
00001000
00000000
00000010
00000000
00000001
00000000
,
00000100
00000000
00000001
00001000
00000000
00000000
00001000
00010000
00000000
00000000
00010000
10000000
00000000
00000000
10000000
00010000
,
10000000
00000000
00100000
00000000
10010000
00000000
00000000
00000000
00010000
00000000
10000000
00100000
00010000
00000000
00100000
00000000
,
01000000
00000000
00010000
01000000
00001000
00000000
00010000
00000000
00001000
00000000
00000010
00000001
00000100
00000000
00000010
00000000
,
00001000
00000000
00000100
00000010
00000001
00000000
00000100
00000000
00001000
00000000
00010000
00000000
00100000
00000000
10000000
00000000
,
01000000
00000000
10000000
00010000
00000000
00000000
00010000
00001000
00000000
00000000
00001000
00000001
00000000
00000000
00000001
00000000
,
00002001
00003001
00000102
00000103
00001010
00000000
00010020
00010030
,
00021000
00000000
00031000
00000000
00110000
00000000
00000000
00000000
21000000
00000000
31000000
00000000
10000000
00000000
10000000
00010000
,
20000000
31000000
01100000
00110000
00110000
00000000
00210000
00301000
,
00011000
00000000
00010010
00000000
00001010
00000000
00000000
00000000
00000100
00001000
00000100
00010000
00000100
00001000
00000100
00010000
,
00000100
00001100
00001001
00000101
00000110
00000100
00000010
00010010
,
00011000
00000000
01001000
00000000
01010000
00000000
01000000
00000000
00100000
10000000
01000000
00100000
00010000
01000000
00100000
10000000
,
01000000
01100000
00110000
00101000
00011000
00001000
00010100
00001100
,
00000110
00000000
00000011
00000000
00001001
00000000
00000100
00000000
00010000
00000100
00001000
00000100
00010000
00000100
00001000
00000100
,
00000000
00000110
00011000
01100000
00000000
01000000
00000000
00110000
,
00000000
10000000
01000000
00100000
00010000
00110000
00000000
10000000
,
01000000
00100000
00001000
00000000
00010000
00000000
00000100
00000000
00000010
00000000
00001000
00000000
00000010
00000001
00000200
00000000
,
00000010
00000000
00000310
00000000
00001000
00000000
00000001
00000000
00001001
00000000
00000000
00000000
00000001
00000100
00000000
00000000
,
00010000
00001000
00000000
00000000
00000001
00000010
00000000
00000000
00010000
00001000
00000100
00000000
00000000
00000000
00000110
00000000
,
00000000
00000001
00000010
00000100
00001000
00001100
00000000
00000010
,
00000001
00000100
00001000
00000000
00010000
00000000
00100000
00000000
10000000
00000000
00010000
00000000
01000000
00100000
20000000
00000000
,
01000000
00000000
31000000
00000000
00100000
00000000
01000000
00000000
11000000
00000000
00000000
00000000
10000000
01000000
00000000
00000000
,
00001000
00010000
00001000
00010000
00000100
00001000
00000100
00001000
00000010
00000100
00000010
00000000
00000000
00000000
00001001
00000000
,
00000000
00001000
00000100
00000000
00000010
00000000
00000100
00000000
00001000
00000010
00010000
00000000
00000000
00000000
00011000
00000000
,
00010000
00000100
00001000
00000000
00000100
00010000
00001000
00000000
00100000
00010000
01000000
00000000
01000000
00000000
10010000
00000000
,
01000000
00010000
00100000
00000000
01000000
00000000
10000000
00000000
10010000
00000000
00000000
00000000
10000000
01000000
00000000
00000000
,
00001000
00010000
00000100
00000000
00001000
00000100
00000010
00000001
00000100
00000000
00000110
00000000
00000001
00000000
00000100
00000000
,
00001000
00000000
00010000
00001000
00100000
00010000
01000000
00100000
10000000
00000000
11000000
00000000
10000000
00000000
01000000
00000000
,
00010000
00000000
00001000
00010000
00000010
00001000
00000100
00000010
00000001
00001000
00000001
00000010
00000100
00000010
00000001
00000100
,
00000010
00001000
00000010
00000100
00000001
00000100
00001000
00010000
00000100
00010000
00001000
00100000
00001000
00010000
01000000
00100000
,
00010000
01000000
00100000
01000000
10000000
01000000
00100000
01000000
00010000
00100000
01000000
00000000
11000000
00000000
01100000
00000000
,
01000000
00010000
00001000
00000000
00011000
00000000
00010010
00000000
00001000
00000100
00000001
00000000
00000000
00000000
00000000
00000000
;

//---------------dance-single - ----------------
#NOTEDATA:;
#CHARTNAME:;
#STEPSTYPE:dance-single;
#DESCRIPTION:;
#CHARTSTYLE:;
#DIFFICULTY:Challenge;
#METER:18;
#RADARVALUES:1.000,1.000,0.968,0.323,0.773,668.000,99.000,33.000,0.000,0.000,0.000,0.000,0.000,1.000,1.000,0.968,0.323,0.773,668.000,99.000,33.000,0.000,0.000,0.000,0.000,0.000;
#CREDIT:;
#OFFSET:0.590;
#BPMS:0.000=380.000
,8.000=190.000
,130.000=95.000
,131.000=190.000
;
#STOPS:8.000=1.579
,37.000=0.947
,131.000=0.316
,228.500=0.158
,229.000=0.158
,229.500=0.158
;
#DELAYS:;
#WARPS:;
#TIMESIGNATURES:0.000=4=4
;
#TICKCOUNTS:0.000=4
;
#COMBOS:0.000=1
;
#SPEEDS:0.000=1.000=0.000=0
;
#SCROLLS:0.000=1.000
;
#FAKES:;
#LABELS:0.000=Song Start
;
#DISPLAYBPM:95.000:380.000;
#NOTES:
// measure 0
0000
0000
0000
0000
,  // measure 1
0000
0000
0000
0000
,  // measure 2
2002
3003
1000
0000
0001
0000
0010
0100
,  // measure 3
0001
0000
0001
0000
1000
0000
0010
0100
,  // measure 4
1000
0000
0001
0010
0100
0100
0100
0010
,  // measure 5
0001
0000
1000
0010
0100
0100
0100
0010
,  // measure 6
1000
0001
1001
0000
0001
0010
1000
0000
,  // measure 7
1000
0001
1000
0000
1000
0100
0001
0000
,  // measure 8
0001
1000
0001
0000
0001
0010
1000
0100
,  // measure 9
0001
0000
0010
0200
0000
0000
0300
0000
1001
0000
0100
0000
0010
0000
0001
0100
,  // measure 10
0010
0100
0001
0000
1000
0000
0001
0000
0100
0000
0000
0000
1010
0000
0100
0001
,  // measure 11
0010
0000
0001
0000
0100
0000
0010
0000
0101
0000
0100
0000
0001
0000
0010
0001
,  // measure 12
1000
0001
0100
0000
0010
0000
0001
0000
0010
0000
0000
0000
0110
0000
1000
0100
,  // measure 13
1000
0000
0100
0000
0001
0000
0010
0000
0101
0000
1000
0000
0001
0000
0010
0100
,  // measure 14
1000
0001
1000
0000
0001
0000
0010
0000
0100
0000
0000
0000
0011
0000
0010
0001
,  // measure 15
1000
0000
0010
0000
0100
0000
0001
0000
1001
0000
0100
0000
0010
0000
0100
0001
,  // measure 16
0100
0010
1000
0000
0100
0000
1000
0000
1100
0000
0000
0000
0101
0000
0001
0010
,  // measure 17
0100
0000
1000
0000
0010
0000
0100
0000
0010
0100
0000
0010
0001
0000
1000
0100
,  // measure 18
0010
0001
0000
0001
1000
0000
0001
0000
0100
0000
0000
0000
1010
0000
0100
0001
,  // measure 19
0100
0010
0000
0010
0100
0000
0010
0000
1000
0100
0000
0001
0100
0000
1000
0010
,  // measure 20
0100
0001
0000
0010
1000
0000
0001
0000
0010
0000
0000
0000
0110
0000
1000
0100
,  // measure 21
1000
0010
0000
0100
0001
0000
0010
0000
0001
0100
0000
1000
0001
0000
0010
1000
,  // measure 22
0001
0100
0000
0100
0010
0000
0100
0000
0101
0000
0000
0000
1001
0000
0010
0001
,  // measure 23
1000
0100
0000
0100
0010
0000
0001
0000
0100
0001
0000
1000
0010
0000
0001
0100
,  // measure 24
0010
1000
0000
0000
0101
0000
1000
0000
0100
0000
0100
0000
0010
0000
0100
0000
,  // measure 25
0001
0000
1000
0000
1001
0000
0000
0000
0010
0001
0100
0000
1001
0000
0010
1000
,  // measure 26
0100
0000
1001
0000
0010
0100
1000
0000
1001
0000
0010
0100
0001
0000
1001
0000
,  // measure 27
0100
0001
0010
0000
0100
1000
0010
0000
1000
0100
0001
0000
0110
0000
0001
0100
,  // measure 28
1000
0000
0110
0000
1000
0100
0001
0000
0200
0000
0000
0000
0010
0000
0310
0000
,  // measure 29
0200
0000
0010
0000
0010
0000
0310
0000
1000
0100
0001
0000
0110
0000
0001
0010
,  // measure 30
1000
0000
0110
0000
1000
0100
0001
0000
0110
0000
0010
0000
0100
0000
1000
0000
,  // measure 31
0001
0000
1001
0000
1000
0000
0010
0000
1000
0010
0001
0000
0110
0000
0001
0100
,  // measure 32
1000
0000
0110
0000
1000
0010
0001
0000
0210
0000
0000
0000
0002
0000
0303
0000
,  // measure 33
0001
0000
0100
0000
1010
0000
0000
0000
0001
0000
0100
0010
1000
0000
0100
0000
,  // measure 34
0010
0000
0001
0100
0010
0000
1000
0000
0001
0000
0010
0001
1000
0000
0100
0000
,  // measure 35
1000
0000
0010
1000
0001
0000
0100
0000
0001
0000
1000
0000
0100
0000
0001
0000
,  // measure 36
0100
0000
0020
0001
0000
0000
0032
0100
0000
0000
0203
1000
0000
0000
1300
0100
,  // measure 37
0001
0000
0010
0000
1100
0000
0000
0000
0010
0000
0001
0100
0010
0000
1000
0000
,  // measure 38
0001
0000
0010
0100
1000
0000
0001
0000
0100
0000
0010
1000
0100
0000
0010
0000
,  // measure 39
0001
0000
1000
0001
0010
0000
0100
0000
0001
0000
0100
0000
0010
0000
0001
0000
,  // measure 40
0100
0000
0020
1000
0000
0000
2030
0100
0000
0000
3200
0001
0000
0000
0301
0100
,  // measure 41
1000
0000
0010
0000
0101
0000
0000
0000
0001
0000
1000
0100
0001
0000
0100
0000
,  // measure 42
0010
0000
0001
0100
0010
0000
1000
0000
0010
0000
0100
0010
1000
0000
0010
0000
,  // measure 43
0100
0000
0001
0010
1000
0000
0010
0000
0100
0000
0001
0000
0100
0000
1000
0000
,  // measure 44
0001
0000
0110
1000
0000
0000
0110
0001
0000
0000
0110
1000
0000
0000
0010
0001
,  // measure 45
0100
0000
0001
0000
0011
0000
0000
0000
0001
0000
1000
0100
0010
0000
0001
0000
,  // measure 46
0100
0000
0001
0010
0100
0000
1000
0000
0010
0000
1000
0100
0010
0000
0001
0000
,  // measure 47
0100
0000
0001
0010
0100
0000
0010
0000
0001
0000
0100
0000
1000
0000
0010
0000
,  // measure 48
0100
0000
1001
0010
0000
0000
1001
0100
0000
0000
1001
0010
0000
0000
0110
0000
,  // measure 49
1002
1003
1200
1300
0101
0010
0021
0031
,  // measure 50
2001
0000
3001
0000
1100
0000
0100
0000
1001
0000
1001
0000
1100
0000
0100
0010
,  // measure 51
0002
0103
0101
1001
1001
0100
2001
3010
,  // measure 52
1010
0000
1001
0000
1001
0000
0100
0000
0001
0100
0010
0100
0001
0100
0010
0100
,  // measure 53
0001
0101
0110
1010
1100
0001
1100
1100
,  // measure 54
1001
0000
0011
0000
0110
0000
0001
0000
0010
0100
0010
0001
0100
0010
1000
0100
,  // measure 55
0010
1001
0101
1010
1001
0010
1001
0110
,  // measure 56
0011
0000
0110
0000
1001
0000
0010
0000
1000
0100
0001
0100
1000
0100
0001
0100
,  // measure 57
0000
0000
0000
0000
0000
0000
2000
0000
0020
3030
0000
0000
0000
0000
0020
0000
0200
0330
0000
0000
0000
0000
0200
0000
0002
0303
0000
0000
0000
0000
0000
0000
0000
0000
0000
0000
0000
0000
0000
0000
1100
0000
0000
0000
0000
0000
0000
0000
0000
0000
0000
0000
0000
0000
0000
0000
0011
0000
0000
0000
0000
0000
0000
0000
,  // measure 58
0000
0001
0010
0000
0001
0000
1000
0000
0001
1000
0100
0000
0000
0000
0110
0000
,  // measure 59
0001
0010
0100
0000
0100
1000
0010
0000
0010
0100
0001
0000
0010
0100
2000
0000
,  // measure 60
0001
0000
3001
0000
0100
0000
0010
0000
0110
0000
0000
0000
0210
0001
0000
0300
,  // measure 61
0012
1000
0000
0003
2100
0010
0000
3000
0001
1000
0100
0000
0000
0000
1100
0000
,  // measure 62
0000
0100
1000
0000
0010
0000
0100
0000
0001
1000
0100
0000
0000
0000
1001
0000
,  // measure 63
0010
0001
0100
0000
0010
1000
0100
0000
1000
0100
0010
0000
0001
0100
0020
0000
,  // measure 64
0100
0000
0130
0000
0001
0000
1000
0000
1001
0000
0000
0000
0120
1000
0000
0000
,  // measure 65
0130
0001
1000
0100
0010
0001
0100
0010
0100
0001
0010
0000
0000
0000
1001
0000
,  // measure 66
0000
0001
0100
0000
1000
0000
0010
0000
1000
0100
0001
0000
0000
0000
0011
0000
,  // measure 67
0001
1000
0100
0010
0001
0100
0010
0000
0001
0100
0010
0000
1000
0001
0020
0000
,  // measure 68
0100
0000
0130
0000
0010
0000
0001
0000
1001
0000
0000
0000
0021
1000
0000
0000
,  // measure 69
0031
0100
1000
0000
1000
0100
0001
0000
0010
0000
1001
0000
0001
0000
0010
0000
,  // measure 70
0110
0000
1000
0100
0010
0001
1000
0100
0001
0000
1001
0000
0001
0000
0100
0000
,  // measure 71
0110
0000
0001
0010
0100
1000
0001
0100
1000
0000
0110
0000
0010
0100
1000
0100
,  // measure 72
0010
0100
0001
1000
0010
1000
0001
1000
0010
1000
0100
0010
0001
0100
0010
1000
,  // measure 73
0001
0100
0010
1000
0100
0010
0001
0010
0100
1000
0010
0000
0110
0000
1010
0000
,  // measure 74
1000
0100
0001
0000
0101
0000
0110
0000
0001
0010
1000
0000
0000
0000
0000
0000
;

//---------------dance-single - ----------------
#NOTEDATA:;
#CHARTNAME:;
#STEPSTYPE:dance-single;
#DESCRIPTION:;
#CHARTSTYLE:;
#DIFFICULTY:Beginner;
#METER:4;
#RADARVALUES:0.242,0.255,0.068,0.020,0.000,164.000,7.000,2.000,0.000,0.000,0.000,0.000,0.000,0.242,0.255,0.068,0.020,0.000,164.000,7.000,2.000,0.000,0.000,0.000,0.000,0.000;
#CREDIT:;
#OFFSET:0.590;
#BPMS:0.000=380.000
,8.000=190.000
,130.000=95.000
,131.000=190.000
;
#STOPS:8.000=1.579
,37.000=0.947
,131.000=0.316
,228.500=0.158
,229.000=0.158
,229.500=0.158
;
#DELAYS:;
#WARPS:;
#TIMESIGNATURES:0.000=4=4
;
#TICKCOUNTS:0.000=4
;
#COMBOS:0.000=1
;
#SPEEDS:0.000=1.000=0.000=0
;
#SCROLLS:0.000=1.000
;
#FAKES:;
#LABELS:0.000=Song Start
;
#DISPLAYBPM:95.000:380.000;
#NOTES:
0000
0000
0000
0000
,
0000
0000
0000
0000
,
0000
0000
0001
0000
,
0001
0000
0001
0000
,
0001
0000
1000
0000
,
1000
0000
1000
0000
,
1000
0000
0010
0000
,
0010
0000
0010
0000
,
0010
0000
0100
0000
,
0100
0000
0000
0001
,
0000
0001
0000
1000
,
0000
1000
0000
0001
,
0000
0001
0000
0100
,
0000
0010
0000
1000
,
0000
1000
0000
0001
,
0000
0001
0000
1000
,
0000
1000
0000
0100
,
0000
0010
0000
0001
,
0000
0001
0000
1000
,
0000
1000
0000
0001
,
0000
0001
0000
1000
,
0000
0001
0000
0100
,
0000
0100
0000
0010
,
0000
0010
0000
1000
,
0000
1000
0001
0001
,
0001
0000
1001
0000
,
0000
1000
0000
1000
,
0000
1001
0000
0000
,
0000
0000
0200
0000
,
0300
0000
1001
0000
,
0000
0000
0001
0000
,
0001
0000
1001
0000
,
0000
0000
0200
0300
,
0001
0001
0000
0001
,
0000
1000
1000
1000
,
0000
0100
0000
0100
,
0000
0010
0010
0010
,
0000
0100
0000
0010
,
0000
0100
0100
0100
,
0000
0001
0000
0001
,
0000
1000
1000
1000
,
0000
0001
0000
0100
,
0000
0001
0001
0001
,
0000
0100
0000
1000
,
0000
0100
0100
0100
,
0000
0001
0000
0100
,
0000
1000
1000
1000
,
0000
0010
0000
0100
,
0000
0010
0010
0010
,
0001
0001
0000
1000
,
1000
0000
0010
0010
,
1000
1000
0000
0001
,
0001
0000
0100
0100
,
0001
0001
0000
1000
,
1000
0000
0010
0010
,
0100
0100
0000
0001
,
0001
1000
1000
0000
,
0000
0000
0000
0000
0000
0000
0000
0001
,
0000
0000
0000
0001
0000
0000
0000
1000
,
0000
0000
0000
1000
0000
0000
0000
0001
,
0000
0000
0000
0100
0000
0000
0000
0010
,
0000
0010
0000
0010
0000
0000
0000
1000
,
0000
0000
0000
1000
0000
0000
0000
0001
,
0000
0000
0000
0001
0000
0000
0000
0100
,
0000
0000
0000
1000
0000
0000
0000
0010
,
0000
0010
0000
0010
0000
0000
0000
1000
,
0000
0000
0000
1000
0000
0000
0000
0100
,
0000
0000
0000
0100
0000
0000
0000
0001
,
0000
0000
0000
1000
0000
0000
0000
0010
,
0000
0010
0000
0010
0000
0000
0000
0100
,
0000
0100
0000
0100
0000
0000
0000
0010
,
0000
0010
0000
0010
0000
1000
0000
0000
,
0000
0001
0000
0000
0000
1000
0000
0001
,
0000
1000
0000
0001
0000
1001
0000
0000
,
0000
0110
0000
0000
0000
1001
0000
0000
;
