#TITLE:THE SHINING POLARIS;
#SUBTITLE:;
#ARTIST:L.E.D. feat.Sana;
#TITLETRANSLIT:;
#SUBTITLETRANSLIT:;
#ARTISTTRANSLIT:;
#GENRE:EPIC TRANCE;
#CREDIT:;
#MENUCOLOR:white;
#METERTYPE:DDR X;
#BANNER:THE SHINING POLARIS.png;
#BACKGROUND:THE SHINING POLARIS-bg.png;
#LYRICSPATH:;
#CDTITLE:./CDTITLES/beatmaniaIIDX.png;
#MUSIC:THE SHINING POLARIS.mp3;
#OFFSET:-1.683;
#SAMPLESTART:71.690;
#SAMPLELENGTH:15.000;
#SELECTABLE:YES;
#LISTSORT:;
#DISPLAYBPM:147.000;
#BPMS:0.000=146.960;
#STOPS:;
#BGCHANGES:;
#ATTACKS:;

//---------------dance-single - ----------------
#NOTES:
     dance-single:
     :
     Easy:
     4:
     0.171,0.204,0.139,0.000,0.000:
0000
0000
0000
0000
,
0000
0000
0000
0000
,
0000
0000
0000
0000
,
0010
0000
0000
0000
,
0100
0000
0000
0000
,
0001
0000
1000
0000
,
0001
0000
1000
0000
,
0100
0000
0000
0000
,
0010
0000
0000
0000
,
1000
0000
0001
0000
,
1000
0000
0001
0000
,
1001
0000
0000
0000
,
0110
0000
0000
0000
,
0100
0000
0100
0000
,
0110
0000
0010
0000
,
0010
0000
0000
0000
,
1001
0000
0000
0000
,
0001
0000
0001
0000
,
1000
0000
1000
0000
,
0110
0000
0000
0000
,
1001
0000
0000
0000
,
0001
0000
0001
0000
,
1001
0000
1000
0000
,
1000
0000
0000
0000
,
0010
0000
1001
0000
,
0100
0000
0000
0000
,
1001
0000
0001
0100
,
0001
0000
0001
0000
,
0010
0000
0010
0000
,
0100
0000
0100
0000
,
1000
0000
1000
0010
,
1000
0000
0100
0000
,
0100
0000
0010
0000
,
0010
0000
0001
0000
,
0001
0000
0100
0000
,
1001
0000
0000
0000
,
0101
0000
0000
0000
,
1001
0000
0000
0000
,
1100
0000
0000
0000
,
1000
0000
0100
0000
,
0001
0000
0100
0000
,
1000
0000
0001
0000
,
0100
0100
0000
0000
,
1000
0100
0001
0000
,
1000
0100
0010
0000
,
0001
0100
0010
0000
,
0001
0100
1000
0000
,
0001
0000
0001
0000
,
0010
0000
0010
0000
,
1000
0000
1000
0000
,
0100
0000
0100
0000
,
1000
0010
0001
0000
,
0010
0100
0001
0000
,
1000
0100
0001
0000
,
0100
0010
1000
0000
,
1000
0000
0100
0000
,
0100
0000
0001
0000
,
0001
0000
0010
0000
,
0010
0000
1000
0000
,
1001
0000
0000
0000
;

//---------------dance-single - ----------------
#NOTES:
     dance-single:
     :
     Medium:
     6:
     0.341,0.409,0.178,0.505,0.000:
0000
0000
0000
0000
,
0000
0000
0000
0000
,
0000
0000
0000
0000
,
1000
0000
1000
0000
,
0001
0000
0001
0000
,
0020
0000
0031
0000
,
2000
0000
3100
0000
,
0010
0000
0010
0000
,
0100
0000
0100
0000
,
0002
0000
0013
0000
,
2000
0000
3100
0000
,
1000
0002
0003
0100
,
1000
0010
0001
0100
,
0010
2000
3000
0100
,
1000
0010
0001
0100
,
0010
0001
1000
0100
,
0001
0010
1000
0100
,
0002
0003
2000
3000
,
0002
0003
2000
3000
,
0020
0030
1000
0100
,
2000
3000
0001
0010
,
0002
0003
0010
1000
,
0200
0300
1000
0001
,
1000
0100
0001
1000
,
0020
0000
0230
0300
,
2002
0000
0000
0000
,
0000
3003
0000
1001
,
0002
0000
0003
0000
1000
0100
0001
0000
,
2000
0000
3000
0000
0001
0100
1000
0000
,
0010
1000
0100
0001
,
2000
3100
0002
0103
,
1000
0202
0000
0303
,
0001
2200
0000
3300
,
0010
2002
3003
1001
,
0010
1000
0001
0100
,
2000
0000
0001
3010
,
0002
0000
0010
1003
,
0020
0030
0200
0300
,
0020
0030
0100
0100
,
0002
1000
1000
0103
,
2000
0001
0001
3100
,
1001
0000
0220
0330
,
0002
2000
0000
3003
,
0010
0000
1000
0000
0001
0100
0001
0000
,
0010
0000
0001
0000
1000
0100
1000
0000
,
0010
1000
0001
0100
,
1000
0010
0001
0100
,
0001
0000
1000
0000
0001
0010
0001
0000
,
1000
0000
0001
0000
1000
0100
1000
0000
,
2200
0000
3300
1001
,
0022
0000
0033
0110
,
0010
0100
0010
0000
0001
0000
0010
0000
,
1000
0001
1000
0000
0010
0000
0100
0000
,
1100
1100
0011
0011
,
0001
0100
1000
0010
,
0001
0100
2200
3300
,
1000
0100
0202
0303
,
0020
0030
2000
3000
,
0200
0300
0002
0000
,
0003
0000
0000
0000
;

//---------------dance-single - ----------------
#NOTES:
     dance-single:
     :
     Hard:
     9:
     0.474,0.467,0.168,0.832,0.000:
0000
0000
0000
0000
,
0000
0000
0000
0000
,
0000
0000
0000
0000
,
0010
1000
0010
0000
2000
0000
3100
0000
,
0010
0001
0010
0000
0002
0000
0103
0000
,
0100
0001
0010
0001
1000
0100
0010
0000
,
0100
1000
0010
0000
1000
0001
0100
0001
,
1000
0100
1000
0000
0002
0000
0013
0000
,
0001
0100
0001
0000
2000
0000
3010
0000
,
0001
0100
1000
0010
,
0001
0000
0100
0000
0001
0010
0001
1000
,
0200
0000
0000
0300
,
0020
0000
0000
0030
,
0001
1000
0100
0000
1000
0000
0100
0000
,
0010
0000
0001
0000
1000
0001
0100
0000
,
0002
0000
0200
0303
,
2000
0000
0200
3300
,
0010
0001
1000
0010
0100
0001
0100
0000
,
0010
1000
0100
0001
,
2000
3002
0023
0230
,
2300
3002
0203
0320
,
2030
3100
0002
0103
,
0010
0000
1000
0000
0001
0100
0010
1000
,
0002
2003
3200
0320
,
0032
2003
3020
0230
,
0302
0003
2000
3000
,
0220
0000
0000
0330
,
0010
1000
0010
0000
1000
0001
0100
0000
,
0010
1000
0001
0000
0100
0001
0100
0000
,
0020
1030
0200
0301
,
2000
3100
0002
0013
,
0010
0001
0101
0000
0010
1000
1100
0000
,
0010
0000
0100
0000
1000
0001
1000
0100
,
0020
0030
0002
0003
,
0001
0002
1000
0103
,
2002
0000
3003
0000
1000
0001
0100
0000
,
0202
0000
0303
0000
0100
0001
1000
0000
,
2002
0000
3003
0000
0001
1000
0100
0000
,
2200
3300
0011
1100
,
0020
1000
0001
1030
,
0200
0001
1000
0301
,
2002
3003
0220
0330
,
2000
0002
0000
3003
,
0002
0023
0230
2300
,
3020
0230
0302
2003
,
3001
0010
0001
0000
1000
0100
1000
0000
,
0010
0000
0001
0000
1000
0100
1000
0010
,
2000
3002
0023
0230
,
2300
3200
0320
0032
,
1003
0100
0010
0000
0001
1000
1100
0000
,
0010
0001
1000
0000
0002
0000
0103
0000
,
0010
0100
0010
0000
1000
0001
0100
0000
,
0001
1000
0010
0000
1100
0000
0011
0000
,
0002
0103
2000
3100
,
0020
0000
0230
0300
,
0001
0220
0330
1001
,
0010
2002
3003
0100
,
0020
0130
2000
3001
,
0002
0103
0200
0000
,
0300
0000
0000
0000
;

//---------------dance-double - ----------------
#NOTES:
     dance-double:
     :
     Easy:
     5:
     0.242,0.263,0.069,0.059,0.000:
00000000
00000000
00000000
00000000
,
00000000
00000000
00000000
00000000
,
00000000
00000000
00000000
00000000
,
10000000
00000000
00010000
00000000
,
00100000
00000000
01000000
10000000
,
00100000
00000000
00010000
00000000
,
00001000
00000000
00000010
00000001
,
00000100
00000000
00001000
00000000
,
00010000
00000000
00000100
00000010
,
00000001
00000000
00001000
00000000
,
00000010
00000000
00000100
00000001
,
00000110
00001000
00000001
00000100
,
00001000
00010000
01000000
00000000
,
10000000
00000000
00100000
00000000
,
01000000
00000000
00010000
00000000
,
10000000
00000000
01000000
00000000
,
00100000
00000000
00010000
00000000
,
20000000
00000000
00000000
30000000
,
00020000
00000000
00000000
00030000
,
00100000
00001000
00000010
00000001
,
00000100
00000010
00001000
00000000
,
00000001
00000000
00000010
00000000
,
00001000
00000001
00000100
00001000
,
00010000
00000000
01000000
00000000
,
10000000
00000000
00100000
00000000
,
20000000
00000000
00020000
00000000
,
00000000
30030000
00100000
01000000
,
20020000
00000000
00000000
30030000
,
00100000
00000000
10000000
01000000
,
00010000
00000000
00001000
00000100
,
00000010
00000000
00001000
00000001
,
00000110
00000000
00000001
00001000
,
00000001
00000000
00000010
00000100
,
00000010
00000000
00001000
00010000
,
01000000
00000000
10000000
00010000
,
10000000
00000000
10000000
00000000
,
01000000
00000000
01000000
00000000
,
00100000
00000000
00100000
00000000
,
00010000
10000000
01000000
00010000
,
00001000
00000000
00010000
00001000
,
00000100
00000000
00000001
00000010
,
00001001
00000000
00000100
00000000
,
00000001
00001000
00000100
00000000
,
00001001
00000010
00000001
00000100
,
00001000
00010000
01000000
10000000
,
10000000
00010000
01000000
00100000
,
10000000
01000000
00010000
00001000
,
00000100
00000001
00001000
00000010
,
00000100
00001000
00010000
01000000
,
10000000
00000000
00100000
00000000
,
10000000
00000000
00010000
00000000
,
10010000
00100000
10000000
01000000
,
00001000
00000010
00000100
00000001
,
00001000
00000010
00000100
00000001
,
00000100
00001000
00010000
00000100
,
00000010
00000000
00000001
00000000
,
00000100
00000000
00001000
00000000
,
00010000
01000000
10000000
00010000
,
10000000
01000000
00100000
00001000
,
00011000
00000000
00000000
00000000
;

//---------------dance-double - ----------------
#NOTES:
     dance-double:
     :
     Medium:
     6:
     0.334,0.380,0.139,0.208,0.000:
00000000
00000000
00000000
00000000
,
00000000
00000000
00000000
00000000
,
00000000
00000000
00000000
00000000
,
00100000
10000000
00010000
00000000
01000000
00000000
00100000
00000000
,
00100000
00010000
10000000
00000000
01000000
00000000
00100000
00000000
,
00010000
10000000
01000000
00010000
,
00001000
00000100
00000001
00001000
,
00000010
00000001
00001000
00000000
00000100
00000000
00000010
00000000
,
00000010
00001000
00000001
00000000
00000100
00000000
00000010
00000000
,
00001000
00000001
00000100
00001000
,
00010000
01000000
10000000
00010000
,
20020000
30030000
02000000
03000000
,
00200000
00300000
00002000
00003000
,
00000200
00000300
00000002
00000003
,
00000020
00000030
00002000
00003000
,
00020000
00030000
00000200
00000300
,
00000020
00000030
00000002
00000003
,
00001000
00000001
00000100
00001000
,
00100000
01000000
10000000
00010000
,
20020000
30030000
01000000
01000000
,
00100000
10000000
00010000
01000000
,
00100000
10000000
01000000
00010000
,
00001000
00001000
00000100
00000010
,
00002000
00003000
00000200
00000300
,
00000020
00000030
00000002
00000003
,
00001000
00000001
00000100
00001000
,
00100000
00000000
01000000
00000000
,
10010000
01000000
00000000
01000000
,
00100000
00000000
00010000
00000100
,
00000010
00000000
00000001
00000100
,
00001000
00000000
00010000
00000100
,
00000010
00000000
00000001
00001000
,
00000001
00000100
00001000
00000100
,
00000001
00000100
00001000
00010000
,
01000000
10000000
00010000
00100000
,
10000000
01000000
00010000
10000000
,
00100000
01000000
00010000
10000000
,
01000000
00010000
00000100
00000010
,
00001000
00000001
00000100
00000010
,
00001001
00000100
00000010
00001000
,
00001001
00000010
00000100
00000001
,
00001001
00000000
00000110
00000000
,
00001001
00000110
00001000
00010000
,
00011000
01000000
10000000
00010000
,
01100000
00010000
01100000
10000000
,
01000000
00010000
01000000
10000000
,
01000000
00010000
00001000
00000100
,
00000001
00000001
00001000
00001000
,
00000010
00000100
00000001
00001000
,
00000100
00000001
00000100
00001000
,
00000002
00000003
00002000
00003000
,
00000010
00001000
00000001
00000100
,
00001000
00010000
01000000
10000000
,
01100000
00010000
01100000
10000000
,
00010000
01000000
00100000
10000000
,
00010000
00000010
00000001
00000100
,
00000010
00001000
00000100
00000010
,
00000001
00000100
00001000
00100000
,
01000000
10000000
00010000
01000000
,
00100000
00000000
00000000
00000000
;

//---------------dance-double - ----------------
#NOTES:
     dance-double:
     :
     Hard:
     9:
     0.392,0.409,0.069,0.297,0.000:
00000000
00000000
00000000
00000000
,
00000000
00000000
00000000
00000000
,
00000000
00000000
00000000
00000000
,
00001000
00000001
00000100
00000000
00000001
00001000
00000100
00000000
,
00000010
00000001
00000100
00000000
00000010
00001000
00000100
00000000
,
00000010
00001000
00010000
00000100
,
00000010
00000001
00000100
00001000
,
00010000
00001000
01000000
00000000
00100000
10000000
01000000
00000000
,
00100000
00010000
01000000
00000000
00010000
00100000
10000000
00000000
,
00100000
00010000
10000000
01000000
,
00100000
00001000
00010000
01000000
,
20020000
30030000
00100000
00010000
,
00000100
00000010
00001000
00000001
,
00000200
00000300
00000002
00000003
,
00001000
00000010
00001000
00000100
,
00002002
00003003
00000010
00000100
,
00001000
00010000
00000100
00000010
,
00001000
00010000
01000000
10000000
,
00020000
00030000
20000000
30000000
,
01100000
00010000
10000000
00100000
,
00010000
00000000
00000100
00000000
00000010
00000001
00000100
00000000
,
00000002
00000003
00002000
00003000
,
00000200
00000300
00000020
00000030
,
00000001
00000100
00001000
00010000
,
01000000
00000000
10000000
00000000
00010000
00100000
01000000
00000000
,
20000000
00000000
00020000
30030000
,
01100000
00000000
10000000
00000000
00100000
00010000
00000100
00000010
,
00000002
00000000
00002000
00000003
,
00000200
00003000
00000020
00000300
,
00000002
00000030
00000200
00000003
,
00002000
00000300
00020000
00003000
,
02000000
00030000
20000000
03000000
,
00020000
30000000
00200000
00030000
,
02000000
00300000
20000000
03000000
,
00200000
30000000
00020000
00300000
,
00031000
00010000
00001000
00000000
00000010
00000001
00001000
00000000
,
00000010
00001000
00000100
00000000
00000010
00000001
00000100
00000000
,
00001000
00010000
00001000
00000000
01000000
00100000
10000000
00000000
,
01000000
00100000
00010000
00000000
10000000
00100000
01000000
00000000
,
00010000
00100000
01000000
00000000
10000000
00010000
01000000
00000000
,
00100000
00010000
00001000
00000000
00000010
00000001
00001000
00000000
,
00000010
00000100
00000001
00000000
00001000
00000100
00000010
00000000
,
00001001
00000010
00000100
00000010
,
00001001
00000000
00000100
00000000
00000010
00001000
00010000
00000000
,
00100000
10000000
00010000
00000000
00100000
00010000
10000000
00000000
,
00100000
01000000
00010000
10000000
,
00100000
00000000
00010000
00000000
00000100
00000000
00000010
00000001
,
00001000
00000000
00000010
00000000
00000100
00000000
00000001
00000010
,
00001000
00000010
00000001
00000100
,
00001000
00010000
01000000
10000000
,
00100000
00000000
01000000
00000000
00010000
00100000
10000000
00000000
,
10010000
00000000
00100000
00000000
00010000
00001000
00000010
00000000
,
00000001
00000000
00000100
00000000
00000010
00001000
00000100
00000000
,
00000010
00000001
00000100
00001000
,
00010000
00000000
01000000
00000000
10000000
00010000
01000000
00000000
,
00100000
00000000
00010000
00000000
00001000
00000010
00000001
00000000
,
00001000
00000000
00000010
00000000
00000100
00000001
00001000
00000000
,
00000100
00000010
00000001
00000000
00000100
00000010
00001000
00000000
,
00000001
00000100
00000010
00010000
01000000
00100000
00010000
10000000
,
00100000
00000000
00000000
00000000
;

//---------------dance-single - ----------------
#NOTES:
     dance-single:
     :
     Beginner:
     4:
     0.157,0.234,0.089,0.000,0.000:
0000
0000
0000
0000
,
0000
0000
0000
0000
,
0010
0000
1000
1000
,
1000
0000
0001
0000
,
1000
0000
0001
0000
,
0010
0000
0100
0000
,
0010
0000
0100
0000
,
0001
0000
1000
0000
,
0001
0000
1000
0000
,
0010
0000
0100
0000
,
0010
0000
0100
0000
,
1001
0000
0000
0000
,
0000
0000
0000
0000
,
0001
0000
0000
0000
,
1000
0000
0000
0000
,
0100
0000
0000
0000
,
1000
0000
0000
0000
,
1000
0000
0000
0000
,
0001
0000
0000
0000
,
0100
0000
0000
0000
,
0001
0000
0000
0000
,
0010
0000
0000
0000
,
1000
0000
0000
0000
,
0100
0000
0000
0000
,
0001
0000
0000
0000
,
0010
0000
0000
0000
,
1000
0000
0000
0001
,
0001
0000
0000
1000
,
0000
0001
0000
1000
,
0000
0001
0000
1000
,
0000
0001
0001
0001
,
0000
1000
0000
0001
,
0000
1000
0000
0001
,
0000
1000
0000
0001
,
0000
1000
0000
0001
,
0001
0000
0000
0000
,
0010
0010
0010
0000
,
0010
0010
0010
0000
,
0010
0010
0010
0000
,
1001
0000
0000
0000
,
1001
0000
0000
0000
,
1001
0000
0110
0000
,
1001
1001
0000
0000
,
1001
0000
1000
0000
,
1000
0000
1000
0000
,
0001
0000
0001
0000
,
1000
0000
1000
0000
,
0100
0000
0000
0000
,
1000
0000
0000
0000
,
1000
0000
1000
0000
,
0001
0000
0001
0000
,
0100
0100
0100
0000
,
0001
0001
0001
0000
,
0010
0010
0010
0000
,
1000
0000
1000
0000
,
0100
0000
0100
0000
,
0001
0000
0001
0000
,
0010
0000
0010
0000
,
1000
0000
0001
0000
,
1001
0000
0000
0000
;

//---------------dance-single - ----------------
#NOTES:
     dance-single:
     :
     Challenge:
     14:
     0.690,0.788,0.455,0.267,0.579: // measure 1
0000
0000
0000
0000
,  // measure 2
0000
0000
0000
0000
,  // measure 3
1001
0000
0000
0000
0000
0000
0000
0000
1000
0001
1000
0000
0001
1000
0001
0000
,  // measure 4
1000
0100
0010
0001
0100
0010
0001
1000
,  // measure 5
0001
0100
0010
1000
0001
0100
0010
1000
,  // measure 6
0001
0010
0100
1000
0010
0100
0001
1000
,  // measure 7
0010
0001
1000
0100
0001
0100
0010
1000
,  // measure 8
0001
0010
0100
1000
0100
0010
1000
0001
,  // measure 9
0100
0010
1000
0100
0001
1000
0010
0001
,  // measure 10
1000
0010
0100
0010
0100
1000
0010
1000
,  // measure 11
0001
0010
0100
1000
0001
0010
0100
1000
,  // measure 12
0001
0000
0011
0101
0000
1010
0000
0110
,  // measure 13
0000
0000
1100
0000
0001
1000
0000
0000
0100
0000
1000
0100
0000
1000
0100
0000
,  // measure 14
0010
0000
1000
0010
0000
1000
0010
0000
0100
0000
0001
0100
0000
0001
0100
0000
,  // measure 15
0010
0000
0001
0010
0000
0001
0010
0000
1000
0000
0001
1000
0000
0001
1000
0000
,  // measure 16
0100
0000
0010
0100
0000
0010
0100
0000
0001
0000
0100
0001
0000
0100
0001
0000
,  // measure 17
1000
0000
0100
1000
0000
0100
1000
0000
0001
0000
0100
0001
0000
0100
0001
0000
,  // measure 18
0001
0010
0100
1000
0001
0010
0100
0010
0100
1000
0001
0100
0010
1000
0100
0010
,  // measure 19
0001
0000
0000
0000
1001
0000
0000
0000
1000
0001
1000
0000
0001
1000
0001
0000
,  // measure 20
1000
0000
0100
0010
0000
0100
0010
0000
0001
0000
1000
0100
0000
1000
0100
0000
,  // measure 21
0010
0000
0001
0010
0000
0001
0010
0000
0100
0000
0010
0100
0000
0010
0100
0000
,  // measure 22
1000
0000
0010
1000
0000
0010
1000
0000
0100
0000
0010
0100
0000
0010
0100
0000
,  // measure 23
0010
0000
1000
0010
0000
1000
0010
0000
0001
0000
0100
0001
0000
0100
0001
0000
,  // measure 24
2000
0002
0000
0000
3003
0000
0000
0000
0200
0020
0000
0000
0330
0000
0000
0000
,  // measure 25
2000
0200
0000
0000
3300
0000
0000
0000
0002
0200
0000
0000
0303
0000
0000
0000
,  // measure 26
0020
0002
0000
0000
0033
0000
0000
0000
0020
2000
0000
0000
3030
0000
0000
0000
,  // measure 27
0020
0002
0000
0000
0033
0000
0000
0000
0200
2000
0000
0000
3300
0000
0000
0000
,  // measure 28
2002
0000
0000
0000
,  // measure 29
0000
3000
0200
0003
,  // measure 30
2000
0000
0000
0300
,  // measure 31
0020
0000
0000
3000
,  // measure 32
0200
0030
0002
0300
,  // measure 33
2000
0000
0000
0003
,  // measure 34
0200
3000
0002
0300
,  // measure 35
2000
0000
0000
3003
,  // measure 36
1100
0000
0000
0000
0011
0000
0000
0000
0010
0001
0000
0000
1100
0000
1100
0000
,  // measure 37
1010
0000
0000
0000
0110
0000
0000
0000
0100
0001
0000
0000
0101
0000
0011
0000
,  // measure 38
1001
0000
0000
0000
0110
0000
0000
0000
1000
0001
0000
0000
1100
0000
1010
0000
,  // measure 39
1100
0000
0000
0000
0011
0000
0000
0000
0001
1000
0000
0000
1100
0000
1010
0000
,  // measure 40
1100
0000
1001
0000
,  // measure 41
0110
0000
1001
0000
,  // measure 42
0011
0101
0110
1010
,  // measure 43
1100
0000
0000
0000
1001
0000
0000
0000
0001
0010
0100
0000
1000
0010
0100
0000
,  // measure 44
0001
0000
0100
0000
0010
0000
1000
0000
0110
0000
0000
1001
0000
0000
0110
0000
,  // measure 45
1000
0000
0010
0000
0100
0000
0001
0000
0010
0000
0001
1000
0000
0100
0010
0000
,  // measure 46
1000
0000
0010
0001
0000
0001
1000
0000
0010
0000
0100
1000
0000
1000
0010
0000
,  // measure 47
0100
0000
0010
1000
0000
0001
0100
0000
1000
0000
0100
0001
0000
1000
0010
0000
,  // measure 48
0100
0000
0001
0100
0000
0100
0010
0000
1000
0000
0001
0100
0000
0100
0010
0000
,  // measure 49
0001
0000
0010
0100
0000
0001
1000
0000
0010
0000
0001
0100
0000
1000
0010
0000
,  // measure 50
0001
0000
0100
0010
0000
1000
0001
0000
0100
0000
0010
1000
0000
0100
0001
0000
,  // measure 51
0010
0000
0001
0000
1000
0000
0100
0000
0001
0010
0100
1000
0001
0100
0010
1000
,  // measure 52
0001
0000
0100
0000
0010
0000
1000
0000
0011
0000
0000
1100
0000
0000
0110
0000
,  // measure 53
0001
0000
1000
0000
0010
0000
0100
0000
1000
0000
0010
0100
0000
0001
1000
0000
,  // measure 54
0010
0000
0001
0100
0000
1000
0010
0000
0001
0000
0100
0010
0000
0001
1000
0000
,  // measure 55
0100
0000
0010
1000
0000
0001
0100
0000
0010
0000
1000
0100
0000
0010
0001
0000
,  // measure 56
1000
0000
0100
0000
0010
0000
0100
0000
0011
0000
0000
1100
0000
0000
1001
0000
,  // measure 57
1000
0000
0001
0000
1000
0000
0100
0000
1001
0000
0000
0110
0000
0000
1001
0000
,  // measure 58
1000
0010
1000
0010
0100
0001
0100
0001
1000
0001
0100
0010
1000
0010
0100
0001
,  // measure 59
1000
0100
1000
0100
0010
0001
0010
0001
1000
0010
0100
0001
1000
0100
0010
0001
,  // measure 60
1000
0000
0000
0000
;

//---------------dance-double - ----------------
#NOTES:
     dance-double:
     :
     Challenge:
     13:
     0.577,0.621,0.139,0.109,0.441:
00000000
00000000
00000000
00000000
,
00000000
00000000
00000000
00000000
,
00022000
00000000
00000000
00033000
,
00001000
00000100
00000010
00000001
00000100
00000001
00000010
00001000
,
00010000
01000000
00100000
10000000
00010000
01000000
00100000
10000000
,
00010000
00001000
00000100
00000010
00000001
00000100
00000010
00001000
,
00000001
00000100
00000010
00001000
00000100
00010000
00100000
10000000
,
00010000
10000000
00010000
00000000
01000000
00000000
10000000
00000000
01000000
00100000
00010000
00000000
00001000
00000000
00000100
00000000
,
00000001
00001000
00000100
00000000
00000010
00000000
00001000
00000000
00010000
00001000
00100000
00000000
10000000
00000000
00100000
00000000
,
01000000
10000000
00010000
00000000
00001000
00000000
00000100
00000000
00001000
00010000
00001000
00000000
00000010
00000000
00000001
00000000
,
00000100
00001000
00000100
00000000
00100000
00010000
00100000
00000000
01000000
10000000
00010000
01000000
00100000
10000000
01000000
00100000
,
00010000
00000000
00000000
00001000
00000000
00000100
00000000
00000010
,
00000000
00000000
00000001
00000000
00000010
00000000
00000000
00000000
00001000
00000000
00010000
01000000
00000000
10000000
01000000
00000000
,
00100000
00000000
00010000
00100000
00000000
10000000
00100000
00000000
00001000
00000000
00010000
01000000
00000000
00010000
00001000
00000000
,
00000100
00000000
00001000
00000100
00000000
00000001
00000100
00000000
00000010
00000000
00000100
00000010
00000000
00001000
00000010
00000000
,
00001000
00000000
00010000
00001000
00000000
00100000
00001000
00000000
00010000
00000000
01000000
00010000
00000000
00100000
00010000
00000000
,
10000000
00000000
01000000
10000000
00000000
00100000
10000000
00000000
00010000
00000000
00100000
00010000
00000000
00001000
00010000
00000000
,
00001000
00000000
00000000
00001000
00000000
00000000
00000000
00000000
,
00010000
00000000
00000000
00000000
10010000
00000000
00000000
00000000
10000000
00010000
10000000
00000000
00010000
10000000
00010000
00000000
,
00001000
00000100
00001000
00000100
00000010
00000001
00000010
00000001
,
00001000
00000000
00010000
00100000
00000000
00001000
00100000
00000000
01000000
00000000
00100000
01000000
00000000
10000000
01000000
00000000
,
00010000
00000000
00100000
10000000
00000000
00100000
00010000
00000000
00001000
00000000
00000100
00010000
00000000
00001000
00010000
00000000
,
00000100
00000000
00000001
00000100
00000000
00000010
00000100
00000000
00001000
00000000
00010000
00001000
00000000
00100000
00001000
00000000
,
00110000
00010000
00010000
00010000
,
10100000
01000000
00100000
00100000
,
00011000
00000010
00000100
00000001
,
00001010
00000001
00001000
00010100
,
00202000
00000000
00000000
00000000
,
00000000
00000000
00003000
02300000
,
20000000
00000000
00000000
03000000
,
00020000
00000000
00000000
30000000
,
00002000
00000000
00030000
00003200
,
00000020
00000000
00000000
00000330
,
00000011
00000000
00001100
00000000
,
01010000
01100000
10100000
10010000
,
01000000
00000000
10000000
00000000
00010000
00000000
01000000
00100000
,
00010000
00000000
00001000
00000000
00000100
00000000
00010000
00100000
,
00001000
00000000
00000010
00000000
00001000
00000000
00000010
00000100
,
00000001
00000000
00000100
00000000
00001000
00000000
00010000
00100000
,
10000000
00000000
00000000
00000000
,
00100000
00000000
00000000
00000000
,
00000100
00000000
00000010
00000000
,
00000010
00000000
00000000
00000000
00000010
00000000
00000000
00000000
00000001
00000100
00000010
00000000
00001000
00000100
00010000
00000000
,
00001000
00000000
00100000
00000000
00010000
00000000
01000000
00000000
10000000
00000000
00000000
01000000
00000000
00000000
00100000
00000000
,
00010000
00000000
00000100
00000000
00000001
00000000
00000100
00000000
00000010
00000000
00000000
00001000
00000000
00000000
00000100
00000000
,
00010000
00000000
00100000
01000000
00000000
00010000
10000000
00000000
00100000
00000000
00010000
00001000
00000000
00100000
00010000
00000000
,
00001000
00000000
00000100
00000010
00000000
00001000
00000100
00000000
00000001
00000000
00000100
00000010
00000000
00010000
00001000
00000000
,
00000100
00000000
00001000
00000000
00010000
00000000
00001000
00000000
00100000
00000000
00000000
01000000
00000000
00000000
10000000
00000000
,
00010000
00000000
00100000
00001000
00000000
00010000
00100000
00000000
00001000
00000000
00000100
00010000
00000000
00001000
00000100
00000000
,
00000001
00000000
00000100
00000010
00000000
00001000
00000100
00000000
00000001
00000000
00001000
00100000
00000000
00010000
00001000
00000000
,
00100000
00000000
01000000
00000000
10000000
00000000
01000000
00000000
00010000
00100000
01000000
10000000
00010000
01000000
00100000
10000000
,
00010000
00000000
00001000
00000000
00000100
00000000
00000001
00000000
00000100
00000000
00000000
00001000
00000000
00000000
00000010
00000000
,
00001000
00000000
00000100
00000000
00001000
00000000
00010000
00000000
00100000
00000000
00000000
01000000
00000000
00000000
10000000
00000000
,
00100000
00000000
00010000
01000000
00000000
10000000
00100000
00000000
00010000
00000000
00001000
00000100
00000000
00010000
00001000
00000000
,
00000010
00000000
00000100
00001000
00000000
00000001
00000100
00000000
00000010
00000000
00001000
00100000
00000000
00010000
00001000
00000000
,
00100000
00000000
01000000
00000000
10000000
00000000
00010000
00000000
01000000
00000000
00000000
00100000
00000000
00000000
01000000
00000000
,
00010000
00000000
00001000
00000000
00010000
00000000
00001000
00000000
00000100
00000000
00000000
00010000
00000000
00000000
00000100
00000000
,
00000001
00000001
00000010
00000010
00000100
00000100
00001000
00001000
,
00010000
00100000
01000000
10000000
00100000
01000000
00010000
00001000
00010000
00001000
00000100
00010000
00000100
00001000
00000001
00000100
,
00000020
00000000
00000000
00000030
;
