#TITLE:Scorching Moon;
#SUBTITLE:;
#ARTIST:Shawn the Horny Master;
#TITLETRANSLIT:;
#SUBTITLETRANSLIT:;
#ARTISTTRANSLIT:;
#GENRE:BREAKBEAT HOUSE;
#CREDIT:;
#MENUCOLOR:white;
#METERTYPE:DDR X;
#BANNER:Scorching Moon.png;
#BACKGROUND:Scorching Moon-bg.png;
#LYRICSPATH:;
#CDTITLE:./CDTITLES/DANCE DANCE REVOLUTION HOME VERSION.PNG;
#MUSIC:Scorching Moon.mp3;
#OFFSET:-0.297;
#SAMPLESTART:23.320;
#SAMPLELENGTH:15.000;
#SELECTABLE:YES;
#LISTSORT:;
#DISPLAYBPM:125.000;
#BPMS:0.000=124.990;
#STOPS:;
#BGCHANGES:;
#ATTACKS:;

//---------------dance-single - ----------------
#NOTES:
     dance-single:
     :
     Easy:
     4:
     0.255,0.274,0.021,0.083,0.000:
0000
0000
0000
0000
,
0010
1000
0001
1000
,
0010
0001
1000
0001
,
0010
0001
1000
0001
,
0010
1000
0001
1000
,
0010
0001
1000
0001
,
0010
1000
0001
1000
,
0000
0000
0000
0000
,
0001
0100
1000
0100
,
0001
0100
1000
0100
,
0001
0100
1000
0100
,
1000
0100
0001
1000
,
0001
0010
1000
0010
,
0001
0010
1000
0010
,
0001
0010
1000
0010
,
1001
0000
0000
0000
,
1000
0001
1000
0001
,
1000
0001
1000
0000
,
0001
1000
0001
1000
,
0001
1000
0001
0100
,
1000
0001
1000
0001
,
1000
0001
1000
0001
,
0010
0010
0100
0100
,
0000
0000
0000
0000
,
0002
0003
0000
0000
,
0020
0030
0000
0000
,
2000
3000
0000
0000
,
0200
0300
0000
0000
,
0002
1003
1000
0000
,
0020
0130
0100
0000
,
2000
3001
0001
0001
,
0200
0310
1000
0001
,
1000
0000
0010
1000
,
0001
1000
0010
0001
,
1000
0001
0010
0001
,
1000
0001
1000
0001
,
0010
1001
0010
0001
,
1000
0001
0010
1000
,
1000
0001
0100
0001
,
0001
1000
0010
1000
,
1000
1000
0010
1000
,
0001
1000
0010
0001
,
1000
0001
0010
0001
,
1000
0001
0010
1000
,
0001
1000
0010
0001
,
1000
0001
0010
1000
,
0001
1000
0001
0100
,
1000
0100
1000
0001
,
1000
0001
0000
0000
;

//---------------dance-single - ----------------
#NOTES:
     dance-single:
     :
     Medium:
     7:
     0.373,0.425,0.444,0.083,0.000:
0000
0000
0000
0000
,
0010
1000
0001
1000
,
0010
0001
1000
0101
,
0010
0001
1000
0001
,
0010
1000
0001
1100
,
0010
0001
1000
0001
,
0010
1000
0001
1100
,
1000
0000
0100
0000
0010
1000
0001
0000
,
0001
0100
1000
0101
,
0001
0100
1000
0101
,
0001
0100
1000
0101
,
1000
0000
0100
0000
0001
0000
1000
1000
,
1000
0000
0001
0000
0100
0000
1000
0001
,
0100
0100
0100
0001
,
0011
1100
0100
0001
,
1000
0000
0001
0000
1100
0000
0001
0100
,
0000
0101
1000
0101
,
1000
0000
0101
0000
1000
0000
0100
0010
,
0001
1100
0001
1100
,
0001
0000
1100
0000
0001
0000
0100
0010
,
1000
0101
1000
0101
,
1000
0000
0101
0000
1000
0000
0100
0010
,
1000
0000
0001
0000
1000
0010
1000
0001
,
0000
0000
0000
0000
,
0012
1000
1000
0103
,
1020
0100
0100
0031
,
2100
0001
0001
3010
,
0201
0010
0010
1300
,
2100
3001
1001
0100
,
0021
0130
0110
1000
,
0102
1003
1001
0010
,
1200
0310
1100
0101
,
1100
0000
0010
1000
,
0001
0000
1000
0100
0010
0000
0001
0000
,
1000
0101
0010
0001
,
1000
0000
0001
0100
1000
0000
0001
0000
,
0110
1001
0010
0001
,
1000
0000
0001
0100
0010
0000
1000
0000
,
1000
0101
0100
0011
,
0001
1010
0010
1100
,
1000
0001
1000
0001
0010
0000
1000
0000
,
0001
0000
1000
0100
0010
0000
0001
0000
,
1000
0101
0010
0001
,
1000
0000
0001
0100
0010
0000
1000
0000
,
0001
1100
0010
0001
,
1000
0000
0001
0100
0010
0000
1000
0000
,
0001
1100
0001
0100
,
1000
0100
1000
0001
,
1100
0000
0001
0100
0000
0000
0000
0000
;

//---------------dance-single - ----------------
#NOTES:
     dance-single:
     :
     Hard:
     11:
     0.466,0.450,0.671,0.124,0.227:
0000
0000
0000
0000
,
0010
0000
1000
0000
0001
0000
1000
0100
,
0010
0000
0001
0000
1000
0000
0101
0001
,
0010
0000
0001
0000
1000
0000
0001
0100
,
0010
0000
1000
0000
0001
0000
1100
1000
,
0010
0000
0001
0000
1000
0000
0001
0100
,
0010
1000
0001
1100
,
0000
1000
0000
0001
0100
0001
0000
1000
0000
0001
0000
1000
0010
0000
1000
0000
,
0000
0000
1100
0000
0000
0101
0000
0000
1100
0000
0000
0101
0000
0000
1000
0000
,
0001
0100
1000
0101
,
2001
3100
1000
0101
,
1000
0001
0100
0000
0001
0000
1100
1000
,
0000
0000
1100
0000
0000
0101
0000
0000
1100
0000
0000
0101
0000
0000
1000
0000
,
0001
0100
1000
0101
,
2001
3100
1000
0101
,
0000
0001
0000
1000
0100
1000
0000
0001
0000
1000
0000
0001
0010
0000
0100
0000
,
1000
0101
1000
0101
,
1000
0000
0101
0000
1000
0001
0100
0010
,
0001
1100
0001
1100
,
0001
0000
1100
0000
0001
1000
0100
0010
,
1000
0101
1000
0101
,
1000
0000
0101
0000
1000
0001
0100
0010
,
1000
0000
0000
0001
0000
1000
0000
0100
0000
1000
0000
0001
1000
0001
0010
0000
,
0000
0000
0000
0000
,
0012
1000
1000
0103
,
1020
0000
0100
0000
0100
0000
0031
1000
,
2100
0001
0001
3010
,
0201
0000
0010
0000
0010
0000
1300
1100
,
2100
3001
1001
0100
,
0021
0130
0110
1000
,
0102
1003
1001
0010
,
1200
0000
0000
0310
0000
0000
1000
0001
0100
0001
0010
0100
,
1000
0000
0000
0000
0000
0000
0000
0000
0000
0000
1100
0000
0000
0101
0000
0000
,
1100
0000
0000
0101
0000
0000
1000
0000
0010
0000
0000
0000
0001
0000
0000
0000
,
1000
0000
0101
0001
0010
0000
0001
0000
,
1000
0000
0000
0000
0001
0000
0100
0000
1000
0000
0000
0000
0001
0000
0000
1000
,
0000
0000
0100
0010
0001
0000
0100
0000
0000
0000
0101
0000
0000
1100
0000
0000
,
0101
0000
0000
1100
0000
0000
0001
0000
0010
0000
0000
0000
1000
0000
0000
0000
,
1000
0101
0100
0011
,
0001
1010
0010
1100
,
0000
1000
0000
0001
1000
0000
0001
0000
0000
0000
1100
0000
0000
0101
0000
0000
,
1100
0000
0000
0101
0000
0000
1000
0000
0001
0000
0000
0000
0100
0000
0000
0000
,
1000
0101
2001
3100
,
1000
0000
0001
0100
0010
0000
1000
0000
,
0001
0000
0000
0000
1100
0000
1000
0000
0000
0000
0101
0000
0000
1100
0000
0000
,
0101
0000
0000
1100
0000
0000
0001
0000
1000
0000
0000
0000
0100
0000
0000
0000
,
0001
1100
1002
0103
,
1000
0000
0000
0000
0100
0000
0000
0000
0000
1000
0000
0001
0100
0001
0000
1000
,
0000
0001
0000
1000
0010
0000
0100
0000
0000
0000
0000
0000
0000
0000
0000
0000
;

//---------------dance-double - ----------------
#NOTES:
     dance-double:
     :
     Easy:
     5:
     0.273,0.324,0.238,0.083,0.000:
00000000
00000000
00000000
00000000
,
00001000
00010000
00000010
00000000
,
00000001
00001000
00000100
00010000
,
00010000
00001000
00100000
00000000
,
10000000
00010000
01000000
00001000
,
00001000
00010000
00000010
00000000
,
00000001
00001000
00000100
00010000
,
00011000
00000000
00000000
00000000
,
00001000
01000000
00010000
01000000
,
00001000
01000000
00010000
01000000
,
00001000
01000000
00010000
01000000
,
00001000
01000000
00001000
00000000
,
00010000
00000100
00001000
00000100
,
00010000
00000100
00001000
00000100
,
00010000
00000100
00001000
00000100
,
00011000
00000000
00000000
00000000
,
10000000
10010000
10000000
10010000
,
10000000
10010000
00011000
00000000
,
00000001
00001001
00000001
00001001
,
00000001
00001001
00011000
00000000
,
10000000
01100000
10000000
01100000
,
10000000
01100000
10000000
01100000
,
00010000
00001000
00000110
00001001
,
00000000
00000000
00000000
00000000
,
02000000
00000000
03100000
00000000
,
00020000
00000000
00031000
00000000
,
00000020
00000000
00000130
00000000
,
00020000
00000000
00031000
00000000
,
02000000
00100000
03010000
00000000
,
00002000
00100000
00013000
00000000
,
00000020
00000100
00001030
00000000
,
00020000
00001000
00030010
00000010
,
00001010
00000000
00100000
10000000
,
00010000
10000000
00010000
00001000
,
00000010
00000000
00000010
00000001
,
00001000
00000001
00001000
00010000
,
01100000
00000000
00100000
00010000
,
10000000
00100000
00010000
00001000
,
00000010
00000000
00001000
00011000
,
01000000
00011000
00000100
00011000
,
00000000
00011000
00100000
10000000
,
00010000
10000000
00010000
00001000
,
00000010
00000000
00000010
00000001
,
00001000
00000001
00001000
00010000
,
00100000
00000000
00100000
00010000
,
10000000
01000000
00010000
00001000
,
00000100
00000000
00000010
00001000
,
00000100
00010000
00000000
00010000
,
00001000
00011000
00000000
00000000
;

//---------------dance-double - ----------------
#NOTES:
     dance-double:
     :
     Medium:
     7:
     0.376,0.425,0.444,0.083,0.000:
00000000
00000000
00000000
00000000
,
00001000
00010000
00000010
00000100
,
00000001
00001000
00000100
00011000
,
00010000
00000000
00001000
00000000
00100000
00000000
01000000
01000000
,
10000000
00010000
01000000
00011000
,
00001000
00010000
00000010
00000100
,
00000001
00001000
00000100
00011000
,
01000000
00000000
00010000
00000000
00100000
00001000
00010000
00000000
,
00010000
01000000
10000000
01010000
,
00010000
01000000
10000000
01010000
,
00010000
01000000
10000000
01010000
,
10000000
00000000
01000000
00010000
00001000
00000000
00000010
00001000
,
00000100
00000000
00010000
00000000
00000100
00000000
00001000
00000001
,
00000100
00000100
00000100
00000001
,
00001010
00011000
01000000
00010000
,
10000000
00000000
00010000
00000000
00110000
00000000
00001000
00010000
,
00000000
01010000
10000000
01010000
,
10000000
00000000
01010000
00000000
00010000
00000000
00001000
00000100
,
00000001
00001100
00000001
00001100
,
00000001
00000000
00001100
00000000
00001000
00000000
00010000
01000000
,
10000000
01010000
10000000
01010000
,
10000000
00000000
01010000
00000000
10000000
00000000
01000000
00010000
,
00001000
00000000
00010000
00000000
00000010
00010000
00000100
00001000
,
00000000
00000000
00000000
00000000
,
02010000
00001000
00001000
03100000
,
00021000
00000010
00000010
00030100
,
00001020
00010000
00010000
00000130
,
00012000
01000000
01000000
00103000
,
02010000
03001000
01001000
00100000
,
00021000
00030010
00010010
00000100
,
00001020
00010030
00010010
00000100
,
00012000
01003000
10010000
00011000
,
00001001
00000000
00100000
10000000
,
00010000
00000000
10000000
01000000
00010000
00000000
00001000
00000000
,
00000010
00001100
00000010
00000001
,
00001000
00000000
00000001
00000100
00001000
00000000
00010000
00000000
,
01100000
00011000
00100000
00010000
,
10000000
00000000
00100000
01000000
00001000
00000000
00010000
00000000
,
00001000
00000101
00000010
00011000
,
01000000
10100000
00010000
00011000
,
00001000
00010000
00001000
00010000
00100000
00000000
10000000
00000000
,
00010000
00000000
10000000
01000000
00010000
00000000
00001000
00000000
,
00000010
00001100
00000010
00000001
,
00001000
00000000
00000001
00000100
00001000
00000000
00010000
00000000
,
00100000
01010000
00100000
00010000
,
10000000
00000000
01000000
00010000
00001000
00000000
00000010
00000000
,
00000001
00001100
00000010
00001000
,
00000100
00010000
00001000
00010000
,
00110000
00000000
00001000
00010000
00000000
00000000
00000000
00000000
;

//---------------dance-double - ----------------
#NOTES:
     dance-double:
     :
     Hard:
     10:
     0.480,0.450,0.300,0.145,0.170:
00000000
00000000
00000000
00000000
,
00000000
00000000
00000000
00000000
,
00000002
00001000
00000103
00001000
,
00020000
00000010
00031000
01000000
,
00010000
10000000
01000000
00000000
10000000
00000000
01010000
00000000
,
00001000
00010000
00000100
00000100
,
00000010
00000001
00001000
00000000
00000100
00000000
00001100
00000000
,
00000000
00001000
00000000
00000100
00010000
00001000
00000000
01000000
00000000
00010000
00000000
01000000
00001000
00000000
00010000
00000000
,
00001000
01000000
00010000
01000000
00100000
10000000
00010000
10000000
,
00100000
00010000
00001000
00010000
00001000
00000100
00000002
00000000
,
00000023
00000000
00001030
00010000
00000010
00010000
00000100
00001000
,
00000001
00000000
00001000
00000000
00000100
00000000
00000100
00000000
00001100
00000000
00000000
00011000
00000000
00000000
00001000
00000000
,
00010000
00000100
00001000
00000100
00000010
00000001
00001000
00000001
,
00000010
00001000
00010000
00001000
00010000
01000000
20000000
00000000
,
30200000
00000000
00310000
00001000
00000010
00001000
00010000
00001000
,
00000000
00100000
00000000
00010000
01000000
00010000
00000000
10000000
00000000
01000000
00000000
00100000
00001000
00000000
00010000
00000000
,
00000000
01010000
00100000
01010000
,
10000000
00000000
01010000
00000000
00001000
00010000
00000010
00000100
,
00000001
00001100
00000010
00001100
,
00000001
00000000
00001100
00000000
00010000
00001000
00100000
01000000
,
10000000
01010000
00100000
01010000
,
10000000
00000000
01010000
00000000
01000000
00001000
00010000
00001000
,
00010000
00000000
00000000
00000010
00000000
00001000
00000000
00000001
00000000
00000100
00000000
00000010
00010000
00000010
00001000
00000000
,
00000000
00000000
00000000
00000000
,
02010000
10000000
13000000
00100000
,
00021000
00100000
00130000
00001000
,
00000020
00000001
00000031
00000100
,
00012000
00000010
00003010
00000000
,
00010000
01010000
01000000
01100000
,
00100000
00110000
00010000
00011000
,
00001000
00001010
00000010
00000110
,
00000100
00000000
00000000
00001100
00000000
00000000
00000100
00010000
00001000
01000000
00001000
00010000
,
00000100
00000000
00000000
00000000
00001000
00010000
00100000
00010000
,
00001000
01000000
00010000
01000000
00100000
00010000
00001000
00000010
,
00000100
00001000
00000100
00000000
00010000
00001000
00000010
00001000
,
00010000
00000100
00000010
00000100
00000010
00001000
00010000
00100000
,
00000000
01000000
00000000
01000000
00010000
00000000
01000000
00000000
00001000
00000000
00010000
00000000
00100000
00000000
00010000
00000000
,
00001000
01000000
00010000
01000000
00100000
00010000
00001000
00000010
,
00000100
00001000
00000100
00010000
00001000
00000000
00011000
00000000
,
00110000
10100000
11000000
01010000
,
00000000
00011000
00000000
00010000
00001000
00000000
00010000
00000000
00001000
00000000
01000000
00000000
00010000
00000000
01000000
00000000
,
00100000
10000000
00010000
10000000
00100000
00010000
00001000
00010000
,
00001000
00000100
00000002
00000000
00000023
00000000
00001030
00010000
,
00000010
00010000
00000100
00001000
00000001
00001000
00000100
00000100
,
00010000
00001000
00100000
00000000
00010000
00000100
00001000
00000100
,
00000010
00000001
00001000
00000001
00000010
00001000
00010000
00001000
,
00010000
01000000
20000000
00000000
30200000
00000000
00310000
00001000
,
00000010
00000000
00001000
00000000
00010000
00000000
00001000
00000000
00000000
00100000
00000000
00010000
10000000
01000000
00000000
00100000
,
00000000
00001000
00000000
00010000
00000010
00000000
00000100
00000000
00000000
00000000
00000000
00000000
00000000
00000000
00000000
00000000
;

//---------------dance-single - ----------------
#NOTES:
     dance-single:
     :
     Beginner:
     3:
     0.148,0.220,0.072,0.000,0.000:
0000
0000
0000
0000
,
1000
0000
0001
0000
,
1000
0000
0001
0001
,
0001
0000
1000
0000
,
0001
0000
1000
0000
,
0001
0000
1000
0000
,
0001
0000
1000
1000
,
0000
0000
0000
0000
,
1000
0000
0001
0000
,
1000
0000
0001
0001
,
0001
0000
1000
0000
,
0001
0000
1000
0000
,
1000
0000
0001
0000
,
1000
0000
0001
0001
,
0001
0000
1000
0000
,
0000
0000
0000
0000
,
0010
0000
0010
0000
,
0010
0000
0010
0000
,
0100
0000
0100
0000
,
0100
0000
0100
0000
,
0001
0000
0001
0000
,
0001
0000
0001
0000
,
1000
1000
1000
1000
,
0000
0000
0000
0000
,
1000
0000
0000
0000
,
0010
0000
0000
0000
,
0001
0000
0000
0000
,
0100
0000
0000
0000
,
0001
0000
0000
0000
,
0010
0000
0000
0000
,
1000
0000
0000
0000
,
0100
0000
1001
1001
,
1001
0000
1000
0000
,
0001
0000
1000
0000
,
0001
0000
1000
0000
,
0001
0000
1000
0000
,
0100
0100
0000
0000
,
0001
0000
1000
0000
,
0010
0010
0010
0010
,
0010
0010
0010
0010
,
0000
0000
1000
0000
,
0001
0000
1000
0000
,
0001
0001
0001
0000
,
1000
0000
0001
0000
,
1000
0000
1000
0000
,
0001
0000
1000
0000
,
0001
0000
1001
1001
,
1001
1001
0000
0000
;

//---------------dance-single - ----------------
#NOTES:
     dance-single:
     :
     Challenge:
     14:
     0.705,0.600,0.475,0.062,1.000:
0000
0000
0000
0000
,
0110
0000
0000
0000
1001
0000
0000
1100
0000
0011
0000
0001
1000
0000
0100
0000
,
0010
0001
0000
1000
0100
1000
0000
0010
0000
0001
0000
0100
0010
0000
0001
0000
,
1001
0000
0000
0000
1001
0000
0000
1100
0000
0011
0000
1000
0001
0000
0100
0000
,
0010
1000
0000
0100
0010
0001
0000
1001
0000
0000
0000
0000
0100
0000
0010
0000
,
0110
0000
0000
0000
0001
0000
0000
1010
0000
0101
0000
0010
1000
0000
0100
0000
,
0010
0001
0000
1000
0010
0100
0000
0001
0000
0100
0000
0010
1000
0000
0100
0000
,
0000
0001
0000
1000
0100
0010
0000
0100
0000
0001
0000
0010
1000
0000
0001
0000
,
0010
0100
0000
1000
0010
0100
0000
0001
0000
0010
0000
0001
0100
0000
1000
0000
,
0001
0100
0000
0010
1000
0100
0000
0010
0000
0001
0000
0100
0010
0000
1000
0000
,
0001
0010
0000
1000
0100
0001
0000
1000
0000
0010
0000
0100
0001
0000
0010
0000
,
1000
0001
0000
0100
0010
1000
0000
0100
0000
0001
0000
0010
0100
0000
1000
0000
,
0001
0100
0000
1000
0010
0001
0000
0010
0000
0001
0000
0010
0001
0000
1000
0000
,
0001
0100
0000
0010
1000
0100
0000
0010
0000
0001
0000
0100
0010
0000
1000
0000
,
0001
0010
0000
0100
0001
0010
0000
1000
0000
0100
0000
0010
0001
0000
1000
0000
,
0000
0010
0000
1000
0100
1000
0000
0001
0000
1000
0000
0001
0010
0000
0100
0000
,
1000
0000
0000
0100
0010
0000
0000
1000
0001
0000
0000
0010
0001
0000
0000
0100
,
0010
0000
0000
1000
0100
0000
0000
0010
1000
0100
0010
0001
1000
0010
0100
0001
,
1000
0000
0000
0100
1000
0000
0000
0010
0100
0000
0000
0001
1000
0000
0000
0010
,
0001
0000
0000
0100
1000
0000
0000
0001
1000
0100
1000
0100
1000
0100
1000
0100
,
2000
0000
0000
0001
3010
0000
0000
0010
2000
0000
0000
0100
3001
0000
0000
0001
,
2000
0000
0000
0001
3100
0000
0000
0100
1000
0010
1000
0010
0100
0001
0010
0100
,
1000
0000
0000
0011
0000
1010
0000
0101
0000
1100
0000
0001
0010
0100
1000
0000
,
0000
0001
0000
0010
0100
1000
0000
0001
0100
0000
0000
0000
0000
0000
0000
0000
,
0101
0000
0000
0000
2010
0000
0000
0001
0000
0010
0000
0000
3100
0000
0001
0000
,
0011
0000
0000
0000
2100
0000
3000
0110
0000
0110
0000
0000
0001
0000
1000
0000
,
0011
0000
0000
0000
2001
0000
3000
0001
0000
0101
0000
0000
1000
0000
0100
0000
,
1010
0000
0000
0000
0000
0000
0000
0000
0000
0000
0000
0000
0101
0000
0000
0000
0000
0000
0000
0000
0000
0110
0000
0000
0000
0000
0000
0110
0000
0000
0000
0000
0000
0000
0000
0000
1100
0000
0000
0000
1000
0000
0000
0000
0001
0000
0000
0000
,
0011
0000
0000
0000
1001
0000
0000
0001
1000
0100
0000
0010
0001
0000
0000
0000
,
0011
0000
0000
0000
0110
0000
0000
1000
0010
0100
0000
0001
1000
0000
0000
0000
,
0101
0000
0000
0000
1010
0000
0000
0010
0001
0100
0000
1000
0010
0000
0000
0000
,
1100
0000
0000
0101
0000
0000
0110
0100
0001
0110
0010
1000
,
0110
0000
0000
0000
0000
0000
0000
0000
0001
0100
0000
1000
0010
0100
0000
0010
,
0000
1000
0000
0001
0100
0000
1000
0000
0010
0001
0000
0100
0010
0100
0000
1000
,
0000
0100
0000
1000
0010
0000
0001
0000
0010
0100
0000
0010
0001
0010
0000
0100
,
0000
1000
0000
0010
0001
0000
1000
0000
0001
0100
0000
0010
0001
0010
0000
1000
,
0000
0010
0000
0100
0001
0000
1000
0000
0001
0100
0000
1000
0100
1000
0000
0010
,
0000
0100
0000
1000
0100
0000
0001
0000
0010
0100
0000
1000
0010
0001
0000
1000
,
0000
0100
0000
0010
0100
0000
0001
0000
0100
1000
0000
0010
0001
0010
0000
0100
,
0000
0010
0000
1000
0010
0000
0001
0000
0010
0100
0000
0010
1000
0100
0000
0001
,
0000
0100
0000
0010
1000
0000
0001
0000
1000
0100
0000
1000
0100
1000
0000
0010
,
0000
0001
0000
0010
0001
0000
1000
0000
0001
0100
0000
0010
0100
0010
0000
1000
,
0000
0100
0000
0001
0100
0000
0010
0000
1000
0100
0000
0010
0100
0001
0000
0010
,
0000
0100
0000
1000
0001
0000
0100
0000
0010
1000
0000
0100
1000
0001
0000
0010
,
0000
0100
0000
0001
1000
0000
1000
0000
0001
0100
0000
0010
0001
1000
0000
0100
,
0000
0010
0000
0001
1000
0000
0010
0000
1000
0100
0000
1000
0100
1000
0000
0010
,
0000
0001
0000
0100
0010
0000
1000
0000
0001
0100
0000
0010
1000
0010
0000
0100
,
0000
0001
0000
0100
0010
0000
1100
0000
0000
0101
0000
0010
0100
1000
0000
0011
,
0000
1100
0000
0010
0100
0000
0110
0000
0000
0000
0000
0000
0000
0000
0000
0000
;

//---------------dance-double - ----------------
#NOTES:
     dance-double:
     :
     Challenge:
     14:
     0.679,0.550,0.310,0.041,1.000: // measure 1
00000000
00000000
00000000
00000000
,  // measure 2
00000010
00000000
00000000
00000000
00010000
00000000
00000000
00001000
00000000
00011000
00000000
00000100
00100000
00000000
00001000
00000000
,  // measure 3
00010000
00100000
00000000
10000000
00100000
01000000
00000000
00010000
00000000
00100000
00000000
00001000
00010000
00000000
00100000
00000000
,  // measure 4
00011000
00000000
00000000
00000000
00000100
00000000
00000000
00001000
00000000
00000100
00000000
00001000
00000001
00000000
00001000
00000000
,  // measure 5
00000010
00000100
00000000
00001000
00010000
00000010
00000000
00002000
00000000
00010000
00000000
00010000
00000000
00000000
00000000
00000000
,  // measure 6
00013000
00000000
00000000
00000000
01000000
00000000
00000000
00010000
00000000
00100000
00000000
00010000
01000000
00000000
10000000
00000000
,  // measure 7
00100000
01000000
00000000
10000000
00010000
00100000
00000000
00001000
00000000
00100000
00000000
00001000
00010000
00000000
00000100
00000000
,  // measure 8
00000000
00010000
00000000
00001000
00010000
00000010
00000000
00001000
00000000
00000100
00000000
00000010
00000001
00000000
00001001
00000000
,  // measure 9
00000100
00001000
00000000
00100000
00010000
00100000
00000000
00001000
00000000
00010000
00000000
00100000
00010000
00000000
10000000
00000000
,  // measure 10
00100000
01000000
00000000
10000000
01000000
10000000
00000000
00010000
00000000
01000000
00000000
00100000
00010000
00000000
00001000
00000000
,  // measure 11
00010000
00001000
00000000
00100000
00010000
00100000
00000000
00000100
00000000
00010000
00000000
00000100
00010000
00000000
00000100
00000000
,  // measure 12
00001000
00000100
00000000
00000010
00000100
00001000
00000000
00000001
00000000
00000100
00000000
00000010
00001000
00000000
00000100
00000000
,  // measure 13
00010000
01000000
00000000
00100000
00010000
00100000
00000000
00001000
00000000
00100000
00000000
00010000
00100000
00000000
10000000
00000000
,  // measure 14
00010000
01000000
00000000
00100000
10000000
01000000
00000000
00100000
00000000
00010000
00000000
00100000
00010000
00000000
00001000
00000000
,  // measure 15
00010000
00000100
00000000
00001000
00000100
00010000
00000000
00000100
00000000
00001000
00000000
00000010
00000001
00000000
00000100
00000000
,  // measure 16
00000000
00001000
00000000
00100000
00001000
00010000
00000000
00000100
00000000
00010000
00000000
00000010
00001000
00000000
00010000
00000000
,  // measure 17
00100000
00000000
00000000
01000000
00100000
00000000
00000000
10000000
01000000
00000000
00000000
00100000
00010000
00000000
00000000
01000000
,  // measure 18
00010000
00000000
00000000
10000000
01000000
00000000
00000000
00100000
00010000
00100000
00001000
00010000
00001000
00000100
00010000
00000100
,  // measure 19
00001000
00000000
00000000
00000001
00001000
00000000
00000000
00000010
00001000
00000000
00000000
00000100
00000001
00000000
00000000
00000100
,  // measure 20
00000010
00000000
00000000
00001000
00100000
00000000
00000000
00010000
00100000
10000000
00100000
10000000
00010000
01000000
00010000
01000000
,  // measure 21
10000000
00000000
00000000
00010000
00001000
00000000
00000000
00100000
01000000
00000000
00000000
00000100
00010000
00000000
00000000
00001000
,  // measure 22
00000001
00000000
00000000
00001000
00000100
00000000
00000000
00001000
00100000
00010000
00100000
00010000
01000000
00100000
10000000
00010000
,  // measure 23
00100000
00000000
00000000
00010100
00000000
00001100
00000000
00010100
00000000
00000110
00000000
00000001
00000100
00000010
00001000
00000000
,  // measure 24
00000000
00001000
00000000
00010000
00100000
00001000
00000000
00100000
00020000
00000000
00000000
00000000
00030000
00000000
00000000
00000000
,  // measure 25
01010000
00000000
00000000
00000000
10100000
00000000
00000000
11000000
00000000
01010000
00000000
00000000
00010000
00000000
00010000
00000000
,  // measure 26
00110000
00000000
00000000
00000000
00011000
00000000
00000000
00100100
00000000
00100100
00000000
00000000
00000100
00000000
00010000
00000000
,  // measure 27
00010100
00000000
00000000
00000000
00000010
00000000
00000000
00001100
00000000
00001100
00000000
00000000
00000001
00000000
00001000
00000000
,  // measure 28
00011000
00000000
00000000
00000000
00000000
00000000
00000000
00000000
00000000
00000000
00000000
00000000
01001000
00000000
00000000
00000000
00000000
00000000
00000000
00000000
00000000
00110000
00000000
00000000
00000000
00000000
00000000
00110000
00000000
00000000
00000000
00000000
00000000
00000000
00000000
00000000
01000000
00000000
00000000
00000000
10000000
00000000
00000000
00000000
00010000
00000000
00000000
00000000
,  // measure 29
01000000
00000000
00000000
00000000
00100000
00000000
00000000
00010000
00100000
01000000
00000000
10000000
01000000
00000000
00000000
00000000
,  // measure 30
00001000
00000000
00000000
00000000
00000100
00000000
00000000
00100000
00001000
00010000
00000000
00001000
00000100
00000000
00000000
00000000
,  // measure 31
00000011
00000000
00000000
00000000
00001100
00000000
00000000
00010000
00100000
00010000
00000000
00001000
10000000
00000000
00000000
00000000
,  // measure 32
01010000
00000000
00000000
00110000
00000000
00000000
00001000
00000010
00000100
00000001
00001000
00010000
,  // measure 33
01000000
00000000
00000000
00000000
00000000
00000000
00000000
00000000
00100000
00010000
00000000
10000000
00100000
00010000
00000000
00000100
,  // measure 34
00000000
00001000
00000000
00000100
00000001
00000000
00000010
00000000
00000100
00001000
00000000
00010000
00100000
00001000
00000000
01000000
,  // measure 35
00000000
00010000
00000000
00100000
01000000
00000000
10000000
00000000
00010000
00100000
00000000
00001000
00100000
00010000
00000000
00001000
,  // measure 36
00000000
00000010
00000000
00010000
00001000
00000000
00000001
00000000
00000010
00001000
00000000
00000100
00010000
00001000
00000000
00010000
,  // measure 37
00000000
00100000
00000000
01000000
10000000
00000000
00100000
00000000
01000000
00010000
00000000
00100000
01000000
10000000
00000000
00010000
,  // measure 38
00000000
00001000
00000000
00010000
00100000
00000000
00000100
00000000
00001000
00100000
00000000
00001000
00000100
00000001
00000000
00001000
,  // measure 39
00000000
00000100
00000000
00000010
00001000
00000000
00000001
00000000
00000100
00010000
00000000
00001000
00010000
00000100
00000000
00010000
,  // measure 40
00000000
00100000
00000000
00010000
01000000
00000000
00100000
00000000
10000000
01000000
00000000
00100000
00010000
10000000
00000000
01000000
,  // measure 41
00000000
10000000
00000000
01000000
00100000
00000000
00010000
00000000
00001000
00100000
00000000
00010000
01000000
00001000
00000000
00000100
,  // measure 42
00000000
00000001
00000000
00000100
00001000
00000000
00000010
00000000
00000100
00000001
00000000
00000100
00010000
00001000
00000000
00010000
,  // measure 43
00000000
00001000
00000000
00100000
01000000
00000000
10000000
00000000
00010000
00100000
00000000
01000000
00100000
10000000
00000000
00010000
,  // measure 44
00000000
00100000
00000000
00010000
00001000
00000000
00000010
00000000
00000100
00000001
00000000
00000100
00000010
00001000
00000000
00000100
,  // measure 45
00000000
00000001
00000000
00000100
00001000
00000000
00000100
00000000
00001000
00010000
00000000
00100000
00001000
00010000
00000000
00100000
,  // measure 46
00000000
10000000
00000000
01000000
10000000
00000000
00100000
00000000
10000000
01000000
00000000
00010000
00100000
00010000
00000000
00001000
,  // measure 47
00000000
00100000
00000000
00000100
00100000
00000000
00000100
00000000
00000010
00000100
00000000
00000001
00001000
00000010
00000000
00000100
,  // measure 48
00000000
00001000
00000000
00000100
00001000
00000000
00010000
00000000
00000000
00011000
00000000
00001000
00100000
00010000
00000000
10010000
,  // measure 49
00000000
00000000
00000000
00000000
01100000
00000000
00000000
00000000
00000000
00000000
00000000
00000000
10000000
00000000
00000000
00000000
00010000
00000000
00000000
00000000
00000000
00000000
00000000
00000000
02200000
03300000
00000000
00000000
00000000
00000000
00000000
00000000
00000000
00000000
00000000
00000000
00000000
00000000
00000000
00000000
00000000
00000000
00000000
00000000
00000000
00000000
00000000
00000000
00000000
00000000
00000000
00000000
00000000
00000000
00000000
00000000
00000000
00000000
00000000
00000000
00000000
00000000
00000000
00000000
;
