#TITLE:隅田川夏恋歌;
#SUBTITLE:;
#ARTIST:seiya-murai feat. ALT;
#TITLETRANSLIT:SUMIDAGAWA KARENKA;
#SUBTITLETRANSLIT:;
#ARTISTTRANSLIT:;
#GENRE:;
#CREDIT:;
#MENUCOLOR:;
#METERTYPE:DDR X;
#BANNER:SUMIDAGAWA KARENKA.png;
#BACKGROUND:SUMIDAGAWA KARENKA-bg.png;
#LYRICSPATH:;
#CDTITLE:./CDTitles/jubeat ripples.png;
#MUSIC:SUMIDAGAWA KARENKA.mp3;
#OFFSET:1.004;
#SAMPLESTART:45.308;
#SAMPLELENGTH:15.000;
#SELECTABLE:YES;
#LISTSORT:;
#DISPLAYBPM:180;
#BPMS:0.000=180.000;
#STOPS:;
#BGCHANGES:;
#ATTACKS:;

//---------------dance-single - ----------------
#NOTES:
     dance-single:
     :
     Beginner:
     2:
     0.138,0.215,0.035,0.052,0.000:
0000
0000
0000
0000
,
0000
0000
0000
0000
,
0000
0000
0000
0000
,
1000
0000
0000
0000
,
0010
0000
0000
0000
,
0001
0000
0000
0000
,
0010
0000
0000
0000
,
1000
0000
0000
0000
,
0100
0000
0000
0000
,
0001
0000
0000
0000
,
0100
0000
0000
0000
,
2000
0000
3000
0000
,
0010
0000
0000
0000
,
0001
0000
0000
0000
,
0100
0000
0000
0000
,
0002
0000
0003
0000
,
0010
0000
0000
0000
,
1000
0000
0000
0000
,
0001
0000
0000
0000
,
1000
0000
0000
0000
,
0010
0000
0010
0000
,
0001
0000
0000
0000
,
0010
0000
0010
0000
,
0100
0000
0000
0000
,
0010
0000
0010
0000
,
1000
0000
0000
0000
,
0010
0000
0010
0000
,
0002
0000
0003
0000
,
0010
0000
0000
0000
,
1000
0000
0000
0000
,
0100
0000
0000
0000
,
2000
0000
3000
0000
,
0010
0000
0000
0000
,
0001
0000
0000
0000
,
1000
0000
0000
0000
,
1000
0000
1000
0000
,
0001
0000
0001
0000
,
1000
0000
0000
0000
,
0001
0000
0000
0000
,
0001
0000
0001
0000
,
1000
0000
1000
0000
,
0001
0000
0000
0000
,
1000
0000
0000
0000
,
0010
0000
0010
0000
,
0100
0000
0100
0000
,
0010
0000
0000
0000
,
0100
0000
0000
0000
,
0100
0000
0100
0000
,
0010
0000
0010
0000
,
0100
0000
0000
0000
,
0010
0000
0000
0000
,
2002
0000
0000
3003
,
0000
0000
0000
0000
,
1001
0000
0000
0000
,
0000
0000
0000
0000
,
1001
0000
0000
0000
,
0000
0000
0000
0000
,
1000
0000
0001
0000
,
1000
1000
1000
0000
,
0010
0000
1000
0000
,
0010
0000
1000
0000
,
0010
0000
0000
0000
,
1000
0000
0000
0000
,
0010
0000
0001
0000
,
0010
0000
0001
0000
,
0010
0000
0000
0000
,
0001
0000
0000
0000
,
1000
0000
0100
0000
,
1000
0000
0100
0000
,
1000
0000
0000
0000
,
0100
0000
0000
0000
,
0001
0000
0100
0000
,
0001
0000
0100
0000
,
0001
0000
0000
0000
,
0100
0000
0000
0000
,
1000
0000
0000
0000
,
0010
0000
0000
0000
,
1001
0000
0000
0000
,
0000
0000
0000
0000
,
1000
0000
0000
0000
,
0001
0000
0000
0000
,
1000
0000
0100
0000
,
0010
0000
0001
0000
;

//---------------dance-single - ----------------
#NOTES:
     dance-single:
     :
     Easy:
     5:
     0.237,0.251,0.061,0.061,0.000:
0000
0000
0000
0000
,
0000
0000
0000
0000
,
0000
0000
0000
0000
,
0010
0000
1000
0000
,
0001
0100
0001
0000
,
0010
0000
0001
0000
,
1000
0100
1000
0000
,
0010
0000
0100
0000
,
0001
1000
0001
0000
,
0010
0000
0100
0000
,
1000
0001
1000
0000
,
2000
0000
0000
3000
,
0010
0000
0100
0000
,
0001
0000
0100
0000
,
0000
0000
0000
0000
,
0002
0000
0000
0003
,
0010
0000
0100
0000
,
1000
0000
0010
0000
,
0001
0000
0010
0000
,
0010
0000
0001
0000
,
1000
0100
1000
0000
,
0010
0000
1000
0000
,
0001
0100
0001
0000
,
0010
0000
0100
0000
,
1000
0001
1000
0000
,
0010
0000
0100
0000
,
0001
1000
0001
0000
,
0002
0000
0000
0003
,
0010
0000
0100
0000
,
1000
0000
0100
0000
,
0000
0000
0000
0000
,
2000
0000
0000
3000
,
0010
0000
0100
0000
,
0001
0000
0010
0000
,
1000
0000
0010
0000
,
1000
1000
0010
0000
,
0001
0001
0010
0000
,
1000
0000
0001
0000
,
1000
0000
1001
0000
,
0001
0001
0010
0000
,
1000
1000
0010
0000
,
0001
0000
1000
0000
,
0001
0000
1001
0000
,
1000
1000
0100
0000
,
0001
0001
0100
0000
,
1000
0000
0001
0000
,
1000
0000
1001
0000
,
0001
0001
0100
0000
,
1000
1000
0100
0000
,
0001
0000
1000
0000
,
0001
0000
1000
0000
,
2002
0000
0000
3003
,
0010
0010
0010
0010
,
0000
0000
0000
0000
,
0100
0100
0100
0100
,
0000
0000
0000
0000
,
0010
0010
0010
0010
,
1000
0000
0001
0000
,
1000
0001
1000
0000
,
1000
1000
0010
0000
,
0001
0001
0010
0000
,
1000
0000
0001
0000
,
1000
0000
1001
0000
,
0001
0001
0010
0000
,
1000
1000
0010
0000
,
0001
0000
1000
0000
,
0001
0000
1001
0000
,
1000
1000
0100
0000
,
0001
0001
0100
0000
,
1000
0000
0001
0000
,
1000
0000
1001
0000
,
0001
0001
0100
0000
,
1000
1000
0100
0000
,
0001
0000
1000
0000
,
0001
0000
1000
0000
,
0010
0000
0100
0000
,
0010
0000
0100
0000
,
0020
0000
0000
0030
,
1000
1000
1000
0000
,
0000
0000
0000
0000
,
0001
0001
0001
0000
,
1000
0000
0100
0000
,
0010
0000
0001
0000
;

//---------------dance-single - ----------------
#NOTES:
     dance-single:
     :
     Medium:
     10:
     0.482,0.504,0.226,0.052,0.000:
0000
0000
0000
0000
,
0000
0000
0000
0000
,
0000
0000
0000
0000
,
0010
0000
0000
1000
0100
0000
0000
0010
,
0001
0010
0100
1000
,
0010
0000
0000
0100
0010
0000
0000
1000
,
0001
0010
0100
0010
,
0001
0000
0000
0100
0001
0000
0000
1000
,
0100
0010
0100
1000
,
0001
0000
0000
0100
0010
0000
0000
1000
,
0001
0010
0100
1000
,
0001
0000
0001
0000
0100
0001
0100
0000
,
1000
0000
1000
0000
0100
1000
0100
0000
,
0010
0000
0010
0000
0100
0010
0100
0000
,
0010
0000
0100
0100
,
0010
0000
1000
0000
0001
1000
0100
0000
,
0010
0000
0001
0000
1000
0001
0100
0000
,
0010
0000
1000
0100
1000
0000
0001
0100
,
0001
0010
0100
0000
,
0010
0000
0000
0001
0100
0000
0000
0010
,
1000
0010
0100
0001
,
0010
0000
0000
0100
0010
0000
0000
0001
,
1000
0010
0100
0010
,
1000
0000
0000
0100
1000
0000
0000
0001
,
0100
0010
0100
0001
,
1000
0000
0000
0100
0010
0000
0000
0001
,
1000
0010
0100
0001
,
1000
0000
1000
0000
0100
1000
0100
0000
,
0001
0000
0001
0000
0100
0001
0100
0000
,
0010
0000
0010
0000
0100
0010
0100
0000
,
0010
0000
0100
0100
,
0010
0000
0001
0000
1000
0001
0100
0000
,
0010
0000
1000
0000
0001
1000
0100
0000
,
0010
0000
0001
0100
0001
0000
1000
0100
,
1000
0010
0100
1001
,
0010
0000
0010
0000
0100
0001
1000
0001
,
0100
0000
0100
0000
0010
1000
0001
1000
,
0010
1100
0010
0101
,
1000
0000
0000
0001
1000
0000
0001
0000
,
0010
0000
0010
0000
0100
1000
0001
1000
,
0100
0000
0100
0000
0010
0001
1000
0001
,
0010
1001
0100
1001
,
0010
0000
0000
1000
0001
0000
0110
0000
,
0010
0000
0010
0000
0100
1000
0001
1000
,
0100
0000
0100
0000
0010
0001
1000
0001
,
0010
0101
0010
1100
,
0001
0000
0000
1000
0001
0000
1000
0000
,
0010
0000
0010
0000
0100
0001
1000
0001
,
0100
0000
0100
0000
0010
1000
0001
1000
,
0010
1001
0100
1001
,
0010
0000
0000
0001
1000
0000
0110
0000
,
2002
0000
0000
0000
0000
0000
0000
3003
,
0001
0100
0010
1000
,
0200
0000
0000
0000
0000
0000
0000
0300
,
1000
0001
0100
0000
0001
1000
0100
0000
,
2000
0000
0000
3000
,
0010
0001
1000
0010
,
0100
0010
0100
0000
0010
0100
0010
0000
,
1000
0001
1000
0001
1000
0000
1001
0000
,
0010
0000
0010
0000
0100
1000
0001
1000
,
0100
0000
0100
0000
0010
0001
1000
0001
,
0010
0101
0010
1100
,
0001
0000
0000
1000
0001
0000
1000
0000
,
0010
0000
0010
0000
0100
0001
1000
0001
,
0100
0000
0100
0000
0010
1000
0001
1000
,
0010
1001
0100
1001
,
0010
0000
0000
0001
1000
0000
0110
0000
,
0010
0000
0010
0000
0100
0001
1000
0001
,
0100
0000
0100
0000
0010
1000
0001
1000
,
0010
1100
0010
0101
,
1000
0000
0000
0001
1000
0000
0001
0000
,
0010
0000
0010
0000
0100
1000
0001
1000
,
0100
0000
0100
0000
0010
0001
1000
0001
,
0010
1001
0100
1001
,
0010
0000
0000
1000
0001
0000
0110
0000
,
0010
1001
0100
1001
,
0010
0000
0000
0001
1000
0000
0110
0000
,
2000
0000
0000
3000
,
0001
0010
0100
1000
,
0020
0000
0000
0030
,
0100
0010
1000
0000
0100
0010
0001
0000
,
1000
0010
0100
0001
,
1000
0010
0100
0001
;

//---------------dance-single - ----------------
#NOTES:
     dance-single:
     :
     Hard:
     12:
     0.621,0.612,0.139,0.000,0.000:
0000
0000
0000
0000
,
0000
0000
0000
0000
,
0000
0000
0000
0000
,
0001
0000
0000
1000
0100
0000
0000
1000
,
0001
0100
0010
1000
0000
0001
0010
0100
,
1000
0000
0000
0001
0100
0000
0000
0010
,
0100
0001
0010
0100
1000
0000
0001
0100
,
1000
0000
0000
0001
0100
0000
0000
0001
,
1000
0100
0010
0001
0000
1000
0010
0100
,
0001
0000
0000
1000
0100
0000
0000
0010
,
0100
1000
0010
0100
0001
0000
1000
0100
,
1000
0000
0100
0010
0000
0100
1000
0000
,
0001
0100
0010
0100
0001
0010
0100
1000
,
0001
0000
0010
0001
1000
0000
0001
0000
,
0100
0000
0000
0000
0010
0010
0100
0010
,
0100
0000
0010
1000
0000
0001
0100
0000
,
0010
1000
0001
0010
0001
1000
0010
0100
,
0001
0000
0010
0100
1000
0000
0010
0100
,
0001
1000
0100
0010
0001
0000
1100
0000
,
1000
0000
0000
0001
0100
0000
0000
0001
,
1000
0100
0010
0001
0000
1000
0010
0100
,
0001
0000
0000
1000
0100
0000
0000
0010
,
0100
1000
0010
0100
0001
0000
1000
0100
,
0001
0000
0000
1000
0100
0000
0000
1000
,
0001
0100
0010
1000
0000
0001
0010
0100
,
1000
0000
0000
0001
0100
0000
0000
0010
,
0100
0001
0010
0100
1000
0000
0001
0100
,
0001
0000
0100
0010
0000
0100
0001
0000
,
1000
0100
0010
0100
1000
0010
0100
0001
,
1000
0000
0010
1000
0001
0000
1000
0000
,
0100
0000
0000
0000
0010
0010
0100
0010
,
0100
0000
0010
0001
0000
1000
0100
0000
,
0010
0001
1000
0010
1000
0001
0010
0100
,
1000
0000
0010
0100
0001
0000
0010
0100
,
1000
0001
0100
0010
1000
0000
0101
0000
,
0010
1000
0010
1000
0100
1000
0001
1000
,
0010
0100
0001
1000
0010
0100
0001
0010
,
0100
0000
1000
0100
0001
0000
0001
0100
,
1000
0000
0000
0010
0100
0000
0010
0000
,
1000
0001
1000
0001
0100
0010
1000
0001
,
0010
0100
1000
0010
0100
0001
0010
0100
,
0010
0000
0001
0010
0011
0000
1000
0010
,
1010
0000
0000
0100
0010
0000
1001
0000
,
0010
0001
0010
0001
0100
0001
1000
0001
,
0010
0100
1000
0001
0010
0100
1000
0010
,
0100
0000
0001
0100
1000
0000
1000
0100
,
0001
0000
0000
0010
0100
0000
0010
0000
,
0001
1000
0001
1000
0100
0010
0001
1000
,
0010
0100
0001
0010
0100
1000
0010
0100
,
0010
0000
1000
0010
1010
0000
0001
0010
,
0011
0000
0000
0100
0010
0000
1001
0000
,
0010
0010
0010
0010
,
1000
0100
1000
0100
0010
0001
0010
0001
,
0010
0010
0010
0010
,
1000
0100
0010
0001
1000
0100
0010
0001
,
0010
0010
0010
0010
,
0001
0100
0001
0100
0010
1000
0010
1000
,
0100
1000
0100
1000
0001
0100
0001
0100
,
0010
0100
0010
0100
0010
0000
1001
0000
,
0010
1000
0010
1000
0100
1000
0001
1000
,
0010
0100
0001
1000
0010
0100
0001
0010
,
0100
0000
1000
0100
0001
0000
0001
0100
,
1000
0000
0000
0010
0100
0000
0010
0000
,
1000
0001
1000
0001
0100
0010
1000
0001
,
0010
0100
1000
0010
0100
0001
0010
0100
,
0010
0000
0001
0010
0011
0000
1000
0010
,
1010
0000
0000
0100
0010
0000
1001
0000
,
0010
0001
0010
0001
0100
0001
1000
0001
,
0010
0100
1000
0001
0010
0100
1000
0010
,
0100
0000
0001
0100
1000
0000
1000
0100
,
0001
0000
0000
0010
0100
0000
0010
0000
,
0001
1000
0001
1000
0100
0010
0001
1000
,
0010
0100
0001
0010
0100
1000
0010
0100
,
0010
0000
1000
0010
1010
0000
0001
0010
,
0011
0000
0000
0100
0010
0000
0100
0000
,
0010
0000
0001
0100
0101
0000
1000
0100
,
1100
0000
0000
0010
0100
0000
0010
0000
,
0001
1000
0010
0100
,
0001
0010
0001
0100
0010
1000
0100
0010
,
0001
1000
0010
0100
,
0010
1000
0010
1000
0001
0010
0001
0010
,
1000
0100
0010
0001
,
1000
0100
0010
0001
;

//---------------dance-double - ----------------
#NOTES:
     dance-double:
     :
     Easy:
     6:
     0.317,0.359,0.070,0.087,0.000:
00000000
00000000
00000000
00000000
,
00000000
00000000
00000000
00000000
,
00000000
00000000
00000000
00000000
,
00000001
00000000
00001000
00000000
,
00000001
00000100
00001000
00000000
,
00010000
00000000
00001000
00000000
,
00010000
01000000
10000000
00000000
,
00100000
00000000
10000000
00000000
,
00010000
01000000
00100000
00000000
,
10000000
00000000
01000000
00000000
,
00010000
00001000
00010000
00000000
,
00000010
00000010
00001000
00000000
,
00000001
00000100
00000010
00001000
,
00000100
00000100
00000010
00000000
,
00000100
00010000
00001000
00100000
,
01000000
01000000
00100000
00000000
,
00010000
01000000
00100000
10000000
,
00010000
00000000
10000000
00000000
,
00010000
10000000
10010000
00000000
,
10000000
00000000
00010000
00000000
,
10000000
01000000
00010000
00000000
,
00001000
00000000
00010000
00000000
,
00001000
00000100
00000001
00000000
,
00000010
00000000
00000001
00000000
,
00001000
00000100
00000010
00000000
,
00000001
00000000
00000100
00000000
,
00001000
00010000
00001000
00000000
,
00100000
00100000
00010000
00000000
,
10000000
01000000
00100000
00010000
,
01000000
01000000
00100000
00000000
,
01000000
00001000
00010000
00000010
,
00000100
00000100
00000010
00000000
,
00001000
00000100
00000010
00000001
,
00001000
00000000
00000001
00000000
,
00001000
00000001
00001001
00000000
,
00000010
00000010
00000001
00000001
,
00000100
00001000
00010000
00100000
,
10000000
00000000
00010000
00000000
,
10000000
00010000
10000000
00000000
,
00100000
00100000
10000000
10000000
,
01000000
00010000
00001000
00000010
,
00000001
00000000
00001000
00000000
,
00000001
00001000
00000001
00000000
,
00000001
00000100
00000010
00001000
,
00010000
01000000
00100000
10000000
,
00010000
00000000
10000000
00000000
,
00100000
01000000
00100000
00000000
,
10000000
01000000
00100000
00010000
,
00001000
00000100
00000010
00000001
,
00001000
00000000
00000001
00000000
,
00000010
00000100
00000010
00000000
,
00002002
00000000
00000000
00003003
,
00000010
00000010
00000010
00000000
,
00022000
00000000
00000000
00033000
,
01000000
01000000
01000000
00000000
,
20020000
00000000
00000000
30030000
,
00100000
00100000
00100000
00000000
,
10000000
10000000
00010000
00010000
,
10000000
00010000
10000000
10010000
,
00100000
00100000
10000000
10000000
,
01000000
00010000
00001000
00000010
,
00000001
00000000
00001000
00000000
,
00000001
00001000
00000001
00000000
,
00000010
00000010
00000001
00000001
,
00000100
00001000
00010000
00100000
,
10000000
00000000
00010000
00000000
,
10000000
00010000
10000000
00000000
,
10000000
01000000
00100000
00010000
,
00001000
00000100
00000010
00000001
,
00001000
00000000
00000001
00000000
,
00000010
00000100
00000010
00000000
,
00000001
00000100
00000010
00001000
,
00010000
01000000
00100000
10000000
,
00010000
00000000
10000000
00000000
,
00100000
00100000
01000000
01000000
,
10000000
00000000
00010000
00000000
,
00100000
00100000
01000000
01000000
,
20020000
00000000
00000000
30030000
,
10000000
01000000
00100000
00010000
,
00022000
00000000
00000000
00033000
,
00001000
00000100
00000010
00000001
,
00000100
00000000
00000010
00000000
,
00001000
00000000
00000001
00000000
;

//---------------dance-double - ----------------
#NOTES:
     dance-double:
     :
     Medium:
     9:
     0.485,0.468,0.165,0.000,0.000:
00000000
00000000
00000000
00000000
,
00000000
00000000
00000000
00000000
,
00000000
00000000
00000000
00000000
,
10010000
00000000
00000000
01000000
00100000
00000000
00000000
10000000
,
01000000
00010000
00001000
00000010
,
00001001
00000000
00000000
00000100
00000010
00000000
00000000
00001000
,
00000001
00001000
00000100
00000000
,
00001001
00000000
00000000
00000100
00000010
00000000
00000000
00000001
,
00000100
00001000
00010000
00100000
,
10010000
00000000
00000000
01000000
00100000
00000000
00000000
00010000
,
10000000
00010000
01000000
00000000
,
00100000
00000000
00100000
00000000
10000000
01000000
10000000
00000000
,
01000000
00000000
01000000
00000000
00010000
00001000
00010000
00000000
,
00001000
00000000
00001000
00000000
00000100
00000001
00000100
00000000
,
00000001
00000000
00000001
00000000
00000010
00000100
00000010
00000000
,
00001000
00000000
00001000
00000000
00010000
00001000
00010000
00000000
,
01000000
00000000
01000000
00000000
10000000
01000000
10000000
00000000
,
00100000
00000000
01000000
00010000
00100000
00000000
01000000
10000000
,
00100000
01000000
00100000
00000000
,
10010000
00000000
00000000
00100000
01000000
00000000
00000000
10000000
,
00100000
00010000
00001000
00000100
,
00001001
00000000
00000000
00000010
00000100
00000000
00000000
00001000
,
00000001
00001000
00000010
00000000
,
00001001
00000000
00000000
00000010
00000100
00000000
00000000
00000001
,
00000010
00001000
00010000
01000000
,
10010000
00000000
00000000
00100000
01000000
00000000
00000000
00010000
,
10000000
00010000
00100000
00000000
,
01000000
00000000
01000000
00000000
10000000
00100000
10000000
00000000
,
00100000
00000000
00100000
00000000
00010000
00001000
00010000
00000000
,
00001000
00000000
00001000
00000000
00000010
00000001
00000010
00000000
,
00000001
00000000
00000001
00000000
00000100
00000010
00000100
00000000
,
00001000
00000000
00001000
00000000
00010000
00001000
00010000
00000000
,
00100000
00000000
00100000
00000000
10000000
00100000
10000000
00000000
,
01000000
00000000
00100000
00010000
01000000
00000000
00100000
10000000
,
01000000
00100000
01000000
10010000
,
00100000
00000000
10000000
00000000
01000000
00000000
00010000
00001000
,
00000010
00000000
00000001
00000000
00001000
00000000
00000010
00000100
,
00000001
00000000
00001000
00000100
00000010
00000000
00000001
00000100
,
00000010
00000000
00000000
00001000
00000100
00000000
00011000
00000000
,
01000000
00000000
10000000
00000000
00100000
00000000
01000000
00100000
,
10000000
00000000
00010000
00000000
00100000
00000000
01000000
00010000
,
00001000
00000000
00100000
00001000
00010000
00000000
00000010
00010000
,
00001000
00000000
00000000
00000100
00000001
00000000
00001100
00000000
,
00000010
00000000
00000001
00000000
00000100
00000000
00001000
00010000
,
00100000
00000000
10000000
00000000
00010000
00000000
00100000
01000000
,
10000000
00000000
00010000
01000000
00100000
00000000
10000000
01000000
,
00100000
00000000
00000000
00010000
01000000
00000000
00011000
00000000
,
00000100
00000000
00000001
00000000
00000010
00000000
00000100
00000010
,
00000001
00000000
00001000
00000000
00000010
00000000
00000100
00001000
,
00010000
00000000
00000010
00010000
00001000
00000000
00100000
00001000
,
00010000
00000000
00000000
01000000
10000000
00000000
01010000
00000000
,
00100000
00100000
10000000
10000000
,
01000000
01000000
00010000
00010000
,
00001000
00001000
00000100
00000100
,
00000001
00000001
00000010
00000010
,
00001000
00001000
00010000
00010000
,
00100000
00100000
10000000
10000000
,
00010000
01000000
00010000
00000000
10000000
01000000
10000000
00000000
,
00100000
01000000
00100000
01000000
00100000
00000000
10010000
00000000
,
01000000
00000000
10000000
00000000
00100000
00000000
00010000
00001000
,
00000100
00000000
00000001
00000000
00001000
00000000
00000100
00000010
,
00000001
00000000
00001000
00000010
00000100
00000000
00000001
00000010
,
00000100
00000000
00000000
00001000
00000010
00000000
00011000
00000000
,
00100000
00000000
10000000
00000000
01000000
00000000
00100000
01000000
,
10000000
00000000
00010000
00000000
01000000
00000000
00100000
00010000
,
00001000
00000000
01000000
00001000
00010000
00000000
00000100
00010000
,
00001000
00000000
00000000
00000010
00000001
00000000
00001010
00000000
,
00000100
00000000
00000001
00000000
00000010
00000000
00001000
00010000
,
01000000
00000000
10000000
00000000
00010000
00000000
01000000
00100000
,
10000000
00000000
00010000
00100000
01000000
00000000
10000000
00100000
,
01000000
00000000
00000000
00010000
00100000
00000000
00011000
00000000
,
00000010
00000000
00000001
00000000
00000100
00000000
00000010
00000100
,
00000001
00000000
00001000
00000000
00000100
00000000
00000010
00001000
,
00010000
00000000
00000100
00010000
00001000
00000000
01000000
00001000
,
00010000
00000000
00000000
00100000
10000000
00000000
00110000
00000000
,
11000000
00000000
00100000
01000000
00010000
00000000
00100000
01000000
,
10000000
00000000
00000000
00010000
01000000
00000000
00001000
00000000
,
00010000
00010000
00001000
00001000
,
00000010
00000000
00000010
00000000
00000100
00000010
00000100
00000000
,
00000001
00000001
00000100
00000100
,
00001000
00000000
00001000
00000000
00010000
00001000
00010000
00000000
,
00100000
10000000
00010000
01000000
,
00001000
00010000
00000010
00001000
;

//---------------dance-double - ----------------
#NOTES:
     dance-double:
     :
     Hard:
     12:
     0.596,0.612,0.052,0.000,0.000:
00000000
00000000
00000000
00000000
,
00000000
00000000
00000000
00000000
,
00000000
00000000
00000000
00000000
,
00001000
00000000
00000000
00000001
00000100
00000000
00000000
00000010
,
00010000
00001000
00100000
00010000
00000000
10000000
00100000
01000000
,
00010000
00000000
00000000
00100000
01000000
00000000
00000000
00100000
,
00001000
00010000
00000010
00000100
00000001
00000000
00001000
00000100
,
00000001
00000000
00000000
00000100
00001000
00000000
00000000
00000010
,
00000100
00001000
00010000
00001000
00000000
00100000
00010000
10000000
,
00100000
00000000
00000000
01000000
00100000
00000000
00000000
00010000
,
00001000
00010000
00001000
00000100
00000010
00000000
00001000
00000100
,
00001000
00000000
00000100
00000010
00000000
00000001
00000100
00000000
,
00000010
00000000
00010000
00001000
00000000
01000000
00010000
01000000
,
00100000
00000000
10000000
00010000
00000000
00100000
01000000
00000000
,
00100000
00000000
00000000
00000000
01000000
00100000
01000000
00000000
,
00010000
00000000
00001000
00000010
00000000
00000100
00000010
00000000
,
00000001
00000000
00001000
00000010
00000000
00000100
00000001
00000010
,
00000100
00000000
00000010
00000100
00010000
00000000
00000100
00010000
,
00001000
00100000
00010000
10000000
00100000
00000000
01100000
00000000
,
00010000
00000000
00000000
10000000
01000000
00000000
00000000
00100000
,
00001000
00010000
00000010
00001000
00000000
00000001
00000010
00000100
,
00001000
00000000
00000000
00000010
00000100
00000000
00000000
00000010
,
00010000
00001000
00100000
01000000
10000000
00000000
00010000
01000000
,
10000000
00000000
00000000
01000000
00010000
00000000
00000000
00100000
,
01000000
00010000
00001000
00010000
00000000
00000010
00001000
00000001
,
00000010
00000000
00000000
00000100
00000010
00000000
00000000
00001000
,
00010000
00001000
00010000
01000000
00100000
00000000
00010000
01000000
,
00010000
00000000
01000000
00100000
00000000
10000000
01000000
00000000
,
00100000
00000000
00001000
00010000
00000000
00000100
00001000
00000100
,
00000010
00000000
00000001
00001000
00000000
00000010
00000100
00000000
,
00000010
00000000
00000000
00000000
00000100
00000010
00000100
00000000
,
00001000
00000000
00010000
00100000
00000000
01000000
00100000
00000000
,
10000000
00000000
00010000
00100000
00000000
01000000
10000000
00100000
,
01000000
00000000
00100000
01000000
00001000
00000000
01000000
00001000
,
00010000
00000010
00001000
00000001
00000010
00000000
00000110
00000000
,
00000010
00000001
00001000
00000100
00010000
00001000
00100000
00010000
,
10000000
00100000
10000000
00010000
01000000
00001000
00010000
00000010
,
00001000
00000000
00000001
00000100
00000010
00000000
00001000
00000100
,
00000010
00000000
00000000
00000001
00001000
00000000
00000010
00000000
,
00000100
00000001
00001000
00000010
00010000
00001000
01000000
00010000
,
10000000
01000000
10000000
00010000
00100000
00001000
00010000
00000100
,
00000010
00000000
00000001
00001000
00000010
00000000
00001000
00000001
,
00000010
00000000
00000000
00001000
00010000
00000000
00011000
00000000
,
00100000
10000000
00010000
01000000
00001000
00010000
00000010
00001000
,
00000001
00000010
00000001
00001000
00000100
00010000
00001000
00100000
,
00010000
00000000
10000000
01000000
00100000
00000000
00010000
01000000
,
00100000
00000000
00000000
10000000
00010000
00000000
00100000
00000000
,
01000000
10000000
00010000
00100000
00001000
00010000
00000100
00001000
,
00000001
00000100
00000001
00001000
00000010
00010000
00001000
01000000
,
00100000
00000000
10000000
00010000
00100000
00000000
00010000
10000000
,
00100000
00000000
00000000
01000000
00100000
00000000
10010000
00000000
,
00100000
00100000
01000000
01000000
,
10000000
01000000
00100000
00010000
00001000
00000100
00000010
00000001
,
00000010
00000010
00000100
00000100
,
00000001
00000010
00000100
00001000
00010000
00100000
01000000
10000000
,
00100000
00100000
01000000
01000000
,
10000000
01000000
00100000
00010000
00001000
00000100
00000010
00000001
,
00000100
00000001
00000100
00000001
00001000
00000100
00001000
00000100
,
00000010
00000100
00000010
00000100
00000010
00000000
00001001
00000000
,
00000010
00000001
00001000
00000100
00010000
00001000
00100000
00010000
,
10000000
00100000
10000000
00010000
01000000
00001000
00010000
00000010
,
00001000
00000000
00000001
00000100
00000010
00000000
00001000
00000100
,
00000010
00000000
00000000
00000001
00001000
00000000
00000010
00000000
,
00000100
00000001
00001000
00000010
00010000
00001000
01000000
00010000
,
10000000
01000000
10000000
00010000
00100000
00001000
00010000
00000100
,
00000010
00000000
00000001
00001000
00000010
00000000
00001000
00000001
,
00000010
00000000
00000000
00001000
00010000
00000000
00011000
00000000
,
00100000
10000000
00010000
01000000
00001000
00010000
00000010
00001000
,
00000001
00000010
00000001
00001000
00000100
00010000
00001000
00100000
,
00010000
00000000
10000000
01000000
00100000
00000000
00010000
01000000
,
00100000
00000000
00000000
10000000
00010000
00000000
00100000
00000000
,
01000000
10000000
00010000
00100000
00001000
00010000
00000100
00001000
,
00000001
00000100
00000001
00001000
00000010
00010000
00001000
01000000
,
00100000
00000000
10000000
00010000
00100000
00000000
00010000
10000000
,
00100000
00000000
00000000
01000000
00100000
00000000
00010000
00000000
,
00001000
00000000
00000100
00000010
00001000
00000000
00000100
00000010
,
00000001
00000000
00000000
00000010
00000100
00000000
00000010
00000000
,
00000001
00000100
00001000
00010000
,
00100000
00010000
00001000
00100000
00010000
01000000
00100000
01000000
,
00010000
10000000
01000000
00100000
,
00001000
00010000
01000000
00100000
00010000
01000000
00100000
01000000
,
10000000
01000000
00100000
00010000
,
00001000
00000100
00000010
00000001
;

//---------------dance-single - ----------------
#NOTES:
     dance-single:
     :
     Challenge:
     16:
     0.854,0.828,0.278,0.096,0.461: // measure 1
0000
0000
0000
0000
,  // measure 2
0000
0000
0000
0000
,  // measure 3
0000
0000
0000
0000
,  // measure 4
1001
0000
0000
0000
0000
0000
1000
0100
0010
0000
0000
0000
0000
0000
1000
0000
,  // measure 5
0001
0100
1000
0010
0000
0100
0010
0001
,  // measure 6
0010
0000
0000
0000
0000
0000
0001
1000
0100
0000
0000
0000
0000
0000
0010
1000
,  // measure 7
0100
0001
0010
0100
1000
0000
0001
0100
,  // measure 8
1001
0000
0000
0000
0000
0000
0001
0100
0010
0000
0000
0000
0000
0000
0001
0100
,  // measure 9
1000
0000
0001
0010
1000
0000
0001
0000
0000
0000
1000
0100
0010
0000
0001
0000
,  // measure 10
0110
0000
0000
0000
0000
0000
1000
0010
0100
0000
0000
0000
0000
0000
0001
0010
,  // measure 11
0100
0000
1000
0010
0100
0000
0001
0010
0100
0000
0000
0000
1000
0000
0100
0000
,  // measure 12
1000
0000
0101
1000
0000
0110
1000
0000
,  // measure 13
0001
0000
1001
0001
0000
0110
0001
0000
,  // measure 14
1000
0000
0000
0000
0100
0000
0010
1000
0001
0000
0100
0000
0100
0000
0010
0000
,  // measure 15
1000
0000
0100
1000
0000
0100
0010
0000
,  // measure 16
0100
1000
0010
1000
0010
0001
0100
0000
,  // measure 17
0010
0000
1000
0000
0001
0000
0010
0000
0100
0000
1000
0010
1000
0000
0100
0000
,  // measure 18
0001
0001
0010
0010
0100
0100
1000
1000
,  // measure 19
0001
0010
0100
1000
0001
0000
0100
0000
0010
0000
0000
0000
1000
0000
0010
0000
,  // measure 20
0100
0000
0010
0000
0100
0000
0001
1000
0100
0000
0010
0000
0100
0000
0001
1000
,  // measure 21
0010
0000
0100
0001
1000
0010
0100
0000
1000
0000
0010
0000
0001
0000
0100
0000
,  // measure 22
1000
0000
0010
0000
1000
0000
0100
0010
0001
0000
0100
0000
1000
0000
0010
0001
,  // measure 23
0010
0000
0100
1000
0100
0000
0100
0000
0110
0000
0000
0000
2001
0000
0001
0000
,  // measure 24
3100
0000
0010
0000
0001
0000
1000
0100
1000
0000
0001
0000
1000
0000
0001
0000
,  // measure 25
1000
0000
0001
1000
0001
0000
0010
0000
1000
0000
0001
0000
0010
0000
0100
0000
,  // measure 26
1000
0000
0100
0000
0010
0000
0001
1000
0001
0000
0010
0000
1000
0000
0010
0100
,  // measure 27
0010
0000
0001
0100
0010
0000
1100
0000
0011
0000
0000
0000
0010
0000
0101
0000
,  // measure 28
0010
1000
0100
0010
0001
0010
0001
0010
,  // measure 29
0100
0000
1000
0000
0001
0000
0100
0000
0010
0000
1000
0100
1000
0000
0001
0000
,  // measure 30
0100
0000
1000
0000
0010
0000
1000
0001
1000
0000
0100
0000
1000
0000
0010
0000
,  // measure 31
0200
0000
0010
0000
1000
1000
1000
1000
,  // measure 32
0302
0000
1000
0000
0010
0010
0010
0010
,  // measure 33
1003
0000
0100
0000
1000
0000
0010
0000
1000
0001
1000
0000
0010
0000
0100
1000
,  // measure 34
0100
0001
0010
0100
1000
0010
0100
0001
,  // measure 35
1000
0010
1000
0010
0100
0001
1000
0010
0200
0000
0000
0000
1300
0000
0100
0000
,  // measure 36
1000
0010
0100
0001
0010
0100
0010
1000
,  // measure 37
0001
0000
0100
0000
1000
0000
0001
0000
0010
0000
1000
0001
0010
0000
0100
0000
,  // measure 38
0001
0100
1000
0100
0001
0100
0001
0100
,  // measure 39
1001
0000
0000
0000
0000
0000
0010
0100
0010
0000
0000
0000
0010
0000
1001
0000
,  // measure 40
0100
0001
1000
0001
0100
0010
1000
0001
,  // measure 41
0010
0000
0100
0000
1000
0000
0001
0000
0010
0000
1000
0001
0010
0000
1000
0000
,  // measure 42
1010
0000
0110
0100
0101
0000
1001
1000
,  // measure 43
1100
0000
0000
0000
0000
0000
0010
0001
0010
0000
0100
0000
1000
0000
0001
0000
,  // measure 44
0100
0010
1000
0100
0001
1000
0010
1000
,  // measure 45
0001
0000
0100
0000
1000
0000
0001
0000
0010
0000
0100
0010
1000
0000
0010
0000
,  // measure 46
0100
0000
0011
1001
1100
0000
1010
0110
,  // measure 47
0202
0000
0000
0000
0303
0000
0010
0100
0010
0000
1000
0000
0001
0000
0100
0000
,  // measure 48
1000
0100
0001
1000
0100
0010
0001
1000
,  // measure 49
0010
0000
0100
0000
0001
0000
0010
0000
0100
0000
1000
0010
0100
0000
0001
0000
,  // measure 50
0100
0010
1000
0100
1000
0010
0001
0100
,  // measure 51
0010
0000
1000
0000
0001
0000
0010
1000
0100
0000
0010
0000
0100
0001
1000
0200
,  // measure 52
0010
0000
0010
0000
0010
0000
0010
0300
,  // measure 53
0100
0001
0010
0001
0100
0001
0010
0001
0100
0001
0010
0001
0100
0001
0010
0002
,  // measure 54
0100
0000
0100
0000
0100
0000
0100
0003
,  // measure 55
0001
1000
0010
1000
0001
1000
0010
1000
0001
1000
0010
1000
0001
1000
0010
2000
,  // measure 56
0001
0000
0001
0000
0001
0000
0001
3000
,  // measure 57
0001
0010
0100
0010
0001
0010
0100
0010
0001
0010
0100
0010
0001
0010
0100
0020
,  // measure 58
1000
1000
1000
1030
,  // measure 59
1000
0001
0100
0010
1000
0000
1002
1000
,  // measure 60
0013
0000
0100
0000
0010
0000
0000
0010
0001
0000
0010
0000
0100
1000
0100
0000
,  // measure 61
0010
0000
0001
0000
1000
0000
0000
1000
0001
0000
1000
0000
0100
0001
0100
0000
,  // measure 62
0010
0000
0001
0000
1000
0000
0000
1000
0001
0000
0010
0000
0001
1000
0001
0000
,  // measure 63
1000
0000
0100
0000
0010
0000
0000
0010
0001
0000
0100
0000
0010
1000
0010
0000
,  // measure 64
0100
0000
0001
0000
1000
0000
0000
1000
0100
0000
0010
0000
0001
1000
0001
0000
,  // measure 65
1000
0000
0100
0000
1000
0000
0000
1000
0100
0000
0001
0000
0010
0100
0010
0000
,  // measure 66
1000
0000
0010
0100
0110
0000
1000
0001
,  // measure 67
1001
0000
0000
0000
0000
0000
0100
0010
0100
0000
0000
0000
1001
0000
0000
0000
,  // measure 68
0010
0000
0001
0000
0010
0000
0001
0100
1000
0000
0001
0000
0100
0010
1000
0000
,  // measure 69
0001
0000
0100
0000
1000
0000
0001
0100
0010
0000
0001
0000
1000
0010
0001
0000
,  // measure 70
1000
0000
0100
0000
0001
0000
0100
0010
1000
0000
0010
0000
0001
0100
0010
0000
,  // measure 71
1000
0000
0000
0000
0000
0000
0010
0100
0010
0000
0000
0000
0010
0000
0000
0000
,  // measure 72
0100
0000
0010
0000
0001
0000
1000
0010
0100
0000
0010
0000
0001
1000
0010
0000
,  // measure 73
1000
0000
0100
0000
0001
0000
0010
1000
0001
0000
0100
0000
0010
1000
0001
0000
,  // measure 74
0010
0000
1000
0010
1010
0000
0001
0100
,  // measure 75
0101
0000
0000
0000
0000
0000
0010
0100
0001
0000
0100
0010
1000
0000
0100
0000
,  // measure 76
0010
0000
0001
0010
1100
0000
0001
0010
,  // measure 77
0100
1000
0100
0000
0010
0001
0010
0000
1000
0100
0010
0001
1000
0010
0100
0001
,  // measure 78
1000
0000
0100
0000
1000
0000
0000
1000
0001
0000
0100
0000
1000
0000
0100
0000
,  // measure 79
0001
0000
0010
0000
0001
0000
0000
0001
0100
0000
1000
0000
0100
0000
0010
0000
,  // measure 80
0001
0000
0100
0000
1000
0000
0000
1000
0010
0000
0001
0000
0100
0000
0001
0000
,  // measure 81
0000
0000
1000
0000
0100
0000
1000
0100
0000
0000
0010
0000
0001
1000
0001
0000
,  // measure 82
1000
0100
0010
0001
,  // measure 83
1000
0100
0010
0001
;
