#TITLE:SILVER☆DREAM;
#SUBTITLE:;
#ARTIST:jun;
#TITLETRANSLIT:SILVER DREAM;
#SUBTITLETRANSLIT:;
#ARTISTTRANSLIT:;
#GENRE:Happy Hardcore;
#CREDIT:;
#BANNER:SILVER DREAM.png;
#BACKGROUND:SILVER DREAM-bg.png;
#LYRICSPATH:;
#CDTITLE:./CDTITLES/DanceDanceRevolution HOTTEST PARTY 2.png;
#MUSIC:SILVER DREAM.mp3;
#OFFSET:0.378;
#SAMPLESTART:32.570;
#SAMPLELENGTH:15.000;
#SELECTABLE:YES;
#DISPLAYBPM:96.000:192.000;
#BPMS:0.000=191.990
,172.000=96.000
,180.000=192.000
,196.000=191.980
;
#STOPS:196.000=1.247
;
#BGCHANGES:;
#KEYSOUNDS:;
#ATTACKS:;

//---------------dance-single - ----------------
#NOTES:
     dance-single:
     :
     Hard:
     15:
     0.869,0.855,0.627,0.539,0.318,502.000,64.000,55.000,0.000,0.000,0.000,0.869,0.855,0.627,0.539,0.318,502.000,64.000,55.000,0.000,0.000,0.000:
0000
0000
0000
0000
,
0000
0000
0000
0000
,
1001
0001
0100
0100
2000
0100
3100
0010
,
0100
1000
0010
0100
0010
0001
0110
0000
,
1001
0100
1000
0100
0002
0100
0103
0010
,
0100
0001
0010
0100
0010
1000
0110
0000
,
1001
0100
0001
0100
2000
0100
3100
0010
,
0100
1000
0010
0100
0010
0001
0110
0000
,
1100
0001
0100
0000
0101
1000
0100
0000
,
1010
0000
0000
0000
0101
0000
0000
0000
0010
0000
0001
0000
1000
0000
0010
0100
,
0010
0000
0000
0000
0100
0000
0020
0000
0000
0000
0000
0000
0130
0000
0010
1000
,
0010
0001
1000
0100
0001
0010
0011
0000
,
0001
1000
0010
0100
0001
1000
0100
1000
,
0001
0002
1000
2003
3001
1000
1001
0000
,
0010
1000
0100
1000
0010
0001
0100
0001
,
0010
1000
0001
0100
0010
1000
0100
0000
,
0101
0001
0011
0000
1100
1000
1010
0000
,
0100
0001
0010
1000
0110
0000
1001
0000
,
1000
0010
0100
0001
0010
0010
0100
0000
,
1000
0010
0100
0001
0010
0100
0110
0000
,
1000
0010
0100
0001
0010
0010
0100
0100
,
0011
1100
1010
0101
,
0010
0001
0100
0001
0010
1000
0100
1000
,
0010
0001
1000
0100
0001
0010
0100
0000
,
1002
0103
2001
3010
,
1001
1100
0101
0110
,
1001
1000
0100
0020
0000
0130
1000
0000
,
0011
0001
0101
0000
1010
1000
1100
0000
,
0010
0000
0001
0010
0002
0000
1003
0010
2000
0000
3001
0100
0002
0000
1003
0100
,
2000
3100
0110
0000
0001
0100
0110
0000
,
0010
1000
0100
0001
0100
1000
0010
0000
,
1100
0000
0000
0200
0001
0000
0000
0301
0100
0000
1000
0000
0010
0000
0000
0000
,
0011
0000
0000
0020
1000
0000
0000
1030
0010
0000
0001
0000
1000
0000
0000
0000
,
0001
0100
1000
0100
0001
0010
1000
0010
,
0210
0000
0000
0000
1000
1000
1300
0000
,
0011
0000
0000
0020
0100
0000
0000
0230
1000
0000
0000
2300
0010
0000
0000
3020
,
0100
0000
0000
0230
1000
0000
0000
2300
0100
0000
0000
3100
0001
0000
0000
0000
,
0010
0002
0100
0103
0010
2000
0100
3100
,
0010
0100
1000
0010
0100
0001
0011
0000
,
1100
0000
0000
2000
0010
0000
0000
3020
0100
0000
0000
0130
0001
0000
0000
0000
,
0010
0000
0010
0001
0100
0010
1001
0000
,
0010
0000
1000
0200
1000
0000
0000
0000
0310
0000
0001
0100
0002
0000
0000
0000
,
1003
0001
0100
0010
1001
0000
0110
0000
,
2000
0000
0000
0000
3010
0010
0000
0000
0100
0001
1000
0200
0000
0000
0310
0100
,
0020
0000
0000
0000
0031
0001
0000
0000
0100
0002
0100
0003
0010
0100
0010
0000
,
1200
0000
1000
0000
1000
1000
1000
0000
,
0001
0000
0001
0000
0001
0001
0001
0000
,
1000
1000
1000
0000
0001
0001
0301
0000
,
1001
0000
0000
0100
0000
0010
0100
0000
,
0110
0101
0000
2200
0000
0000
3300
0000
,
0001
0100
0110
0000
1000
0100
0110
0000
,
0010
0001
0100
1000
0100
0001
0010
0000
,
0101
0000
0000
0200
1000
0000
0000
1300
0100
0000
0001
0000
0010
0000
0000
0000
,
1010
0000
0000
0020
0001
0000
0000
0031
0010
0000
1000
0000
0001
0000
0000
0000
,
1000
0000
0100
0001
0100
0000
1000
0010
1000
0000
0010
0001
0010
0000
1000
0001
,
1000
0000
0100
0000
0001
0000
0100
0000
0010
0001
0100
0010
1000
0100
0010
0001
,
1000
0000
0000
0020
0100
0000
0000
0230
0001
0000
0000
0302
0010
0000
0000
0023
,
0100
0000
0000
0230
0001
0000
0000
0302
0100
0000
0000
0103
1000
0000
0000
0000
,
0010
2000
0100
3100
0010
0002
0100
0103
,
0010
0100
0001
0010
0100
1000
1010
0000
,
0101
0000
0000
0002
0010
0000
0000
0023
0100
0000
0000
0130
1000
0000
0000
0000
,
0010
0100
0010
1000
0100
0010
1001
0000
,
0010
0000
0001
0200
0001
0000
0000
0000
0310
0000
1000
0100
2000
0000
0000
0000
,
3001
1000
0100
0010
1001
0000
0110
0000
,
1001
0100
1000
0100
0002
0100
0103
0010
,
0100
0001
0010
0100
0010
1000
0110
0000
,
1001
0100
0001
0100
2000
0100
3100
0010
,
0100
1000
0010
0100
0010
0001
0110
0000
,
0010
0000
1000
0100
1000
0000
0001
0100
0001
0000
0010
0001
0010
0000
0100
1000
,
0100
0000
1000
0010
1000
0000
0100
0010
0100
0000
1000
0001
1000
0000
0001
0010
,
0001
0000
0100
0001
0200
0000
0000
0000
1300
0000
0100
1000
0200
0000
0000
0000
,
0310
0000
1000
0100
0010
0000
0001
0100
0010
0000
0000
0000
2002
0000
0000
0000
,
0000
0000
0000
3003
;

//---------------dance-single - ----------------
#NOTES:
     dance-single:
     :
     Medium:
     11:
     0.665,0.606,0.764,0.196,0.000,377.000,78.000,20.000,0.000,0.000,0.000,0.665,0.606,0.764,0.196,0.000,377.000,78.000,20.000,0.000,0.000,0.000:
0000
0000
0000
0000
,
0000
0000
0000
0000
,
0001
0100
0010
0100
0001
0100
0000
0110
,
0000
0011
0000
0101
0000
0010
0100
0000
,
1000
0100
0010
0100
1000
0100
0000
0110
,
0000
1010
0000
1100
0000
0010
0100
0000
,
0001
0100
0010
0100
0001
0100
0000
0110
,
0000
0011
0000
0101
0000
0010
0100
0000
,
0001
0100
0002
0000
1003
0100
2000
0000
,
3010
0010
0100
0010
0100
0000
1001
0000
,
0010
0000
0100
0020
0000
0000
0130
0000
,
0010
1000
0001
0100
0010
0000
1010
0000
,
1000
0001
0010
0000
0001
1000
0010
0000
,
0100
0001
0010
1000
0010
0100
0010
0000
,
0010
0001
0100
0000
0002
0000
1003
0000
,
0010
1000
0100
0000
2000
0000
3001
0000
,
1100
1010
0101
0011
,
0100
1000
0010
0001
0010
0000
0110
0000
,
0001
0010
0100
1000
0020
0000
0130
0000
,
0001
0010
0100
1000
0010
0100
0010
0000
,
0001
0010
0100
1000
0020
0000
0130
0000
,
0010
0101
0010
1100
,
0010
1000
0100
0000
0010
0001
0100
0000
,
0010
1000
0100
0010
0001
0100
0010
0000
,
1001
0100
1001
0010
,
1001
0101
1100
0110
,
1001
0000
0100
0010
0000
0100
1000
0000
,
1010
0000
0101
0000
1000
0100
0001
0000
,
0010
0001
0010
0000
1000
0010
1000
0000
,
0001
0100
0100
0000
1000
0100
0100
0000
,
0010
0001
0100
1000
0100
0001
0010
0000
,
0101
0000
1100
0000
0010
0100
1000
0000
,
1010
0000
0011
0000
0010
0100
0001
0000
,
1000
0100
0001
0100
1000
0010
0001
0010
,
0200
0000
0001
0301
,
1010
0101
1100
0011
,
1100
0101
1100
0101
,
0010
1000
0100
0000
0010
0001
0100
0000
,
0010
0100
0001
0010
0100
1000
0010
0000
,
0101
0000
0011
0000
0100
1000
0010
0000
,
0100
0010
1000
0100
0100
0000
1001
0000
,
0110
1001
0110
1001
,
0001
1000
0100
0010
0001
0000
0110
0000
,
0002
0010
2003
0010
,
3200
0001
2300
3010
,
0200
0001
0001
0001
,
1000
1000
1000
1000
,
0001
0001
1000
1300
,
1001
0000
0000
0100
0000
0010
0100
0000
,
0110
1100
0000
0202
0000
0000
0303
0000
,
1000
0100
0100
0000
0001
0100
0100
0000
,
0010
1000
0100
0001
0100
1000
0010
0000
,
1100
0000
0101
0000
0010
0100
0001
0000
,
0011
0000
1010
0000
0010
0100
1000
0000
,
0001
0100
1000
0100
0001
0010
1000
0010
,
0200
0000
1000
1300
,
0011
1100
0101
1010
,
0101
1100
0101
1100
,
0010
0001
0100
0000
0010
1000
0100
0000
,
0010
0100
1000
0010
0100
0001
0010
0000
,
1100
0000
1010
0000
0100
0001
0010
0000
,
0100
0010
0001
0100
0100
0000
1001
0000
,
0110
1001
0110
1001
,
1000
0001
0100
0010
1000
0000
0110
0000
,
1000
0100
0010
0100
1000
0100
0000
0110
,
0000
1010
0000
1100
0000
0010
0100
0000
,
0001
0100
0010
0100
0001
0100
0000
0110
,
0000
0011
0000
0101
0000
0010
0100
0000
,
1000
0100
0001
0100
1000
0100
0001
0100
,
1000
0010
0001
0010
1000
0010
0001
0010
,
1000
0100
2000
0000
3001
0100
0002
0000
,
0013
0010
0100
0010
0100
0000
2002
0000
,
0000
0000
0000
3003
;

//---------------dance-single - ----------------
#NOTES:
     dance-single:
     :
     Easy:
     8:
     0.456,0.499,0.382,0.186,0.000,268.000,39.000,19.000,0.000,0.000,0.000,0.456,0.499,0.382,0.186,0.000,268.000,39.000,19.000,0.000,0.000,0.000:
0000
0000
0000
0000
,
0000
0000
0000
0000
,
0000
1000
0010
0001
,
0200
1000
0000
1300
,
0000
0001
0010
1000
,
0200
0001
0000
0301
,
0000
1000
0010
0001
,
0200
1000
0000
1300
,
0101
0000
1100
0000
,
1000
0001
0100
0010
,
1001
0000
0010
0200
0000
0000
0300
0000
,
0001
0000
1000
0000
0100
0001
0100
0000
,
0010
0100
1000
0100
,
0010
1000
0010
0001
,
0000
1000
0100
1000
,
0000
0001
0100
0001
,
0010
0101
0010
1100
,
0010
0000
0100
1000
0001
0000
0110
0000
,
1000
0100
0010
0000
0001
0000
0100
0000
,
1000
0100
0010
0000
0100
0000
0100
0000
,
1000
0100
0010
0000
0001
0000
0100
0000
,
1000
0100
0001
0100
,
0001
0100
0101
0000
,
1000
0100
1100
0000
,
0001
0010
1000
0100
,
0001
0001
1000
0001
,
1001
0000
0000
0110
0000
0000
0000
0000
,
0100
0000
0010
0000
0001
0100
1000
0000
,
0100
0100
0001
0001
,
1000
0010
0001
0010
,
0100
0000
0010
0000
0001
1000
0100
0000
,
0010
0001
0100
0001
,
0010
1000
0100
1000
,
0001
0001
1000
1000
,
0120
0000
1000
1030
,
0001
0101
1000
1100
,
0110
1001
0110
1001
,
0100
0001
0100
1000
,
0100
0010
1000
0000
0010
0000
0001
0000
,
0110
1001
0010
0100
,
0010
0001
0010
1000
,
0010
1001
0010
1001
,
1000
0001
0010
0000
1000
0000
0110
0000
,
2000
0010
3002
0010
,
0203
1000
0302
0013
,
0200
1000
1000
1000
,
0001
0001
0001
0001
,
1000
1000
0001
0301
,
2002
0000
0000
3003
,
0110
0002
0000
2000
0000
0000
3003
0000
,
0001
0010
1000
0010
,
0100
0000
0010
0000
1000
0001
0100
0000
,
0010
1000
0100
1000
,
0010
0001
0100
0001
,
1000
1000
0001
0001
,
0120
0000
0001
0031
,
1000
1100
0001
0101
,
0110
1001
0110
1001
,
0100
1000
0100
0001
,
0100
0010
0001
0000
0010
0000
1000
0000
,
0110
1001
0010
0100
,
0010
1000
0010
0001
,
0010
1001
0010
1001
,
0001
1000
0010
0000
0001
0000
0110
0000
,
0000
0001
0010
1000
,
0200
0001
0000
0301
,
0000
1000
0010
0001
,
0200
1000
0000
1300
,
0010
0001
0100
1000
,
0010
0001
0100
1000
,
0010
0101
0010
1100
,
0001
1000
0100
0000
0010
0000
2002
0000
,
0000
0000
0000
3003
;

//---------------dance-single - ----------------
#NOTES:
     dance-single:
     :
     Beginner:
     4:
     0.330,0.392,0.108,0.147,0.000,210.000,11.000,15.000,0.000,0.000,0.000,0.330,0.392,0.108,0.147,0.000,210.000,11.000,15.000,0.000,0.000,0.000:
0000
0000
0000
0000
,
0000
0000
0000
0000
,
0001
0000
1000
0000
,
0001
0001
0001
0001
,
1000
0000
0001
0000
,
1000
1000
1000
1000
,
0001
0000
0001
0000
,
1000
0000
1000
0000
,
0001
0000
1000
0000
,
0001
1000
0001
1000
,
0002
0000
0003
0000
,
1000
0000
1000
0000
,
0001
0000
0001
0000
,
1000
1000
1000
1000
,
0001
0000
0001
0000
,
1000
0000
1000
0000
,
0001
0001
0001
0000
,
1000
1000
1000
0000
,
0001
0000
1000
0000
,
0001
1000
0001
0000
,
1000
0000
0001
0000
,
1000
0001
1000
0000
,
0001
0001
0001
0000
,
1000
1000
1000
0000
,
0001
0000
1000
0000
,
2002
0000
3003
0000
,
2002
0000
3003
0000
,
0001
0001
0001
0000
,
1000
1000
1000
0000
,
0001
0001
1000
1000
,
0001
1000
0001
0000
,
1000
1000
0001
0000
,
0001
0001
1000
0000
,
0001
0000
1000
0000
,
2002
0000
3003
0000
,
0001
0001
1000
0000
,
1000
1000
0001
0000
,
0001
0001
1000
1000
,
0001
1000
0001
0000
,
1000
1000
0001
0000
,
0001
0001
1000
0000
,
1000
1000
0001
0001
,
1000
0001
1000
1001
,
2000
3000
0002
0003
,
2000
3000
0002
0003
,
1000
1000
1000
1000
,
0001
0001
0001
0001
,
1000
1000
1000
1000
,
2002
0000
3003
0000
,
1001
0000
0000
0000
,
1000
1000
0001
0001
,
1000
0001
1000
1001
,
0001
0001
1000
0000
,
1000
1000
0001
0000
,
0001
1000
0001
1000
,
1001
0000
1000
1000
,
0001
0001
1000
1000
,
0001
1000
0001
1000
,
0001
0001
1000
1000
,
0001
1000
1001
0000
,
1000
1000
0001
0001
,
1000
0001
1000
0001
,
1000
1000
0001
0001
,
1000
0001
1000
1001
,
0001
0001
0001
0001
,
1000
1000
1000
1000
,
0001
0001
1000
1000
,
0001
1000
0001
1000
,
0001
0001
1000
0000
,
1000
1000
0001
0000
,
0001
0001
1000
1000
,
0001
1000
0001
2002
,
0000
0000
0000
3003
;

//---------------dance-single - ----------------
#NOTES:
     dance-single:
     :
     Challenge:
     18:
     1.000,1.000,0.353,0.274,0.881,685.000,36.000,28.000,0.000,0.000,0.000,1.000,1.000,0.353,0.274,0.881,685.000,36.000,28.000,0.000,0.000,0.000:
0000
0000
0000
0000
,
0000
0000
0000
0000
,
1000
0001
1000
0000
0001
0000
0100
0000
0001
0000
0010
0000
1000
0000
0001
0000
,
0000
0000
1001
0000
0000
0000
0110
0000
0000
0000
0001
0010
0100
1000
0100
0010
,
0001
0000
1000
0000
0100
0000
0010
0000
0001
1000
0001
0000
0100
0001
0100
0000
,
0010
0100
0001
0000
0100
0010
1000
0000
0001
0000
1000
0100
0010
0001
0010
0100
,
1000
0000
0001
0000
0010
0000
0100
0000
1000
0001
1000
0000
0010
0100
0010
0000
,
1000
0001
0100
0000
0010
1000
0010
0000
0100
0000
0001
1000
0001
0100
0010
0001
,
1000
0010
0001
0000
0001
0001
0002
0000
,
1003
0010
1000
0010
0100
0001
0100
1000
0001
0010
0100
1000
0001
0100
0010
2000
,
0002
0000
0000
0000
0000
0000
0000
0000
0000
0000
3003
0000
0000
0000
0010
1000
,
0010
0000
0100
0000
0001
0000
1000
0100
0010
0000
0000
0000
2001
0000
0000
0000
,
0001
3001
0100
0001
0010
1000
0100
0010
,
0001
0000
1000
0100
1000
0000
0001
1000
0100
0010
0001
0100
0010
1000
0100
0010
,
0001
1000
0100
1000
0100
0001
0100
1000
,
0001
0010
1000
0010
0001
0010
1002
0000
,
0103
0010
1000
0001
0010
0110
1000
0010
,
1000
0000
0001
0000
0100
0000
0100
0000
0010
0001
0010
0100
1000
0100
0010
0001
,
1000
0000
0010
0000
0100
0000
0001
0000
0010
0000
0100
0000
1000
0000
1000
0010
,
0001
0000
0010
0100
0010
0000
0000
0000
1001
0000
0000
0000
2001
0000
0000
0000
,
3001
0100
0010
0100
1000
1001
0000
0011
,
0000
0000
0110
0000
0000
0000
1100
0000
0010
0000
0001
0000
1000
0000
0001
0010
,
0001
0000
1000
0000
0011
0000
0100
0000
1000
0000
0010
0000
0001
0000
0100
1000
,
0001
0000
0010
1000
0010
0100
0010
0001
1000
0000
1000
0001
1000
0000
0001
0100
,
1000
0000
0101
0000
0010
0000
1000
0100
0001
0000
0100
0000
0010
0000
1000
0000
,
1000
0010
0100
0001
0100
0001
0100
0010
1000
0100
0010
0001
1000
0010
0100
0001
,
2000
0000
0010
0010
0000
0001
0001
0001
,
3001
0020
1000
0032
0100
0100
0103
0010
,
1000
0100
0001
0100
1000
0000
0100
0001
,
1000
0010
1000
0000
0001
0100
0001
0000
0010
0100
1000
0100
0010
0000
0001
0000
,
1000
0000
0010
0000
0001
0000
0010
0000
1000
0001
0010
0100
0001
0100
0010
1000
,
0001
0000
1000
0000
0010
0000
0110
0000
0001
0100
1000
0100
0001
0000
1001
0000
,
0001
0100
0010
0000
1000
0100
0010
0000
0001
0010
0100
1000
0001
0000
0010
0000
,
1000
0000
1000
0010
0100
0000
0100
0001
0010
0000
0010
0100
0001
0000
0001
0000
,
0010
1000
0100
0010
0001
0100
0010
1000
0010
0100
0010
0001
0010
0100
1000
0100
,
0010
0000
0001
0000
1000
0000
0001
0000
0100
0010
0002
0000
0000
0000
1003
0000
,
0000
1000
0001
0000
0000
0001
1000
0000
0000
0000
1000
0000
0001
0000
0100
0001
,
1000
0000
0010
1000
0001
0000
0100
0000
1000
0000
0001
0100
0010
0000
1000
0000
,
0000
0000
1200
0000
0000
0000
0301
0000
0000
0000
1000
0100
0010
0001
0010
0100
,
1000
0000
0010
0000
1001
0000
0001
0000
0100
0010
1000
0000
0000
0000
2001
0000
,
0000
0000
0001
0000
0001
0000
3001
0000
0010
0100
0001
0100
0010
1000
0100
0010
,
0001
0000
0010
0100
1000
0000
1000
0100
0010
0000
0001
1000
0001
0000
0010
0100
,
0001
0000
0010
0000
0100
0000
1000
0100
2000
0000
0000
0000
0002
0000
3003
0000
,
0010
0000
0100
0000
1000
0010
0000
0001
0010
1000
0010
0110
0000
0001
0100
0010
,
1000
0000
0001
0000
0001
1000
0000
0100
0010
0001
1000
1000
0010
0100
0001
1000
,
0001
0000
1000
0001
1000
0000
0001
0000
0010
0000
0100
0000
1000
0000
0010
0000
,
0001
0000
0100
0001
0010
0000
1000
0000
0100
0000
0001
0000
0010
0000
0001
0000
,
1000
0000
0001
1000
0100
0000
0010
0000
1000
0001
0010
0000
0100
0001
0010
0100
,
1000
0000
0101
0000
0000
0000
1010
0000
0000
0000
1100
0000
0110
0000
0002
1000
,
0103
0020
0000
0200
0000
0000
0330
0000
,
1000
0000
0010
0000
0001
0000
0100
0000
0001
0010
0100
1000
0001
0000
1000
0000
,
0010
0000
0100
0000
1000
0000
0001
0000
0010
0100
1000
0100
0001
0000
1000
0000
,
0001
0000
0010
0000
1000
0000
0001
0000
0100
1000
0100
0001
0100
0000
1000
0000
,
0010
0000
0100
0000
0010
0000
1000
0000
0001
1000
0010
0100
0001
0000
0010
0000
,
1000
0001
1000
0001
0100
0010
0100
0010
1000
0001
0010
0001
0100
1000
0001
0010
,
0100
0001
1000
0010
0100
0001
0010
0001
0100
0010
1000
0100
1000
0010
0100
0001
,
0010
0001
0020
0000
0031
0100
0010
1001
,
0000
0000
1010
0000
0000
0000
1100
0000
0000
0000
0010
1000
0100
0010
0001
1000
,
0100
0010
0001
1000
0100
0001
0100
1000
,
0010
1000
0010
0000
0100
0010
0100
0000
0001
0010
0100
1000
0001
1000
0100
0010
,
0001
1000
0010
1000
0100
0001
0100
2000
,
0001
0000
3002
0000
1000
0000
1003
0000
0010
1000
0100
0010
1000
0010
0001
1000
,
0100
1001
1001
0000
1100
0110
0012
0000
,
1003
0000
0100
0000
0010
0000
0001
1000
0002
0000
0000
0000
2000
0000
3003
0000
,
0100
0010
0001
1000
0010
1000
0010
1000
,
0100
0000
0010
1000
0000
0000
1000
0000
0001
0000
0010
1000
0010
1000
0010
0100
,
0001
0010
1000
0100
1000
0001
0100
0010
,
1000
0010
0010
0001
1000
0011
0110
1100
,
0010
0100
1000
0100
0001
0100
0010
1000
0100
0010
0001
0100
1000
0100
0001
0010
,
0001
1000
0100
0001
0100
1000
0001
0010
0100
0010
0001
0010
0100
1000
0100
0010
,
0001
0000
0010
0000
1000
0000
0100
0001
0010
0000
1000
0000
0001
0000
0010
0100
,
2000
0000
3020
0000
0032
0000
1003
0100
0011
0000
0000
0000
2200
0000
0000
0000
,
0000
0000
0000
3300
;

//---------------dance-double - ----------------
#NOTES:
     dance-double:
     :
     Hard:
     15:
     0.880,1.000,0.666,0.500,0.279,510.000,68.000,51.000,0.000,0.000,0.000,0.880,1.000,0.666,0.500,0.279,510.000,68.000,51.000,0.000,0.000,0.000:
00000000
00000000
00000000
00000000
,
00000000
00000000
00000000
00000000
,
10000000
01000000
00010000
00100000
10000000
00010000
00000000
00011000
,
00000000
00001100
00000000
00000001
00000010
00001000
00000100
00001000
,
00010000
00100000
10000000
01000000
00100000
00011000
00000000
00000110
,
00000000
00000011
00000000
00000100
00001000
00100000
00010000
10000000
,
01000000
00010000
10000000
00100000
01000000
00010000
00000000
00001100
,
00000000
00000101
00000000
00000110
00000000
00000001
00000010
00000100
,
00011000
00100000
00200000
00300000
11000000
00100000
00200000
00300000
,
10000000
00100000
01000000
00010000
00100000
00000100
00001000
00000001
,
00000100
00000000
00000000
00000000
00120000
00000000
00100000
00000000
00100000
00000000
00000000
00000000
10030000
00000000
01000000
00010000
,
01000000
00010000
00001000
00000001
00000110
00000000
00001001
00000000
,
00002100
00000000
00003100
00000010
00000001
00001000
00000010
00001000
,
00000001
00001000
00010000
01000000
00100000
10000000
02100000
00100000
,
03100000
00010000
00001000
00000100
00000010
00000001
00000100
00000010
,
00001000
00000100
00001000
00000100
00010100
00010000
00110000
00000000
,
10010000
10000000
11000000
00000000
01010000
00010000
00011000
00000000
,
00000001
00000010
00000100
00000010
00000001
00000010
00001000
00000000
,
00010000
00100000
01000000
10000000
00010000
00000000
10000000
01000000
,
10000000
01000000
00100000
00010000
00011000
00000000
00000110
00000000
,
00000001
00001000
00000010
00000100
00000001
00001001
00000000
00011000
,
00000000
00102000
00000000
00010000
00013000
00001000
00020000
00001000
,
00031000
00100000
00010000
10000000
00100000
00010000
01000000
00100000
,
10000000
01000000
10000000
01000000
00100000
00010000
00100000
00010000
,
00001000
00000100
00000011
00000000
00000010
00000100
00001001
00000000
,
00100000
00000000
00010000
00100000
00010000
00000000
01000000
10000000
01000000
00000000
00010000
01000000
00010000
00000000
00100000
00000000
,
00002000
00000000
00010000
00010000
00000000
00000100
00003100
00000100
,
00000101
00000001
00000011
00000000
00001010
00001000
00001001
00000000
,
00001000
00000100
00000010
00000001
00000110
00000000
00002001
00000000
,
00003100
00000000
00000010
00002000
00000010
00000000
00003100
00000002
00000100
00000000
00001003
00000002
00001000
00000000
00000003
00000000
,
00000100
00000000
00001000
00020000
00001000
00000000
00130000
00002000
00100000
00000000
00013000
00200000
00010000
00000000
01300000
00000000
,
10000000
00000000
00000000
20000000
01000000
00000000
30000000
02000000
00100000
00000000
03010000
00000000
00110000
00000000
00000000
00000000
,
00001000
00000000
00000000
00002000
00000100
00000000
00003000
00000200
00000010
00000000
00000301
00000000
00000110
00000000
00000000
00000000
,
00000100
00001000
00000001
00000100
00001000
00000010
00000100
00010000
,
00001000
00000000
00000000
10010000
00000000
10000000
00100000
01000000
,
00020000
00000000
00130000
00000000
00100000
00101000
00000000
00011000
,
00000000
00001100
00000000
00001001
00000000
00000001
00000010
00001000
,
00000001
00000100
00000110
00000000
00001000
00010000
00011000
00000000
,
00010000
00100000
00000000
10100000
00000000
00010000
00001000
00000100
,
00000010
00000001
00000100
00001000
00010000
00011000
00000000
01100000
,
00000000
11000000
00000000
01000000
00010000
00100000
00001000
00000001
,
00000110
00001000
00000101
00000000
00000110
00001000
00000101
00000000
,
00000001
00000000
00000010
00000000
00000100
00000000
00001000
00010000
00002000
00000000
00000000
00000000
00020000
00000000
00033000
00000000
,
00200000
00000000
01000000
00000000
10300000
00000000
00010000
00000000
01000000
00000000
00100000
00000000
00010000
00000100
00001000
00010000
,
00000200
00000000
00000010
00000000
00001300
00000000
00000011
00000000
00000110
00000000
00001100
00000000
00000010
00001000
00000100
00000010
,
00000002
00000000
00000010
00000000
00000010
00000010
00000013
00000000
,
00000200
00000000
00010000
00000000
00010000
00010000
00010300
00000000
,
00002000
00000000
00000000
00000000
00100000
00000000
00000000
00000000
01000000
00000000
01000000
00000000
01003000
00000000
00000000
01000000
,
10000000
00000000
00100000
00000000
00010000
00000000
00001000
00000000
00000010
00000000
00000100
00000000
00000001
00000000
00000100
00001000
,
00000200
00000001
00000000
00000020
00000000
00000000
00000330
00000000
,
00010000
00100000
01000000
10000000
00100000
01000000
00110000
00000000
,
00001000
00000000
00000100
00002000
00000100
00000000
00003001
00000200
00000001
00000000
00001300
00000020
00001000
00000000
00000130
00000000
,
00000001
00000000
00000000
00000100
00000010
00000000
00000000
00001000
00000100
00000000
00010000
00000000
00011000
00000000
00000000
00000000
,
00100000
00000000
00000000
01000000
00010000
00000000
00000000
10000000
00100000
00000000
01000000
00000000
00110000
00000000
00000000
00000000
,
00001000
00000000
00001000
00000002
00001000
00000000
00000103
00000020
00000100
00000000
00001030
00000200
00001000
00000000
00010300
00000000
,
00010000
00100000
01000000
10000000
00100000
01000000
00010000
01000000
00100000
10000000
01000000
00100000
01000000
00100000
01000000
00100000
,
00010000
00001000
00000100
00000001
00001000
00000100
00002100
00000000
,
00013000
00100000
01000000
10000000
00000000
00100000
00010000
00001000
,
00000100
00000000
00000100
00000000
00000110
00000000
00000000
00000000
00000001
00000000
00000001
00000000
00001001
00000000
00000000
00000001
,
00000010
00000100
00000000
00001010
00000000
00000100
00001000
00000100
,
00000001
00000100
00001000
00010000
00001000
00110000
00000000
10100000
,
00000000
00000000
00110000
00000000
00000000
00000000
00010000
00001000
00000000
00000000
00010000
00000000
00001000
00000000
00000010
00000000
,
00000100
00000001
00000110
00000000
00000010
00000100
00001001
00000000
,
00000010
00000000
00000100
00000000
00000001
00000000
00001000
00000100
00020000
00000000
00000000
00000000
00002000
00000000
00033000
00000000
,
00100000
00000000
00010000
00000000
00100000
00000000
10000000
00000000
01000000
00000000
10000000
00000000
00000000
10000000
00010000
00000000
,
00000000
00010000
00001000
00000000
00000000
00001000
00000100
00000000
00000000
00000000
00000001
00000000
00000001
00000000
00000001
00000000
,
00000010
00000100
00000001
00001000
00000100
00000010
00001000
00010000
,
00100000
01000000
00000000
20010000
00000000
30010000
00100000
01000000
,
10000000
00000000
01000000
10000000
02000000
00000000
03010000
01000000
00020000
00000000
00130000
10000000
00200000
00000000
00301000
00010000
,
00002000
00000000
00003010
00000001
00000020
00000000
00000130
00000010
00000200
00000000
00001300
00000100
00002000
00000000
00003001
00000010
,
00000002
00000000
00001003
00000010
00000200
00000000
00000000
00000000
00010300
00000000
00100000
01000000
20000000
00000000
00000000
00000000
,
30100000
00000000
00001000
00010000
00000100
00000000
00000010
00000001
00001000
00000000
00000000
00000000
00002002
00000000
00000000
00000000
,
00000000
00000000
00000000
00003003
;

//---------------dance-double - ----------------
#NOTES:
     dance-double:
     :
     Medium:
     11:
     0.684,0.606,0.558,0.480,0.000,383.000,57.000,49.000,0.000,0.000,0.000,0.684,0.606,0.558,0.480,0.000,383.000,57.000,49.000,0.000,0.000,0.000:
00000000
00000000
00000000
00000000
,
00000000
00000000
00000000
00000000
,
10000000
00100000
01000000
00010000
00100000
02000000
00000000
00010000
,
00000000
00001000
00000000
03010000
00000000
00001000
00001000
00000000
,
00000001
00000010
00001000
00000100
00010000
00200000
00000000
01000000
,
00000000
10000000
00000000
00310000
00000000
00001000
00000100
00000000
,
00000001
00000010
00001000
00000010
00000001
00000200
00000000
00100000
,
00000000
00100000
00000000
00100300
00000000
00010000
00100000
00000000
,
00010000
00010000
00010000
00000000
01000000
01000000
02000000
00000000
,
13000000
00010000
01000000
00010000
00100000
00000000
00110000
00000000
,
00000100
00000000
00000001
00002000
00000000
00000000
00003100
00000000
,
00000001
00001000
00000010
00000100
00000001
00000000
00001100
00000000
,
00010000
00100000
00010000
00000000
01000000
00100000
01000000
00000000
,
10000000
00100000
00010000
01000000
00100000
10000000
00100000
00000000
,
00010000
00010000
00010000
00000000
00001020
00000000
00000130
00000000
,
00000100
00000001
00000010
00000000
00002000
00000000
00003010
00000000
,
00000011
00001010
00001100
00120000
,
01000000
00000000
10000000
00000000
00130000
00200000
00000000
00000000
,
00310000
01000000
00100000
10000000
00020000
00000000
00031000
00000000
,
00000100
00000010
00001000
00000001
00000110
00000000
00001001
00000000
,
00000001
00000010
00000001
00000010
00000002
00000000
00001003
00000000
,
00010000
00101000
00010000
01000000
,
10000000
00010000
01000000
00000000
00010000
00001000
00010000
00000000
,
00000010
00000100
00000001
00000100
00000010
00000100
00001000
00000000
,
00000002
00000203
00002300
00203000
,
00320000
20030000
32000000
03200000
,
00310000
00000000
00000110
00000020
00000000
00000130
00001000
00000001
,
00000110
00000000
00011000
00000000
00100000
00010000
00100000
00000000
,
00010000
10000000
00100000
00000000
01000000
00010000
10000000
00000000
,
00010000
00100000
00010000
00000000
00001000
00000100
00000001
00000000
,
00000100
00001000
00000010
00000100
00000001
00001000
00000100
00000000
,
00021000
00000000
00130000
00000000
10000000
00100000
10000000
00000000
,
01010000
00000000
00001100
00000000
00000001
00000010
00000100
00000000
,
00000100
00010000
00100000
00010000
00100000
01000000
00100000
01000000
,
20000000
00000000
00010000
30010000
,
10100000
01010000
00110000
00101000
,
00011000
00000000
00001100
00000000
00001001
00000000
00010000
00100000
,
10000000
00100000
00010000
00000000
01000000
10000000
00010000
00000000
,
00001000
00000001
00000100
00000010
00001000
00000001
00000100
00000000
,
00010100
00000000
00110000
00000000
10000000
10000000
10000000
00000000
,
10000000
00010000
10000000
00010000
10000000
00000000
00011000
00000000
,
00011000
00010010
00011000
00001100
,
00000001
00000010
00000100
00001000
00000100
00000000
00011000
00000000
,
00000200
00001000
00200300
10000000
,
00320000
00000000
00000100
00000000
00030200
00000000
00000010
00001000
,
00020300
02030000
23000000
30200000
,
00320000
00032000
00003020
00000230
,
00000302
00000023
00000230
00002300
,
00003002
00000000
00000013
00000100
00000000
00001000
00010000
00001000
,
00022000
00033000
00000000
00000000
00000000
00000000
00000000
00000000
20000000
00000000
00000000
00000000
00000000
00000000
00000000
00000000
00000000
00000000
00000000
00000000
00000000
00000000
00000000
00000000
00020000
00000000
00000000
00000000
00000000
00000000
00000000
00000000
00000000
00000000
00000000
00000000
00000000
00000000
00000000
00000000
00000000
00000000
00000000
00000000
00000000
00000000
00000000
00000000
30030000
00000000
00000000
00000000
00000000
00000000
00000000
00000000
00000000
00000000
00000000
00000000
00000000
00000000
00000000
00000000
,
10000000
00100000
10100000
00000000
00010000
00001000
00011000
00000000
,
00000001
00000010
00000100
00001000
00000100
00000010
00000001
00000000
,
00001100
00000000
00000101
00000000
00001000
00001000
00001000
00000000
,
00011000
00000000
00201000
00000000
00010000
00010000
00310000
00000000
,
10000000
00100000
00010000
00100000
10000000
00010000
00100000
00010000
,
00002000
00000000
00000001
00003001
,
00000011
00000000
00001100
00000000
00000101
00000000
00000010
00001000
,
00001010
00000000
00001000
00010000
00011000
00000000
10010000
00000000
,
01000000
00100000
01000000
00000000
00010000
10000000
00010000
00000000
,
00001000
00010000
00001000
00010000
00001000
00010000
00001000
00000000
,
00000011
00000000
00101000
00000000
00000010
00000010
00000010
00000000
,
00000001
00001000
00000100
00001000
00000001
00000000
00000100
00000000
,
00001000
00001000
00010000
00000000
10010000
00000000
10010000
00010000
,
00001000
00000001
00000100
00000010
00002000
00000000
00020000
00033000
,
01000000
00100000
10000000
00010000
01000000
00100000
00000000
00110000
,
00000000
01010000
00000000
00011000
00000000
00000100
00001000
00000000
,
00000001
00000010
00001000
00000100
00001000
00000010
00000000
00001010
,
00000000
00110000
00000000
11000000
00000000
01000000
00100000
00000000
,
10000000
01000000
00010000
01000000
10000000
01000000
00100000
00001000
,
00100000
01000000
00010000
00001000
00010000
00000100
00001000
00000001
,
00000100
00000100
00001100
00000000
00010000
00010000
00011000
00000000
,
00001000
00010000
00001000
00010000
00001000
00000000
00022000
00000000
,
00000000
00000000
00000000
00033000
;

//---------------dance-double - ----------------
#NOTES:
     dance-double:
     :
     Easy:
     8:
     0.511,0.570,0.509,0.343,0.000,278.000,52.000,35.000,0.000,0.000,0.000,0.511,0.570,0.509,0.343,0.000,278.000,52.000,35.000,0.000,0.000,0.000: // measure 0
00000000
00000000
00000000
00000000
,  // measure 1
00000000
00000000
00000000
00000000
,  // measure 2
00000001
00000110
00010000
00001000
,  // measure 3
00020000
00230000
00000000
20300000
,  // measure 4
30010000
00100000
10000000
00100000
,  // measure 5
00020000
00001000
00000000
00000100
,  // measure 6
00030000
00000010
00000001
00001000
,  // measure 7
00200000
01000000
00000000
01300000
,  // measure 8
11000000
00000000
00110000
00000000
,  // measure 9
00000110
00000101
00000110
00000101
,  // measure 10
00000100
00000000
00001000
00020000
00000000
00000000
00030000
00000000
,  // measure 11
00001100
00000000
00001000
00000000
00010000
00010000
00010000
00000000
,  // measure 12
00100000
10000000
00100000
00010000
,  // measure 13
01000000
00100000
00010000
10000000
,  // measure 14
00100000
00010000
00001000
00000001
,  // measure 15
00000100
00000001
00000010
00001000
,  // measure 16
00000010
00001010
00000100
00011000
,  // measure 17
00100000
00000000
00010000
00010000
00010000
00000000
01100000
00000000
,  // measure 18
10000000
10000000
10000000
00000000
00110000
00000000
00100100
00000000
,  // measure 19
00000001
00000001
00000001
00000000
00000010
00000000
00000100
00000000
,  // measure 20
00001000
00000100
00000010
00000000
00000001
00000000
00001000
00000000
,  // measure 21
00010000
00100000
01000000
10000000
,  // measure 22
00100000
01000000
00011000
00000000
,  // measure 23
00001010
00000101
00001010
00000000
,  // measure 24
00000011
00000110
00001100
00011000
,  // measure 25
00110000
01100000
11000000
10010000
,  // measure 26
00200000
00000000
00010000
00010000
00000000
00010000
00010000
00010000
,  // measure 27
00310000
00000000
00001000
00000000
00000100
00000100
00000100
00000000
,  // measure 28
00000001
00000010
00001000
00000100
,  // measure 29
00001000
00010000
00100000
11000000
,  // measure 30
00100000
00000000
00100000
00000000
10000000
10000000
10000000
00000000
,  // measure 31
00100000
01000000
00010000
00001000
,  // measure 32
00000001
00000100
00000010
00000100
,  // measure 33
00001000
00100000
10000000
00010000
,  // measure 34
00102000
00000000
00010000
00013000
,  // measure 35
00000001
00001100
00010000
10010000
,  // measure 36
01100000
10010000
01100000
10010000
,  // measure 37
00001000
00000001
00000100
00000010
,  // measure 38
00001000
00001000
00001000
00000000
00000001
00000000
00000100
00000000
,  // measure 39
00011000
00110000
01000000
10000000
,  // measure 40
00010000
01000000
00100000
10000000
,  // measure 41
00010000
00001000
00000001
00000100
,  // measure 42
00010000
00001000
00010000
00001000
00010000
00000000
11000000
00000000
,  // measure 43
21000000
30010000
00201000
00310000
,  // measure 44
00002100
00003001
00002001
00003100
,  // measure 45
00002000
00203000
02300000
03020000
,  // measure 46
20030000
30020000
00032000
00003002
,  // measure 47
00002003
00003020
00002030
00203000
,  // measure 48
02000000
00000000
00000000
03300000
,  // measure 49
00011000
00002000
00000000
00020000
00000000
00000000
00033000
00000000
,  // measure 50
00000001
00000010
00001000
00000010
,  // measure 51
00010000
00000000
00100000
00000000
10000000
10000000
10000000
00000000
,  // measure 52
01100000
00010000
00000100
00000001
,  // measure 53
00000020
00001000
00000130
00010000
,  // measure 54
00100000
10000000
00100000
00010000
,  // measure 55
00001200
00000000
00000001
00000301
,  // measure 56
00001000
00000100
00000001
00000010
,  // measure 57
00001000
00010000
10000000
00100000
,  // measure 58
01000000
00010000
10000000
00100000
,  // measure 59
00010000
00001000
00010000
00000000
00000100
00000000
00000001
00000000
,  // measure 60
00001010
00002010
00000100
00010000
,  // measure 61
00013000
01000000
10000000
00200000
,  // measure 62
00300000
00011000
00000000
00011000
,  // measure 63
00001000
00010000
00001000
00010000
00001000
00000000
00011000
00000000
,  // measure 64
00000001
00000010
00000100
00001000
,  // measure 65
02000000
00010000
00000000
03100000
,  // measure 66
00000000
10000000
00100000
00010000
,  // measure 67
02000000
00010000
00000000
03010000
,  // measure 68
00001000
00000100
00000001
00000100
,  // measure 69
00001000
00100000
00010000
10000000
,  // measure 70
00010000
00011000
00011000
00011000
,  // measure 71
00000100
00001000
00000100
00001000
00000100
00000000
00022000
00000000
,  // measure 72
00000000
00000000
00000000
00033000
;

//---------------dance-double - ----------------
#NOTES:
     dance-double:
     :
     Challenge:
     18:
     1.000,1.000,0.460,0.215,0.769,654.000,47.000,22.000,0.000,0.000,0.000,1.000,1.000,0.460,0.215,0.769,654.000,47.000,22.000,0.000,0.000,0.000:
00000000
00000000
00000000
00000000
,
00000000
00000000
00000000
00000000
,
10000000
00100000
01000000
00010000
00100000
01000000
10000000
00010000
,
00000000
00011000
00000000
00100100
00000000
00011000
00010000
00011000
,
00001000
00000000
00000100
00000000
00000001
00000000
00000100
00000000
00001000
00010000
00001000
00000000
01000000
00100000
01000000
00000000
,
10000000
00100000
10000000
00000000
00100000
00010000
00100000
00000000
00001000
00000000
00010000
00000000
00000100
00000000
00000001
00000000
,
00000100
00000000
00001000
00000000
00010000
00000000
00100000
00000000
01000000
00000000
10000000
00000000
01000000
00100000
00010000
00000000
,
01000000
00001000
00100000
00000000
00010000
00000000
00001000
00000000
00000010
00000000
00000100
00000000
00000001
00000010
00000001
00000100
,
00000010
00001000
00010000
00000000
00100000
00100000
00200000
00000000
,
00310000
01000000
00100000
10000000
01000000
00100000
00010000
00001000
00010000
00000100
00001000
00000001
00000100
00000001
00001000
00000020
,
00000200
00000000
00000000
00000000
00000030
00000000
00000000
00000000
00000000
00000000
00000300
00000000
00000000
00000000
00001000
00010000
,
00001000
00010000
00100000
00000000
21000000
00000000
00010000
00000000
,
30010000
00001000
00000010
00000001
00000010
00001000
00000001
00000100
,
00001000
00000000
00010000
01000000
10000000
00000000
01000000
00100000
01000000
00010000
00100000
00001000
00010000
00000100
00001000
00000100
,
00000010
00000001
00001000
00000010
00000001
00000100
00001000
00000001
,
00000010
00001000
00010000
10000000
00100000
01000000
00020000
00000000
,
00030010
00000100
00001001
00000010
00000100
00000001
00001100
00000000
,
00010000
00000000
00100000
00000000
10000000
00000000
01000000
00000000
00100000
00010000
01000000
00100000
10000000
01000000
00100000
00010000
,
10000000
00010000
00001000
00000100
00000010
00000001
00000010
00001000
,
00000100
00000010
00001001
00000000
00011000
00000000
00110000
00000000
,
00100000
00010000
01000000
00010000
00100000
00110000
00000000
00010100
,
00000000
00000000
00011000
00000000
00000000
00000000
00001000
00000000
00000010
00000000
00000100
00000001
00000100
00000000
00000001
00000010
,
00000001
00000000
00000010
00000000
00001100
00000000
00000100
00000000
00001000
00000000
00010000
00000000
01000000
00000000
00100000
00010000
,
00100000
00000000
10000000
01000000
00100000
00010000
01000000
00100000
10000000
00000000
00010000
00001000
00000100
00000000
00000001
00000010
,
00000001
00000000
00001010
00000000
00000100
00000000
00000001
00001000
00000010
00000000
00001000
00000000
00000100
00000000
00010000
00000000
,
00100000
01000000
00010000
10000000
01000000
00100000
00010000
00100000
00010000
00001000
00010000
00001000
00000001
00000100
00000010
00001000
,
00000001
00000000
00000011
00000011
00000000
00001100
00001100
00011000
,
00011000
00100000
10000000
01000000
00010000
00100000
00010000
01000000
,
10000000
00010000
00001000
00010000
00012000
00000000
00003001
00000001
,
00000001
00001000
00000010
00000000
00000100
00001000
00010000
00000000
01000000
00010000
00100000
01000000
10000000
00000000
00010000
00000000
,
00000100
00000000
00000001
00000000
00000010
00000000
00000100
00000000
00000001
00000010
00000001
00000010
00000100
00001000
00000100
00001000
,
00000001
00000000
00000100
00000000
00000010
00000000
00000100
00000000
00001000
00010000
00100000
00010000
00100000
00000000
01000000
00000000
,
10000000
00100000
00010000
00000000
01000000
00100000
00010000
00000000
01000000
00010000
00100000
00001000
00010000
00000000
00000010
00000000
,
00000001
00000000
00000001
00001000
00000100
00000000
00000100
00000001
00000010
00000000
00000010
00001000
00000100
00000000
00000100
00000000
,
00010000
00100000
01000000
10000000
00010000
01000000
00100000
10000000
00010000
00001000
00010000
00001000
00010000
00000100
00001000
00000100
,
00010000
00000000
00001000
00000000
00000001
00000000
00000100
00000000
00000010
00000001
00001000
00000000
00000000
00002000
00103000
00000000
,
00000000
00100000
00010000
00000000
00000000
00000000
11000000
00000000
00010000
00000000
00100000
00000000
10000000
00000000
00100000
00000000
,
00010000
00000000
10000000
00000000
01000000
00000000
00010000
00000000
00100000
00000000
10000000
01000000
00010000
00000000
00001000
00000000
,
00000000
00000000
00012000
00000000
00000000
00000000
00003010
00000000
00000000
00000000
00000001
00000010
00000100
00001000
00000001
00000100
,
00000010
00000000
00001000
00000000
00012000
00000000
00013000
00000000
01000000
00100000
10000000
00000000
00000000
00000000
10010000
00000000
,
00000000
00000000
01000000
00000000
00010000
00000000
00100000
00000000
00001000
00000100
00001000
00000100
00000010
00001000
00000010
00001000
,
00000001
00000000
00000010
00001000
00000010
00000000
00001000
00000100
00001000
00000000
00010000
00001000
00010000
00000000
00100000
00010000
,
00100000
00000000
10000000
00000000
01000000
00000000
00010000
00100000
00010000
00000000
00000000
00000000
00011000
00000000
00000000
00000000
,
00000001
00000000
00000100
00000000
00000010
00001000
00000000
00000110
00000000
00000101
00000000
00001020
00000000
00001000
00001000
00001000
,
00001030
00000000
00010000
00000000
00100000
10000000
00000000
11000000
00000000
01100000
00000000
00110000
00000000
00001000
00000100
00000001
,
00000010
00000000
00001000
00000100
00000001
00000000
00000100
00000000
00001000
00000000
00000010
00000000
00000001
00000000
00000100
00000000
,
00001000
00000000
00010000
00001000
00010000
00000000
00100000
00000000
01000000
00000000
10000000
00000000
00100000
00000000
01000000
00000000
,
00010000
00000000
00010000
00001000
00000100
00000000
00000001
00000000
00000010
00000100
00001000
00000000
00000001
00000010
00000100
00001000
,
00000100
00000000
00000011
00000000
00000000
00000000
00001100
00000000
00000000
00000000
00010100
00000000
00011000
00000000
00001000
00020000
,
00002000
00033000
00000000
00000000
00000000
00000000
00000000
00000000
00200000
00000000
00000000
00000000
00000000
00000000
00000000
00000000
00000000
00000000
00000000
00000000
00000000
00000000
00000000
00000000
00020000
00000000
00000000
00000000
00000000
00000000
00000000
00000000
00000000
00000000
00000000
00000000
00000000
00000000
00000000
00000000
00000000
00000000
00000000
00000000
00000000
00000000
00000000
00000000
00330000
00000000
00000000
00000000
00000000
00000000
00000000
00000000
00000000
00000000
00000000
00000000
00000000
00000000
00000000
00000000
,
10000000
00000000
01000000
00010000
02000000
00000000
03100000
10000000
00200000
00000000
00310000
00001000
00010000
00000000
00000100
00000000
,
00000001
00000010
00001000
00000010
00000101
00000001
00000100
00000010
,
00001000
00000000
00010000
00000000
10000000
00000000
00100000
00000000
01000000
00010000
01000000
10000000
01000000
00000000
00100000
00000000
,
00001000
00000000
00000001
00000000
00000100
00000000
00000010
00000000
00000001
00000100
00000010
00000000
00001000
00000000
00000100
00000000
,
00000001
00000010
00000100
00001000
00000001
00000100
00000010
00001000
00000100
00000010
00000001
00001000
00000100
00001000
00000100
00001000
,
00010000
01000000
00100000
10000000
01000000
00100000
00010000
10000000
01000000
00100000
01000000
00100000
00010000
10000000
00100000
01000000
,
00010000
00000000
00001010
00000000
00000011
00001100
00000000
00001001
,
00000000
00001010
00000000
00001100
00000000
00000002
00000100
00000103
,
00001000
00000100
00000010
00000001
00000100
00000010
00001000
00000100
,
00010000
00001000
00010000
00000000
00100000
00001000
00100000
00000000
00010000
00100000
01000000
10000000
00100000
01000000
00010000
10000000
,
00100000
00010000
00001000
00000001
00000100
00000010
00001000
00000100
,
00000010
00000001
00000010
00001000
00000010
00001000
00100000
00010000
,
10000000
00100000
01000000
00000000
00010000
00100000
00120000
00000000
,
00031000
00000001
00000010
00000100
00002000
00000000
00000002
00003003
,
00000010
00000100
00001000
00100000
10000000
01000000
00010000
01000000
,
10000000
00000000
00001000
00100000
00000000
00000000
00001000
00010000
00000100
00000000
00001000
00000000
00000010
00000000
00000100
00000000
,
00000001
00001000
00010000
10000000
00100000
00010000
00100000
01000000
,
10000000
00010000
00001000
00000100
00000001
00000100
00000100
00000100
,
00000001
00000010
00000100
00001000
00000010
00000100
00000001
00000010
00000100
00001000
00000100
00001000
00000001
00000100
00000001
00001000
,
00010000
00100000
10000000
01000000
10000000
00100000
00010000
00100000
10000000
01000000
00100000
00010000
10000000
00100000
01000000
00010000
,
10000000
00000000
00100000
00010000
00001000
00000000
00000010
00000100
00000001
00000000
00001000
00000100
00010000
00000000
00100000
01000000
,
10000000
00000000
00100000
00010000
10000000
00000000
00100000
01000000
10010000
00000000
00000000
00000000
00022000
00000000
00000000
00000000
,
00000000
00000000
00000000
00033000
;
