#VERSION:0.81;
#TITLE:Resurrection;
#SUBTITLE:;
#ARTIST:Dormir;
#TITLETRANSLIT:;
#SUBTITLETRANSLIT:;
#ARTISTTRANSLIT:;
#GENRE:;
#ORIGIN:;
#CREDIT:;
#BANNER:Resurrection.png;
#BACKGROUND:Resurrection-bg.png;
#PREVIEWVID:;
#JACKET:Resurrection-jacket.png;
#CDIMAGE:;
#DISCIMAGE:;
#LYRICSPATH:;
#CDTITLE:./CDTITLES/DanceDanceRevolution X3.png;
#MUSIC:Resurrection.mp3;
#OFFSET:1.380;
#SAMPLESTART:41.440;
#SAMPLELENGTH:15.000;
#SELECTABLE:YES;
#BPMS:0.000=140.000;
#STOPS:;
#DELAYS:;
#WARPS:;
#TIMESIGNATURES:0.000=4=4;
#TICKCOUNTS:0.000=4;
#COMBOS:0.000=1;
#SPEEDS:0.000=1.000=0.000=0;
#SCROLLS:0.000=1.000;
#FAKES:;
#LABELS:0.000=Song Start;
#BGCHANGES:;
#KEYSOUNDS:;
#ATTACKS:
;

//---------------dance-single - ----------------
#NOTEDATA:;
#CHARTNAME:;
#STEPSTYPE:dance-single;
#DESCRIPTION:;
#CHARTSTYLE:;
#DIFFICULTY:Easy;
#METER:5;
#RADARVALUES:0.231,0.215,0.000,0.247,0.000,144.000,0.000,26.000,0.000,0.000,0.000,0.000,0.000,0.231,0.215,0.000,0.247,0.000,144.000,0.000,26.000,0.000,0.000,0.000,0.000,0.000;
#CREDIT:;
#OFFSET:1.380;
#BPMS:0.000=140.000
;
#STOPS:;
#DELAYS:;
#WARPS:;
#TIMESIGNATURES:0.000=4=4
;
#TICKCOUNTS:0.000=4
;
#COMBOS:0.000=1
;
#SPEEDS:0.000=1.000=0.000=0
;
#SCROLLS:0.000=1.000
;
#FAKES:;
#LABELS:0.000=Song Start
;
#NOTES:
0000
0000
0000
0000
,
0000
0000
0000
0000
,
0000
0000
0000
0000
,
0000
0000
0000
0000
,
0000
0000
0000
0000
,
0001
0010
1000
0000
,
0001
0100
1000
0000
,
1000
0010
0001
0000
,
1000
0100
0001
0000
,
1000
2000
0000
3000
,
0001
0002
0000
0003
,
1000
2000
0000
3000
,
0001
0002
0000
0003
,
0100
0200
0000
0300
,
0010
0020
0000
0030
,
0100
0200
0000
0300
,
0001
1000
0000
0000
,
0001
2000
0000
3010
,
0100
0002
0000
0013
,
0001
0020
0000
0130
,
1000
0002
0000
1003
,
0010
0200
0000
0310
,
0100
0020
0000
0130
,
0001
0200
0000
0301
,
0010
0100
0000
0100
,
0001
0001
0100
0000
,
1000
1000
0010
0000
,
0001
0001
0010
0000
,
0100
0100
1000
0000
,
0001
1000
0100
0000
,
1000
0001
0100
0000
,
0010
1000
0001
0000
,
0010
0001
1000
0000
,
0002
0003
2000
3000
,
0001
0100
1000
0100
,
2000
3000
0002
0003
,
1000
0100
0001
0100
,
0010
1000
0010
0000
,
0001
0100
0001
0000
,
0010
1000
0100
0000
,
0010
0001
1000
0000
,
0100
0020
0000
0030
,
0100
0020
0000
0030
,
0100
0020
0000
0030
,
0100
0020
0000
0030
,
0100
0002
0000
0003
,
1000
0002
0000
0003
,
0010
0002
0000
0003
,
1000
0002
0000
0003
,
0100
0100
0010
0100
,
0010
1000
0100
0000
,
0010
0010
0100
0010
,
0001
0100
0001
0000
,
0100
0100
0010
0100
,
0010
0001
0100
0000
,
0010
0010
0100
0010
,
1000
0100
1000
0000
;

//---------------dance-single - ----------------
#NOTEDATA:;
#CHARTNAME:;
#STEPSTYPE:dance-single;
#DESCRIPTION:;
#CHARTSTYLE:;
#DIFFICULTY:Medium;
#METER:7;
#RADARVALUES:0.338,0.378,0.114,0.323,0.000,203.000,12.000,34.000,0.000,0.000,0.000,0.000,0.000,0.338,0.378,0.114,0.323,0.000,203.000,12.000,34.000,0.000,0.000,0.000,0.000,0.000;
#CREDIT:;
#OFFSET:1.380;
#BPMS:0.000=140.000
;
#STOPS:;
#DELAYS:;
#WARPS:;
#TIMESIGNATURES:0.000=4=4
;
#TICKCOUNTS:0.000=4
;
#COMBOS:0.000=1
;
#SPEEDS:0.000=1.000=0.000=0
;
#SCROLLS:0.000=1.000
;
#FAKES:;
#LABELS:0.000=Song Start
;
#NOTES:
0000
0000
0000
0000
,
0000
0000
0000
0000
,
0000
0000
0000
0000
,
0000
0000
0000
0000
,
0000
0000
0000
0000
,
1000
0010
0001
1000
,
0100
0001
0010
1000
,
0001
0100
1000
0010
,
0001
1000
0100
0000
,
0001
0100
0002
0000
0000
0000
0003
0000
,
1000
0100
2000
0000
0000
0000
3000
0000
,
0001
0100
0002
0000
0000
0000
0003
0000
,
1000
0001
2000
0000
0000
0000
3000
0000
,
0001
0100
0002
0000
0000
0000
0003
0000
,
1000
0100
2000
0000
0000
0000
3000
0000
,
0010
0100
0020
0000
0000
0000
0030
0000
,
1000
0000
0010
0100
0000
0000
0001
0000
,
1000
0001
0002
0000
0000
0000
0013
0000
,
0100
1000
2000
0000
0000
0000
3010
0000
,
1000
0010
0020
0000
0000
0000
0130
0000
,
0001
1000
2000
0000
0000
0000
3001
0000
,
0010
0100
0200
0000
0000
0000
0310
0000
,
0100
0010
0020
0000
0000
0000
0130
0000
,
1000
1000
0200
0000
0000
0000
1300
0000
,
0010
0000
0100
0001
0000
0000
0100
0000
,
1000
0100
1000
0000
0100
0000
0100
0000
,
0001
0010
0001
0000
0100
0000
0100
0000
,
0010
0100
0010
0000
1000
0000
1000
0000
,
0001
1000
0001
0000
0100
0000
0100
0000
,
1000
0001
0100
0000
0001
0000
0001
0000
,
0010
0001
0100
0000
0001
0000
0001
0000
,
0100
0010
1000
0000
0010
0000
0010
0000
,
1000
0000
0001
0100
0000
0000
1000
0000
,
2001
3010
1002
0013
,
2000
0100
3002
0103
,
0021
0130
1020
0130
,
0002
0010
2003
3010
,
0100
0001
0010
1000
,
0100
0000
1000
0000
0001
0100
0001
0000
,
0010
0001
0100
1000
,
0010
0000
0001
0000
1000
0000
0000
1000
,
0100
0000
0020
0000
0000
0000
0030
0001
,
0100
0000
0020
0000
0000
0000
0030
1000
,
0100
0000
0020
0000
0000
0000
0030
0001
,
0100
0000
0020
0000
0000
0000
0030
1000
,
0100
0000
2000
0000
0000
0000
3000
0001
,
0100
0000
0002
0000
0000
0000
0003
1000
,
0010
0000
2000
0000
0000
0000
3000
0001
,
0010
0002
0000
0003
,
1100
0000
0101
0000
0010
1000
0100
0000
,
0020
0001
0100
0031
,
1010
0000
0011
0000
0100
0010
1000
0000
,
0002
1000
0100
1003
,
0101
0000
1100
0000
0010
0001
0100
0000
,
0020
1000
0100
1030
,
0011
0000
1010
0000
0100
0010
0001
0000
,
2000
0001
0100
3001
;

//---------------dance-single - ----------------
#NOTEDATA:;
#CHARTNAME:;
#STEPSTYPE:dance-single;
#DESCRIPTION:;
#CHARTSTYLE:;
#DIFFICULTY:Hard;
#METER:10;
#RADARVALUES:0.425,0.432,0.228,0.219,0.000,266.000,24.000,23.000,0.000,0.000,0.000,0.000,0.000,0.425,0.432,0.228,0.219,0.000,266.000,24.000,23.000,0.000,0.000,0.000,0.000,0.000;
#CREDIT:;
#OFFSET:1.380;
#BPMS:0.000=140.000
;
#STOPS:;
#DELAYS:;
#WARPS:;
#TIMESIGNATURES:0.000=4=4
;
#TICKCOUNTS:0.000=4
;
#COMBOS:0.000=1
;
#SPEEDS:0.000=1.000=0.000=0
;
#SCROLLS:0.000=1.000
;
#FAKES:;
#LABELS:0.000=Song Start
;
#NOTES:
0000
0000
0000
0000
,
0000
0000
0000
0000
,
0000
0000
0000
0000
,
0000
0000
0000
0000
,
0000
0000
0000
0000
,
0001
0000
0010
0000
1000
0000
0001
0100
,
1000
0000
0010
0000
0001
0000
1000
0100
,
0001
0000
0010
0000
1000
0000
0001
0100
,
1000
0010
0001
0100
,
1000
0100
2000
0000
0010
0000
3010
0000
,
0001
0100
0002
0000
0010
0000
0013
0000
,
0100
1000
0200
0000
0010
0000
0310
0000
,
0001
1000
0002
0000
0100
0000
0103
0000
,
0010
1000
0200
0000
0010
0000
0310
0000
,
0001
0100
2000
0000
0100
0000
3100
0000
,
0001
1000
0200
0000
0010
0000
0310
0000
,
0001
1000
0010
0200
0000
0000
0310
0000
,
1000
0020
0100
0000
0030
0010
1000
0000
,
0001
0020
0100
0000
0030
0010
0001
0000
,
1000
0002
0100
0000
0003
0001
1000
0000
,
0001
2000
0010
0000
3000
1000
0001
0000
,
0010
0200
1000
0000
0300
0100
0010
0000
,
0001
0200
0010
0000
0300
0100
0001
0000
,
0010
0002
0100
0000
0003
0001
0010
0000
,
0100
1000
0001
0100
0000
0010
1000
0000
,
0001
0010
0001
0000
0100
0000
0100
0010
,
1000
0010
0100
0001
0100
0000
0100
0000
,
0010
1000
0001
0000
0010
0000
0010
0100
,
1000
0100
0010
0001
1000
0000
1000
0000
,
0001
1000
0100
0000
1000
0000
1000
0001
,
0100
1000
0100
0001
1000
0000
1000
0000
,
0001
0010
1000
0000
0010
0000
0010
0001
,
1000
0010
0100
0001
1000
0000
1000
0000
,
1010
0101
0011
1100
,
1001
0110
1001
0110
,
1010
0101
0011
1100
,
1001
0110
1001
0110
,
0010
1000
0100
0001
,
0010
0000
0001
0000
1000
0100
0001
0000
,
0010
0001
0100
1000
,
0010
0000
1000
0000
0001
0000
1000
0001
,
0200
0000
0010
0000
0000
0000
0310
1000
,
0200
0000
0010
0000
0000
0000
0310
0001
,
0200
0000
0010
0000
0000
0000
0310
1000
,
0200
0000
0010
0000
0000
0000
0310
0001
,
0200
0000
1000
0000
0000
0000
1300
0100
,
0002
0000
1000
0000
0000
0000
1003
0001
,
0020
0000
1000
0000
0000
0000
1030
0010
,
0002
0000
1000
0000
0000
0000
1003
0010
,
0101
0000
1100
0000
0010
0001
0100
0001
,
0010
0100
1000
0001
0100
0010
1000
0000
,
0011
0000
1010
0000
0100
0010
0001
1000
,
0010
1000
0001
1000
0100
0010
0001
0000
,
1100
0000
0101
0000
0010
1000
0100
1000
,
0010
0100
0001
1000
0100
0010
0001
0000
,
1010
0000
0011
0000
0100
0010
1000
0001
,
0010
0001
1000
0001
0100
0010
1000
0000
;

//---------------dance-double - ----------------
#NOTEDATA:;
#CHARTNAME:;
#STEPSTYPE:dance-double;
#DESCRIPTION:;
#CHARTSTYLE:;
#DIFFICULTY:Easy;
#METER:5;
#RADARVALUES:0.231,0.216,0.000,0.247,0.000,144.000,0.000,26.000,0.000,0.000,0.000,0.000,0.000,0.231,0.216,0.000,0.247,0.000,144.000,0.000,26.000,0.000,0.000,0.000,0.000,0.000;
#CREDIT:;
#OFFSET:1.380;
#BPMS:0.000=140.000
;
#STOPS:;
#DELAYS:;
#WARPS:;
#TIMESIGNATURES:0.000=4=4
;
#TICKCOUNTS:0.000=4
;
#COMBOS:0.000=1
;
#SPEEDS:0.000=1.000=0.000=0
;
#SCROLLS:0.000=1.000
;
#FAKES:;
#LABELS:0.000=Song Start
;
#NOTES:
00000000
00000000
00000000
00000000
,
00000000
00000000
00000000
00000000
,
00000000
00000000
00000000
00000000
,
00000000
00000000
00000000
00000000
,
00000000
00000000
00000000
00000000
,
00001000
00000010
00000001
00000000
,
00000001
00000100
00001000
00000000
,
00010000
01000000
10000000
00000000
,
10000000
00100000
00010000
00000000
,
00001000
00002000
00000000
00003000
,
00010000
00020000
00000000
00030000
,
00000010
00000020
00000000
00000030
,
00000100
00000200
00000000
00000300
,
00000001
00000002
00000000
00000003
,
00001000
00002000
00000000
00003000
,
00000100
00000200
00000000
00000300
,
00010000
00001000
00000000
00000000
,
00100000
00020000
00000000
01030000
,
00100000
20000000
00000000
31000000
,
00010000
00002000
00000000
00013000
,
00000100
00002000
00000000
00003001
,
00000010
00000200
00000000
00000310
,
00001000
00020000
00000000
00031000
,
00100000
00020000
00000000
01030000
,
00100000
01000000
00000000
01000000
,
00100000
10000000
00010000
00000000
,
00100000
00010000
10000000
00000000
,
01000000
00010000
00001000
00000000
,
00000010
00000001
00001000
00000000
,
00000010
00000100
00000001
00000000
,
00000100
00001000
00010000
00000000
,
00000010
00010000
00000100
00000000
,
00010000
00001000
00010000
00000000
,
00200000
00300000
20000000
30000000
,
00010000
00100000
01000000
10000000
,
02000000
03000000
00020000
00030000
,
00001000
00000010
00000001
00000100
,
00000010
00000001
00000010
00000000
,
00001000
00000100
00001000
00000000
,
00010000
00001000
00010000
00000000
,
00100000
01000000
00100000
00000000
,
10000000
00020000
00000000
00030000
,
01000000
00200000
00000000
00300000
,
00010000
00002000
00000000
00003000
,
00000100
00000020
00000000
00000030
,
00001000
00000002
00000000
00000003
,
00000010
00000200
00000000
00000300
,
00001000
00020000
00000000
00030000
,
01000000
00200000
00000000
00300000
,
10000000
00010000
01000000
00000000
,
00100000
00010000
00001000
00000100
,
00000010
00001000
00000001
00000000
,
00000100
00001000
00010000
01000000
,
10000000
00010000
00100000
00000000
,
00001000
01000000
00010000
00100000
,
01000000
00100000
00010000
00000000
,
00001000
00000100
00000010
00000001
;

//---------------dance-double - ----------------
#NOTEDATA:;
#CHARTNAME:;
#STEPSTYPE:dance-double;
#DESCRIPTION:;
#CHARTSTYLE:;
#DIFFICULTY:Medium;
#METER:8;
#RADARVALUES:0.329,0.351,0.114,0.247,0.000,204.000,12.000,26.000,0.000,0.000,0.000,0.000,0.000,0.329,0.351,0.114,0.247,0.000,204.000,12.000,26.000,0.000,0.000,0.000,0.000,0.000;
#CREDIT:;
#OFFSET:1.380;
#BPMS:0.000=140.000
;
#STOPS:;
#DELAYS:;
#WARPS:;
#TIMESIGNATURES:0.000=4=4
;
#TICKCOUNTS:0.000=4
;
#COMBOS:0.000=1
;
#SPEEDS:0.000=1.000=0.000=0
;
#SCROLLS:0.000=1.000
;
#FAKES:;
#LABELS:0.000=Song Start
;
#NOTES:
00000000
00000000
00000000
00000000
,
00000000
00000000
00000000
00000000
,
00000000
00000000
00000000
00000000
,
00000000
00000000
00000000
00000000
,
00000000
00000000
00000000
00000000
,
10000000
00100000
00010000
10000000
,
01000000
00010000
00001000
00000100
,
00000001
00000100
00001000
00000010
,
00000001
00000100
00001000
00000000
,
00010000
00001000
00020000
00000000
00000000
00000000
00030000
00000000
,
00100000
01000000
00200000
00000000
00000000
00000000
00300000
00000000
,
10000000
01000000
20000000
00000000
00000000
00000000
30000000
00000000
,
00010000
10000000
00020000
00000000
00000000
00000000
00030000
00000000
,
01000000
00001000
00020000
00000000
00000000
00000000
00030000
00000000
,
00000010
00001000
00000200
00000000
00000000
00000000
00000300
00000000
,
00001000
00000001
00000200
00000000
00000000
00000000
00000300
00000000
,
00000010
00000000
00010000
00001000
00000000
00000000
00010000
00000000
,
01000000
10000000
02000000
00000000
00000000
00000000
03100000
00000000
,
00010000
01000000
20000000
00000000
00000000
00000000
31000000
00000000
,
00100000
01000000
00200000
00000000
00000000
00000000
00310000
00000000
,
00001000
00010000
00002000
00000000
00000000
00000000
00013000
00000000
,
00000100
00001000
00000200
00000000
00000000
00000000
00000310
00000000
,
00000001
00001000
00000200
00000000
00000000
00000000
00000310
00000000
,
00001000
00010000
00002000
00000000
00000000
00000000
00013000
00000000
,
01000000
00000000
00100000
00010000
00000000
00000000
10000000
00000000
,
00100000
10000000
00100000
00000000
01000000
00000000
01000000
00000000
,
00010000
00100000
00010000
00000000
01000000
00000000
01000000
00000000
,
00001000
00010000
00001000
00000000
00000100
00000000
00000100
00000000
,
00000010
00000100
00000010
00000000
00001000
00000000
00001000
00000000
,
00000100
00000010
00000001
00000000
00000100
00000000
00000100
00000000
,
00001000
00010000
01000000
00000000
10000000
00000000
10000000
00000000
,
01000000
00100000
00010000
00000000
01000000
00000000
01000000
00000000
,
00100000
00000000
00010000
00001000
00000000
00000000
00010000
00000000
,
00001020
00000130
00000021
00000130
,
00000010
00000000
00001000
00000000
00010000
00001000
00010000
00000000
,
00210000
01300000
10200000
01300000
,
00100000
00000000
00010000
00000000
00001000
00010000
00001000
00000000
,
00000100
00000001
00001000
00000100
,
00000010
00001000
00100000
01000000
,
10000000
00010000
01000000
00100000
,
00010000
00000000
00000010
00000000
00000100
00000000
00000000
00000001
,
00001000
00000000
00000200
00000000
00000000
00000000
00000300
00000010
,
00000100
00000000
00020000
00000000
00000000
00000000
00030000
00000010
,
00000100
00000000
00002000
00000000
00000000
00000000
00003000
00000100
,
00000010
00000000
00020000
00000000
00000000
00000000
00030000
00001000
,
00100000
00000000
02000000
00000000
00000000
00000000
03000000
00100000
,
00001000
00000000
02000000
00000000
00000000
00000000
03000000
00100000
,
10000000
00000000
02000000
00000000
00000000
00000000
03000000
00100000
,
00001000
00020000
00000000
00030000
,
00001010
00000000
00000101
00000000
00001000
00000001
00000100
00000000
,
00000001
00001000
00010000
10000000
,
00110000
00000000
11000000
00000000
00010000
10000000
01000000
00000000
,
10000000
00010000
00001000
00000001
,
00000110
00000000
00001001
00000000
00000010
00001000
00000100
00000000
,
00010000
01000000
10000000
00100000
,
01100000
00000000
10010000
00000000
00100000
00010000
01000000
00000000
,
00001000
00000100
00000001
00000010
;

//---------------dance-double - ----------------
#NOTEDATA:;
#CHARTNAME:;
#STEPSTYPE:dance-double;
#DESCRIPTION:;
#CHARTSTYLE:;
#DIFFICULTY:Hard;
#METER:10;
#RADARVALUES:0.413,0.405,0.152,0.219,0.000,265.000,16.000,23.000,0.000,0.000,0.000,0.000,0.000,0.413,0.405,0.152,0.219,0.000,265.000,16.000,23.000,0.000,0.000,0.000,0.000,0.000;
#CREDIT:;
#OFFSET:1.380;
#BPMS:0.000=140.000
;
#STOPS:;
#DELAYS:;
#WARPS:;
#TIMESIGNATURES:0.000=4=4
;
#TICKCOUNTS:0.000=4
;
#COMBOS:0.000=1
;
#SPEEDS:0.000=1.000=0.000=0
;
#SCROLLS:0.000=1.000
;
#FAKES:;
#LABELS:0.000=Song Start
;
#NOTES:
00000000
00000000
00000000
00000000
,
00000000
00000000
00000000
00000000
,
00000000
00000000
00000000
00000000
,
00000000
00000000
00000000
00000000
,
00000000
00000000
00000000
00000000
,
00001000
00000000
00000010
00000000
00000001
00000000
00001000
00000100
,
00000001
00000000
00000010
00000000
00001000
00000000
00010000
01000000
,
10000000
00000000
00100000
00000000
00010000
00000000
00001000
00000100
,
00000001
00000010
00001000
00010000
,
00000010
00001000
00000020
00000000
00000100
00000000
00000130
00000000
,
00001000
00010000
00002000
00000000
00010000
00000000
00013000
00000000
,
01000000
10000000
02000000
00000000
00100000
00000000
03100000
00000000
,
00010000
01000000
00020000
00000000
10000000
00000000
10030000
00000000
,
00100000
00010000
00200000
00000000
01000000
00000000
01300000
00000000
,
00001000
00010000
00002000
00000000
00010000
00000000
00013000
00000000
,
00000010
00000100
00000020
00000000
00001000
00000000
00001030
00000000
,
00000001
00000010
00000100
00002000
00000000
00000000
00003100
00000000
,
00010000
00000020
00000100
00000000
00000030
00000010
00001000
00000000
,
00010000
02000000
00100000
00000000
03000000
01000000
00010000
00000000
,
10000000
02000000
00010000
00000000
03000000
01000000
10000000
00000000
,
00010000
00200000
00001000
00000000
00300000
00100000
00010000
00000000
,
00001000
00000200
00000010
00000000
00000300
00000100
00001000
00000000
,
00000010
00000200
00000001
00000000
00000300
00000100
00000010
00000000
,
00001000
00000020
00000001
00000000
00000030
00000010
00001000
00000000
,
00010000
01000000
00100000
10000000
00000000
00100000
01000000
00000000
,
00100000
10000000
01000000
00000000
00010000
00000000
00010000
00001000
,
00000100
00000010
00001000
00000100
00000010
00000000
00000010
00000000
,
00000001
00000100
00001000
00000000
00010000
00000000
00010000
00000010
,
00000100
00001000
00010000
00100000
01000000
00000000
01000000
00000000
,
00100000
10000000
00010000
00000000
00100000
00000000
00100000
00010000
,
00001000
00000100
00000010
00000001
00001000
00000000
00001000
00000000
,
00000010
00001000
00000100
00000000
00001000
00000000
00001000
00000100
,
00000010
00001000
00010000
01000000
00100000
00000000
00100000
00000000
,
00010000
11000000
10000000
01010000
,
10000000
00010000
00001000
00000001
,
00001000
00000101
00000001
00001100
,
00000001
00001000
00010000
10000000
,
00100000
10010000
01000000
10010000
,
10000000
00010000
00001000
00000001
,
00000010
00001001
00000100
00001001
,
00000001
00000000
00001000
00000000
00010000
00000000
10000000
00010000
,
02000000
00000000
00100000
00000000
00000000
00000000
03100000
10000000
,
02000000
00000000
00100000
00000000
00000000
00000000
03100000
00001000
,
00020000
00000000
00001000
00000000
00000000
00000000
00031000
00000010
,
00000200
00000000
00000010
00000000
00000000
00000000
00000310
00000001
,
00002000
00000000
00000010
00000000
00000000
00000000
00003010
00000100
,
00002000
00000000
00010000
00000000
00000000
00000000
00013000
01000000
,
20000000
00000000
00010000
00000000
00000000
00000000
30010000
01000000
,
00200000
00000000
01000000
00000000
00000000
00000000
01300000
00100000
,
10100000
00000000
01010000
00000000
00100000
10000000
01000000
10000000
,
00010000
01000000
00001000
00010000
00000100
00000010
00000001
00000000
,
00001100
00000000
00000101
00000000
00000010
00001000
00000001
00000010
,
00000100
00000010
00001000
00010000
01000000
00100000
00010000
00000000
,
11000000
00000000
01010000
00000000
00100000
01000000
00010000
00100000
,
01000000
00100000
00010000
00001000
00000100
00000010
00000001
00000000
,
00001010
00000000
00000101
00000000
00000010
00001000
00000001
00000100
,
00000010
00000100
00001000
00010000
01000000
10000000
00100000
00000000
;

//---------------dance-single - ----------------
#NOTEDATA:;
#CHARTNAME:;
#STEPSTYPE:dance-single;
#DESCRIPTION:;
#CHARTSTYLE:;
#DIFFICULTY:Beginner;
#METER:2;
#RADARVALUES:0.130,0.161,0.000,0.076,0.000,88.000,0.000,8.000,0.000,0.000,0.000,0.000,0.000,0.130,0.161,0.000,0.076,0.000,88.000,0.000,8.000,0.000,0.000,0.000,0.000,0.000;
#CREDIT:;
#OFFSET:1.380;
#BPMS:0.000=140.000
;
#STOPS:;
#DELAYS:;
#WARPS:;
#TIMESIGNATURES:0.000=4=4
;
#TICKCOUNTS:0.000=4
;
#COMBOS:0.000=1
;
#SPEEDS:0.000=1.000=0.000=0
;
#SCROLLS:0.000=1.000
;
#FAKES:;
#LABELS:0.000=Song Start
;
#NOTES:
0000
0000
0000
0000
,
0000
0000
0000
0000
,
0000
0000
0000
0000
,
0000
0000
0000
0000
,
0000
0000
0000
0000
,
0001
0000
0000
0000
,
0001
0000
0000
0000
,
1000
0000
0000
0000
,
1000
0000
0000
0000
,
0001
0000
0000
0000
,
1000
0000
0000
0000
,
0001
0000
0000
0000
,
1000
0000
0000
0000
,
0100
0000
0000
0000
,
0010
0000
0000
0000
,
0100
0000
0000
0000
,
0010
0000
0000
0000
,
1000
1000
0000
0000
,
0100
0100
0000
0000
,
0010
0010
0000
0000
,
0001
0001
0000
0000
,
0010
0010
0000
0000
,
0100
0100
0000
0000
,
1000
1000
0000
0000
,
0010
0010
0000
0000
,
1000
1000
1000
0000
,
0001
0001
0001
0000
,
1000
1000
1000
0000
,
0100
0100
0100
0000
,
0010
0010
0010
0000
,
0001
0001
0001
0000
,
0010
0010
0010
0000
,
1000
1000
1000
0000
,
1000
0000
0001
0000
,
1000
0000
0000
0000
,
0001
0000
1000
0000
,
0001
0000
0000
0000
,
0010
0000
0100
0000
,
0010
0000
0000
0000
,
0100
0000
0010
0000
,
0100
0000
0000
0000
,
2000
0000
3000
0000
,
0002
0000
0003
0000
,
2000
0000
3000
0000
,
0002
0000
0003
0000
,
2000
0000
3000
0000
,
0002
0000
0003
0000
,
2000
0000
3000
0000
,
0002
0000
0003
0000
,
0010
0010
0000
0000
,
1000
0000
0100
0000
,
0010
0010
0000
0000
,
0001
0000
1000
0000
,
0010
0010
0000
0000
,
0001
0000
0100
0000
,
0010
0010
0000
0000
,
1000
0000
0001
0000
;

//---------------dance-single - ----------------
#NOTEDATA:;
#CHARTNAME:;
#STEPSTYPE:dance-single;
#DESCRIPTION:;
#CHARTSTYLE:;
#DIFFICULTY:Challenge;
#METER:12;
#RADARVALUES:0.511,0.433,0.038,0.219,0.071,349.000,4.000,23.000,0.000,0.000,0.000,0.000,0.000,0.511,0.433,0.038,0.219,0.071,349.000,4.000,23.000,0.000,0.000,0.000,0.000,0.000;
#CREDIT:;
#OFFSET:1.380;
#BPMS:0.000=140.000
;
#STOPS:;
#DELAYS:;
#WARPS:;
#TIMESIGNATURES:0.000=4=4
;
#TICKCOUNTS:0.000=4
;
#COMBOS:0.000=1
;
#SPEEDS:0.000=1.000=0.000=0
;
#SCROLLS:0.000=1.000
;
#FAKES:;
#LABELS:0.000=Song Start
;
#NOTES:
// measure 0
0000
0000
0000
0000
,  // measure 1
0000
0000
0000
0000
,  // measure 2
0000
0000
0000
0000
,  // measure 3
0000
0000
0000
0000
,  // measure 4
0000
0000
0000
0000
,  // measure 5
0110
0000
1000
1000
1000
0000
0001
0100
,  // measure 6
0100
1000
0010
1000
0001
0010
1000
0100
,  // measure 7
1001
0000
0100
0100
0100
0000
0001
0100
,  // measure 8
1000
0001
0010
0100
0010
1000
0100
0000
,  // measure 9
0001
0100
2000
0000
3001
0010
0100
0000
,  // measure 10
0001
0100
2000
0000
3010
1000
0100
0000
,  // measure 11
0001
1000
0200
0000
0310
1000
0001
0000
,  // measure 12
0010
1000
0200
0000
0310
0001
0100
0000
,  // measure 13
0010
1000
0200
0000
1300
0001
0010
0000
,  // measure 14
2000
0100
3010
0000
0001
1000
0100
0000
,  // measure 15
0001
1000
0200
0000
0310
0001
0100
0000
,  // measure 16
0001
1000
0010
0200
0000
0300
1001
0000
,  // measure 17
1000
0000
0020
0000
0100
0000
0030
0000
0001
1000
0100
0000
1000
0000
0000
0000
,  // measure 18
0001
0000
0020
0000
0100
0000
0030
0000
1000
0100
0010
0000
0001
0000
0000
0000
,  // measure 19
1000
0000
0002
0000
0100
0000
0003
0000
1000
0010
0001
0000
0100
0000
0000
0000
,  // measure 20
0001
0000
2000
0000
0010
0000
3000
0000
0100
0010
1000
0000
0001
0000
0000
0000
,  // measure 21
0010
0000
0200
0000
1000
0000
0000
0000
0301
1000
0100
0000
0010
0000
0000
0000
,  // measure 22
1000
0000
0200
0000
0010
0000
0000
0000
1300
0010
0100
0000
0001
0000
0000
0000
,  // measure 23
1000
0000
0002
0000
0100
0000
0000
0000
1003
0100
0001
0000
0010
0000
0000
0000
,  // measure 24
0010
0001
1000
0100
1000
0001
1010
0000
,  // measure 25
0001
0100
0010
1000
0010
0000
0001
0010
,  // measure 26
1000
0100
1000
0100
0010
0000
1000
0100
,  // measure 27
0010
1000
0001
0100
0010
0000
0001
0010
,  // measure 28
0001
1000
0100
0010
0100
0000
1000
0010
,  // measure 29
0001
1000
0100
0010
0100
0000
1000
0001
,  // measure 30
0100
1000
0100
0001
1000
0000
0010
0100
,  // measure 31
0001
0010
1000
0100
0010
0000
0010
0001
,  // measure 32
1000
0010
0100
0001
1000
0100
0010
0000
,  // measure 33
0001
0000
0100
0000
0010
0000
1000
0000
0100
0000
0010
0001
0010
0000
0000
0000
,  // measure 34
1000
0000
0010
0000
0100
0000
0001
0000
0010
0000
0100
1000
0100
0000
0000
0000
,  // measure 35
0010
0000
0100
0000
1000
0000
0001
0000
0100
0000
0010
1000
0010
0000
0000
0000
,  // measure 36
1000
0000
0001
0000
0100
0000
0010
0000
1000
0000
0100
0001
0100
0000
0000
0000
,  // measure 37
0010
0000
0001
0000
1000
0000
0100
0000
0010
0000
0100
0010
0100
0000
0000
0000
,  // measure 38
0010
0000
0100
0000
0001
0000
0010
0000
1000
0000
0001
0100
0001
0000
0000
0000
,  // measure 39
0010
0000
0100
0000
0001
0000
1000
0000
0100
0000
0001
0010
0001
0000
0000
0000
,  // measure 40
0010
0001
1000
0010
0001
0100
1000
0001
,  // measure 41
0200
0010
0010
0000
0000
0000
0310
1000
,  // measure 42
0200
0010
0010
0000
0000
0000
0310
0001
,  // measure 43
0200
0010
0010
0000
0000
0000
0310
1000
,  // measure 44
0200
0010
0010
0000
0000
0000
0310
0001
,  // measure 45
0200
1000
1000
0000
0000
0000
1300
0100
,  // measure 46
0002
1000
1000
0000
0000
0000
1003
0001
,  // measure 47
0020
1000
1000
0000
0000
0000
1030
0010
,  // measure 48
0002
1000
1000
0000
0000
0000
1003
0010
,  // measure 49
0001
0100
1000
0000
0001
0100
1000
0100
,  // measure 50
0001
0010
0001
0100
1000
0010
0001
0000
,  // measure 51
0100
0010
0001
0000
0100
0010
0001
1000
,  // measure 52
0100
0001
1000
0010
0001
0100
0010
0000
,  // measure 53
0001
0100
1000
0000
0001
0010
1000
0010
,  // measure 54
0001
0100
1000
0010
0100
0010
0001
0000
,  // measure 55
1000
0100
0001
0010
0100
0010
1000
0001
,  // measure 56
0010
0000
0001
0000
1000
0000
0001
0000
0100
0000
0010
0000
1000
0001
1000
0000
;
