#TITLE:恋閃繚乱;
#SUBTITLE:;
#ARTIST:2B-Waves;
#TITLETRANSLIT:Rensen ryouran;
#SUBTITLETRANSLIT:;
#ARTISTTRANSLIT:;
#GENRE:;
#CREDIT:;
#BANNER:Rensen ryouran.png;
#BACKGROUND:Rensen ryouran-bg.png;
#LYRICSPATH:;
#CDTITLE:./CDTITLES/DanceDanceRevolution X3 VS 2ndMIX.png;
#MUSIC:Rensen ryouran.ogg;
#OFFSET:0.000;
#SAMPLESTART:45.610;
#SAMPLELENGTH:15.000;
#SELECTABLE:YES;
#BPMS:0.000=142.000
;
#STOPS:208.000=0.423
;
#BGCHANGES:;
#KEYSOUNDS:;
#ATTACKS:;

//---------------dance-single - ----------------
#NOTES:
     dance-single:
     :
     Challenge:
     15:
     0.759,0.749,0.460,0.230,0.622,483.000,48.000,24.000,0.000,0.000,0.000,0.759,0.749,0.460,0.230,0.622,483.000,48.000,24.000,0.000,0.000,0.000:
0000
0000
0000
0000
,
0000
0000
0000
0000
,
0000
0000
0000
0000
,
0000
0000
0000
0000
,
0000
0000
0000
0000
,
0000
0000
0000
0000
,
0100
0000
0010
0000
0100
0010
1000
0000
0200
0000
0310
0001
0000
1000
0100
0000
,
1000
0000
0010
0000
0001
0010
0100
0000
0002
0000
1003
0010
0000
0001
0010
0000
,
1000
0000
0100
0000
0010
0100
1000
0000
0020
0000
0130
0001
0000
1000
0010
0000
,
0100
0000
0001
0000
0010
0001
0100
0000
0001
1000
0100
0001
0100
1000
0010
0100
,
0001
0000
0000
0000
1001
0000
0000
0000
0100
0000
0001
0000
1000
0100
0000
1000
,
0100
0000
0000
0000
1010
0000
0000
0000
0001
0000
1000
0000
0010
0100
0000
0010
,
0100
0000
0000
0000
0101
0000
0000
0000
0010
0000
0100
0000
1000
0010
0000
1000
,
0010
0000
0000
0000
1100
0000
0001
0010
1000
0010
0100
0001
0100
1000
0001
0010
,
0100
0000
0000
0000
1001
0000
0000
0000
0001
0000
0100
0000
0010
1000
0000
0001
,
0100
0000
0000
0000
0110
0000
0000
0000
0100
0000
0001
0000
1000
0100
0000
0010
,
0001
0000
0000
0000
1001
0000
0000
0000
0001
0000
1000
0000
0010
0100
0000
0001
,
0100
0001
1000
0100
0001
0100
0010
0001
1000
0100
0010
0001
0100
0010
0100
0001
,
0101
0001
0100
0100
1010
1000
0001
0001
,
1100
0100
1000
1000
0110
0010
0100
0100
,
0011
0001
0100
0100
1010
0010
0100
0100
,
0011
0000
0001
0000
0010
0000
0010
0000
1100
0000
1000
0000
1001
0000
0010
0100
,
0110
0010
0101
0001
1100
1000
0110
0100
,
0011
0010
1100
0100
1010
1000
0101
0100
,
1001
0000
0000
1000
0010
0000
0100
0000
1001
0000
0000
0001
0100
0000
0010
0000
,
1001
0000
0100
0010
0100
0010
0100
0010
,
0110
0000
0001
0010
0001
0000
1000
0010
1000
0100
0010
0001
0100
0010
1000
0001
,
1001
0000
0010
0000
0100
0001
0100
0000
0010
0000
1000
0010
0000
0010
0100
0000
,
0001
0000
0010
0000
0100
1000
0100
0000
0010
0000
0001
0100
0000
0100
0010
0000
,
1000
0000
0010
0000
0100
0001
0100
0000
0010
0000
1000
0100
0000
0100
0001
0000
,
0100
0000
1000
0000
0001
0010
0001
0000
1100
0000
0000
0011
0000
0000
1100
0000
,
0010
0000
1000
0000
0100
1000
0001
0000
0010
0000
0001
0100
0000
0100
0010
0000
,
1000
0000
0001
0000
0010
0100
1000
0000
0100
0000
1000
0001
0000
0001
0010
0000
,
0100
0000
0010
0000
0001
1000
0010
0000
0101
0000
0010
1000
0000
0100
0001
0000
,
1000
0010
1000
0000
0001
0010
0001
0000
1000
0010
0001
0010
0100
1000
0100
0001
,
2000
0000
0001
0000
3100
0000
0010
0001
0000
0010
0001
0000
0100
0000
0100
0000
,
0020
0000
1000
0000
0130
0000
0001
1000
0000
0001
1000
0000
0010
0000
0010
0000
,
0200
0000
0001
0000
0310
0000
1000
0001
0000
1000
0001
0000
0100
0000
0100
0000
,
0002
0000
1000
0000
0100
0000
1003
0100
0010
0000
0001
0000
1001
0000
0000
0000
,
0100
0000
0001
0000
0100
0000
1000
0100
1000
0100
0010
0000
0001
0000
0100
0000
,
0010
1000
0010
0000
0100
0001
0100
0001
0010
0000
0100
0000
1001
0000
0000
0000
,
1000
0000
0010
1000
0100
0000
0010
0100
0001
0000
0100
1000
0010
0000
0100
0001
,
1000
0000
0001
0000
1000
0000
0001
1000
0010
0100
0001
0100
0010
1000
0010
0100
,
0002
0000
0000
0000
,
0000
2003
3002
0023
,
0230
0000
2300
0000
,
3002
0203
2300
3020
,
0130
0000
0000
0100
1010
0000
0100
0010
,
0001
0000
0100
0100
0011
0000
0100
0010
,
0110
0000
0000
0001
0100
0000
1000
0000
0110
0000
0000
1000
0100
0000
0001
0000
,
1001
0000
0010
0100
0010
0100
0010
0100
,
0010
0000
0010
0100
0001
0000
0001
0010
0100
1000
0010
0001
0010
1000
0010
0200
,
0000
0300
0000
0000
0000
0000
0000
0000
0000
0000
0000
0000
0000
0000
0000
0000
1001
0000
0000
0000
0000
0000
0000
0000
0001
0000
0000
0000
0000
0000
0000
0000
1000
0000
0000
0000
0010
0000
0000
0000
0001
0000
0000
0000
0000
0000
0000
0000
0020
0000
0000
0000
0000
0000
0000
0000
0130
0000
0000
0000
0001
0000
0000
0000
,
0000
0001
0010
0000
0100
0000
0100
0000
1000
0100
0001
0000
0200
0000
1300
0001
,
0000
0001
0100
0000
0010
0000
0010
0000
1000
0100
0001
0000
0200
0000
0310
0100
,
0000
0100
1000
0000
0010
0000
0010
0000
1000
0100
0001
0000
0101
0000
0000
0110
,
0000
0000
1010
0000
0100
0001
0100
0000
0001
0010
1000
0000
0020
0000
0031
0010
,
0000
0010
1000
0000
0001
0100
0001
0000
1000
0100
0001
0000
0200
0000
1300
0010
,
0000
0010
0100
0000
1000
0100
1000
0000
0001
0100
1000
0000
1100
0000
0000
1001
,
0000
0000
0011
0000
0120
0000
0000
0000
0000
0000
1030
0100
1000
0010
0100
0001
,
0010
1000
0010
0001
0000
0000
0000
0000
0000
0000
0000
0000
0000
0000
0000
0000
;

//---------------dance-single - ----------------
#NOTES:
     dance-single:
     :
     Beginner:
     2:
     0.112,0.142,0.019,0.000,0.000,80.000,2.000,0.000,0.000,0.000,0.000,0.112,0.142,0.019,0.000,0.000,80.000,2.000,0.000,0.000,0.000,0.000:
0000
0000
0000
0000
,
0000
0000
0000
0000
,
0000
0000
0000
0000
,
0000
0000
0000
0000
,
0000
0000
0000
0000
,
0000
0000
0000
0000
,
1000
0000
1000
0000
,
0100
0000
0000
0000
,
0001
0000
0001
0000
,
0100
0000
0000
0000
,
0001
0000
0000
0000
,
0001
0001
0001
0000
,
1000
0000
0000
0000
,
1000
1000
1000
0000
,
0001
0000
0000
0000
,
0001
0001
0001
0000
,
1000
0000
0000
0000
,
1000
1000
1000
0000
,
0001
0000
0010
0000
,
0001
0000
0000
0000
,
1000
0000
0010
0000
,
1000
0000
0000
0000
,
0100
0000
0100
0000
,
0100
0000
0100
0000
,
0100
0000
0000
0000
,
0010
0000
0000
0000
,
0100
0100
0100
0000
,
0001
0000
0001
0000
,
0100
0000
0100
0000
,
0100
0000
0000
0000
,
0010
0000
0000
0000
,
1000
0000
1000
0000
,
0100
0000
0100
0000
,
0100
0000
0000
0000
,
0010
0000
0000
0000
,
1000
0000
1000
0000
,
0100
0000
0000
0000
,
0001
0000
0001
0000
,
0100
0000
0000
0000
,
1000
0000
1000
0000
,
0010
0000
0000
0000
,
0001
0000
0001
0000
,
0010
0000
0000
0000
,
0000
0000
0000
0000
,
0000
0000
0000
0000
,
0000
0000
0000
0000
,
0000
0000
0000
0000
,
0001
0000
0000
0000
,
1000
0000
0000
0000
,
0100
0000
0100
0000
,
0100
0000
0000
0000
,
1001
0000
0000
0000
,
0000
0001
0000
0001
,
0000
0100
0000
0100
,
0000
0100
0000
0000
,
0000
0010
0000
0000
,
0000
1000
0000
1000
,
0000
0100
0100
0100
,
0000
0100
0000
0000
,
0000
1001
0000
0000
;

//---------------dance-single - ----------------
#NOTES:
     dance-single:
     :
     Easy:
     6:
     0.291,0.346,0.192,0.278,0.000,164.000,20.000,29.000,0.000,0.000,0.000,0.291,0.346,0.192,0.278,0.000,164.000,20.000,29.000,0.000,0.000,0.000:
0000
0000
0000
0000
,
0000
0000
0000
0000
,
0000
0000
0000
0000
,
0000
0000
0000
0000
,
0000
0000
0000
0000
,
0000
0000
0000
0000
,
0010
0010
1000
1000
,
0010
0010
0001
0001
,
0010
0010
0100
0100
,
0010
0010
0001
1000
,
1001
0010
0000
0010
,
0100
0010
0000
0010
,
1000
0100
0000
0100
,
1000
0010
0001
0100
,
1001
0010
0000
0010
,
0100
0010
0000
0010
,
0001
0100
0000
0100
,
0001
1000
1001
0000
,
1000
2000
3100
0200
,
0310
0020
0031
0002
,
0103
0200
0310
0020
,
1030
2000
3100
0200
,
0310
0020
0031
0002
,
0103
0200
0310
0020
,
0130
0000
0100
0000
,
0220
0000
0000
0330
,
0100
0100
1001
0000
,
0001
0100
0001
0011
,
0100
0100
1000
1100
,
0010
0100
0010
1000
,
1002
0000
0103
0000
,
1000
0100
1000
1010
,
0100
0100
0001
0001
,
1001
0000
0010
0000
,
0220
0000
0000
0330
,
0001
0100
1000
0100
,
0001
0100
1000
0010
,
1000
0100
0001
0100
,
1000
0100
0001
0010
,
0001
0100
1000
0100
,
0001
0010
1000
0001
,
0100
0100
0010
0010
,
0220
0000
0000
0000
,
0330
0000
0000
0000
,
0000
0000
0000
0000
,
0000
0000
0000
0000
,
0000
0000
0000
0000
,
0002
0000
0023
0000
,
0230
0000
2300
0000
,
3002
0000
0203
0000
,
0020
0000
0000
0330
,
0001
0000
1000
0000
0001
1000
0001
0000
,
0000
1000
1100
1000
,
0010
0100
0101
0010
,
0010
1000
0100
0010
,
0001
1002
0000
0013
,
0010
0001
0101
0010
,
0100
0010
0110
1000
,
0001
1001
0000
0010
,
0110
2002
0000
0000
,
0000
3003
0000
0000
;

//---------------dance-single - ----------------
#NOTES:
     dance-single:
     :
     Medium:
     9:
     0.342,0.346,0.115,0.182,0.005,219.000,12.000,19.000,0.000,0.000,0.000,0.342,0.346,0.115,0.182,0.005,219.000,12.000,19.000,0.000,0.000,0.000:
0000
0000
0000
0000
,
0000
0000
0000
0000
,
0000
0000
0000
0000
,
0000
0000
0000
0000
,
0000
0000
0000
0000
,
0000
0000
0000
0000
,
0001
0010
0000
0010
0001
0000
0001
0000
,
0100
0010
0000
0010
0100
0000
0100
0000
,
0010
1000
0000
1000
0010
0000
0010
0000
,
1000
0001
1000
0000
0010
0000
0110
0000
,
0002
0000
1003
0000
0000
0001
1000
0000
,
0020
0000
1030
0000
0000
0010
1000
0000
,
0200
0000
0310
0000
0000
0100
0010
0000
,
0001
0100
1000
0010
,
0200
0000
0301
0000
0000
0100
0001
0000
,
0020
0000
0031
0000
0000
0010
0001
0000
,
0020
0000
0130
0000
0000
0010
0100
0000
,
0010
1001
1001
0000
,
1000
0100
0001
0000
0010
0000
0100
0000
,
0200
0001
0010
1300
,
0001
0100
1000
0000
0100
0000
0001
0000
,
0020
0001
0100
1030
,
0100
0010
0100
0000
1000
0000
0001
0000
,
0100
0010
0100
0000
0001
0000
1000
0000
,
0010
0000
0110
0000
,
1001
0100
0100
0100
,
0010
0100
0010
0000
1000
0100
0010
0000
,
0002
0010
1000
0013
,
1000
0010
1000
0000
0001
0000
0101
0000
,
0001
0000
0010
0000
1000
0100
0001
0000
,
0020
0000
0001
0130
,
2000
0010
0001
3010
,
0001
0000
1000
0000
0010
0100
0010
0000
,
0001
0000
0000
0000
1000
0100
0010
0001
,
0020
0000
0000
0030
,
0001
0000
1000
0000
0001
0100
1000
0000
,
0100
0000
0010
0000
0001
0010
1000
0000
,
0100
0000
0010
0000
0001
0100
1000
0000
,
0100
0010
1001
0000
,
1000
0100
0001
0000
0001
0100
1000
0000
,
1000
0010
0001
0000
0010
0000
0100
0000
,
0001
0100
1000
0100
0001
0000
0010
0000
,
0220
0000
0000
0000
,
0330
0000
0000
0000
,
0000
0000
0000
0000
,
0100
0000
0100
0000
,
0010
0000
0010
0000
,
0100
0100
0001
0010
,
0100
0100
1000
0010
,
0100
0000
0000
0001
0100
0000
0000
1000
,
0100
0000
0100
0000
0100
0000
0100
0100
,
0100
0000
0010
0000
1000
0100
0010
0002
,
0003
0021
0100
0001
,
1030
0000
0010
0001
0010
0000
0100
1000
,
0100
0000
1000
0000
0001
0000
0100
0010
,
0100
2001
0000
0010
,
3010
1200
0010
1000
,
0301
0000
0100
1000
0100
0000
0010
0001
,
0010
0000
0000
0000
1001
0000
0000
0000
0000
0000
0000
0000
0010
0000
0000
0010
,
0000
0010
0020
0000
0000
0000
0000
0000
,
0000
0030
0000
0000
;

//---------------dance-single - ----------------
#NOTES:
     dance-single:
     :
     Hard:
     12:
     0.487,0.489,0.201,0.077,0.053,327.000,21.000,8.000,0.000,0.000,0.000,0.487,0.489,0.201,0.077,0.053,327.000,21.000,8.000,0.000,0.000,0.000:
0000
0000
0000
0000
,
0000
0000
0000
0000
,
0000
0000
0000
0000
,
0000
0000
0000
0000
,
0000
0000
0000
0000
,
0000
0000
0000
0000
,
1000
0000
0010
0000
1000
0010
0000
0000
0100
0000
0000
0100
0000
0000
0100
0000
,
0001
0000
0010
0000
0001
0010
0000
0000
0001
0000
0000
0001
0000
0000
0001
0000
,
1000
0000
0100
0000
1000
0100
0000
0000
0010
0000
0000
0010
0000
0000
0010
0000
,
0001
0000
0100
0000
0001
0100
0000
0000
0001
0000
0010
0000
0100
0000
1000
0000
,
0001
0000
1001
0000
0100
0001
1000
0000
,
0010
0000
1001
0000
0100
1000
0001
0000
,
1000
0000
0110
0000
0001
1000
0100
0010
,
0001
0110
1100
0101
,
0100
0000
1010
0000
0001
0100
0010
0000
,
0100
0000
0011
0000
0100
1000
0001
0000
,
0010
0000
1100
0000
0010
1000
0001
0000
,
0100
0001
0010
1000
0010
0001
1000
0000
,
0010
0010
0100
0100
0010
0010
1000
1000
,
0100
0100
0010
0010
0100
0100
1000
1000
,
0001
0001
0100
0100
0010
0010
0100
0100
,
0001
0001
0010
0010
0100
0100
1000
1000
,
0001
0001
0100
0100
1000
1000
0100
0100
,
0010
0010
0100
0100
0001
0001
0010
0010
,
1001
0000
0001
0100
1000
0000
1000
0100
,
0001
0000
0001
1000
0001
1000
0001
1000
,
0100
0010
0100
0010
0001
0010
0100
1000
,
1100
0000
0101
0000
0010
1000
0001
0000
,
0001
0010
0100
1000
0001
0010
0100
0010
,
1000
0000
0010
0000
0001
0100
0010
1000
,
0001
0000
0000
0000
0010
0000
0000
0000
1000
0000
0000
0001
0000
0000
1000
0000
,
1100
0000
0011
0000
0010
0100
1000
0000
,
1000
0001
0010
0001
0100
0010
1000
0100
,
0010
0000
0000
0000
0010
0000
0000
0000
0001
0000
0000
1000
0000
0000
0001
0000
,
0022
0000
0000
0033
,
0100
1000
0010
0001
1000
0100
0001
0010
,
0200
0000
0010
0000
1300
0010
0001
0000
,
0010
1000
0100
0001
1000
0010
0001
0100
,
0020
0100
0130
0010
,
0010
1000
0100
1000
0010
0001
0010
0001
,
0010
1000
0100
0001
0100
0000
0010
0000
,
0001
0100
1000
0100
0001
0100
0010
0100
,
0020
0000
2000
0000
,
3030
0000
0000
0000
,
0000
1000
0010
0100
,
0001
0000
0100
0000
,
0010
0100
0001
0010
,
0100
0000
0000
0100
0010
0000
0001
0010
,
0100
0100
0010
0001
,
1001
0000
0100
1000
1100
0000
0100
0001
,
0101
0000
0001
0001
0100
0100
0010
0010
,
1000
0010
0100
0010
0001
0010
0100
2000
,
3000
0000
0010
0001
0010
0100
0010
0001
,
0010
0010
1000
0100
0010
0100
0001
0100
,
1000
1000
0100
0001
0010
0001
0100
0001
,
0010
0000
0100
0000
1000
0000
0000
0000
0110
0000
0000
0000
0001
0000
0000
0001
,
0000
0001
1000
0100
0010
0100
1000
0010
,
0100
0100
0010
1000
0100
0001
0010
1000
,
0010
0000
0001
0000
1000
0000
0000
0000
1001
0000
0000
0000
0010
0000
0000
0010
,
0000
0010
1002
0000
0000
1003
0100
0010
,
0001
0100
0000
0000
0000
0000
0000
0000
;

//---------------dance-double - ----------------
#NOTES:
     dance-double:
     :
     Easy:
     6:
     0.268,0.288,0.144,0.192,0.000,161.000,15.000,20.000,0.000,0.000,0.000,0.268,0.288,0.144,0.192,0.000,161.000,15.000,20.000,0.000,0.000,0.000:
00000000
00000000
00000000
00000000
,
00000000
00000000
00000000
00000000
,
00000000
00000000
00000000
00000000
,
00000000
00000000
00000000
00000000
,
00000000
00000000
00000000
00000000
,
00000000
00000000
00000000
00000000
,
00000010
00000010
00000100
00000100
,
00000010
00000010
00001000
00001000
,
00010000
00010000
01000000
01000000
,
00100000
00100000
00010000
10000000
,
10010000
00000000
00100000
00000000
,
10000000
01000000
10000000
00000000
,
00010000
00000000
00001000
00000000
,
00001000
00000100
00000001
00000010
,
00001000
00000000
00000010
00000000
,
00000001
00000100
00000001
00000000
,
00000100
00000000
00001000
00000000
,
00010000
00100000
01000000
00000000
,
10000000
10000000
00100000
00100000
,
00010000
00010000
00001000
00001000
,
00000100
00000100
00000001
00000001
,
00000100
00000100
00001000
00001000
,
00100000
00100000
10000000
10000000
,
00010000
00010000
00001000
00001000
,
00000100
00000000
00000100
00000000
,
00002002
00000000
00000000
00003003
,
00000100
00000100
00000001
00000010
,
00000200
00001300
00000020
00001030
,
00000100
00001000
00010000
00100000
,
01000000
00100000
10000000
00010000
,
20010000
00000000
31000000
01000000
,
00100000
00010000
00100000
00001000
,
00010000
00010000
00000100
00000100
,
00000110
00000000
00000001
00001000
,
00002002
00000000
00000000
00003003
,
00000001
00000100
00001000
00010000
,
00000010
00000100
00001000
00010000
,
00100000
10000000
01000000
00010000
,
10000000
00100000
00020000
00000000
,
00031000
00000100
00001000
00010000
,
00100000
10000000
00100000
00010000
,
00001000
00001000
00010000
00010000
,
00022000
00000000
00000000
00000000
,
00033000
00000000
00000000
00000000
,
00000000
00000000
00000000
00000000
,
00000000
00000000
00000000
00000000
,
00000000
00000000
00000000
00000000
,
00000002
00000000
00000023
00000000
,
00000230
00000000
00002300
00000000
,
00023000
00000000
02030000
00000000
,
00200000
00000000
00000000
03300000
,
10000000
00010000
10010000
10010000
,
00000000
10000000
10000000
01000000
,
11000000
00100000
00010000
00100000
,
00001000
00010000
00000100
00001000
,
00000010
00000120
00000000
00000130
,
00000100
00000001
00000001
00000100
,
00000101
00000010
00000110
00001000
,
00010000
00011000
00000000
00100000
,
01100000
20020000
00000000
00000000
,
00000000
30030000
00000000
00000000
;

//---------------dance-double - ----------------
#NOTES:
     dance-double:
     :
     Medium:
     8:
     0.367,0.346,0.172,0.172,0.005,232.000,18.000,18.000,0.000,0.000,0.000,0.367,0.346,0.172,0.172,0.005,232.000,18.000,18.000,0.000,0.000,0.000:
00000000
00000000
00000000
00000000
,
00000000
00000000
00000000
00000000
,
00000000
00000000
00000000
00000000
,
00000000
00000000
00000000
00000000
,
00000000
00000000
00000000
00000000
,
00000000
00000000
00000000
00000000
,
00010000
00000100
00000000
00001000
00000100
00000000
00010000
00000000
,
00001000
01000000
00000000
00001000
00010000
00000000
00001000
00000000
,
00100000
00001000
00000000
00010000
00001000
00000000
00010000
00000000
,
00000010
00010000
00000000
00001000
00010000
00000000
00001000
00000000
,
00200000
00000000
00310000
00000000
00000000
00100000
01000000
00000000
,
20000000
00000000
30100000
00000000
00000000
10000000
01000000
00000000
,
00200000
00000000
00310000
00000000
00000000
00100000
01000000
00000000
,
00010000
00001000
00000100
00000001
,
00000020
00000000
00000031
00000000
00000000
00000100
00000001
00000000
,
00002000
00000000
00003010
00000000
00000000
00001000
00000100
00000000
,
00000020
00000000
00000130
00000000
00000000
00001000
00000100
00000000
,
00010000
00001000
00011000
00000000
,
00001000
00010000
01000000
00000000
10000000
00000000
00100000
00000000
,
00020000
00001000
00100000
00031000
,
00010000
00001000
00000100
00000000
00000001
00000000
00000010
00000000
,
00002000
00010000
00000010
00013000
,
00001000
00010000
00100000
00000000
10000000
00000000
01000000
00000000
,
00010000
00001000
00000100
00000000
00000001
00000000
00000010
00000000
,
00000110
00000000
00011000
00000000
,
01100000
01000000
01000000
01000000
,
00100000
01000000
00100000
00000000
10000000
01000000
00100000
00000000
,
00020000
10000000
00100000
00031000
,
00000100
00001000
00000010
00000000
00000100
00000000
00000001
00000000
,
00000011
00000000
00000100
00000000
00001000
00000100
00000001
00000100
,
00001000
00000010
00000101
00001100
,
00002000
00000001
00000010
00013000
,
01000000
00010000
00100000
00000000
01000000
10000000
00100000
00000000
,
01100000
00000000
00000000
00000000
10000000
01000000
00100000
00001000
,
00020000
00000100
00001000
00030010
,
00000100
00000000
00000001
00000000
00000100
00001000
00010000
00000000
,
00001000
00000000
00100000
00000000
01000000
10000000
00100000
00000000
,
00010000
00000000
00001000
00000000
00100000
01000000
00010000
00000000
,
00000100
00001000
00001001
00001001
,
00000001
00000100
00001000
00000000
00100000
00010000
01000000
00000000
,
00100000
10000000
01000000
10000000
00100000
00000000
01000000
00000000
,
00100000
10000000
00010000
00000000
00100000
00001000
00010000
00000000
,
00022000
00000000
00000000
00000000
,
00033000
00000000
00000100
00000000
,
00000010
00000000
00000100
00000000
,
00010000
00000000
00001000
00000000
,
00100000
00000000
01000000
00000000
,
10000000
10000000
10010000
00100000
,
01000000
00100000
01100000
00010000
,
00001000
00000000
00000000
00000100
00001000
00000000
00000000
00010000
,
01000000
00010000
00001000
00000100
,
00000010
00000100
00000010
00000000
00000001
00000010
00000100
00002000
,
00003000
00000020
00000100
00001000
,
00010030
00000000
00001000
00010000
01000000
00000000
00100000
00000000
,
00010000
00000000
11000000
00000000
00100000
00000000
01000000
10000000
,
01000000
00100000
00010000
00000000
00100000
00000000
00110000
00000000
,
00101000
02000000
00100000
00010000
,
03001000
00000000
00010000
00001000
00000100
00000000
00000001
00000010
,
00001000
00000000
00000000
00000000
00010000
00000000
00000000
00000000
00011000
00000000
00000000
00000000
00001000
00000000
00000000
00010000
,
00000000
00100000
02200000
00000000
00000000
00000000
00000000
00000000
,
00000000
03300000
00000000
00000000
;

//---------------dance-double - ----------------
#NOTES:
     dance-double:
     :
     Hard:
     11:
     0.476,0.461,0.201,0.086,0.053,318.000,21.000,9.000,0.000,0.000,0.000,0.476,0.461,0.201,0.086,0.053,318.000,21.000,9.000,0.000,0.000,0.000:
00000000
00000000
00000000
00000000
,
00000000
00000000
00000000
00000000
,
00000000
00000000
00000000
00000000
,
00000000
00000000
00000000
00000000
,
00000000
00000000
00000000
00000000
,
00000000
00000000
00000000
00000000
,
00001000
00000000
00010000
00000000
00001000
00010000
00000000
00000000
00001000
00000000
00000000
00100000
00000000
00000000
01000000
00000000
,
00100000
00000000
00010000
00000000
00100000
00010000
00000000
00000000
00100000
00000000
00000000
00001000
00000000
00000000
00010000
00000000
,
00000100
00000000
00010000
00000000
00000100
00010000
00000000
00000000
00000100
00000000
00000000
00000010
00000000
00000000
00000100
00000000
,
00010000
00000000
00001000
00000000
00010000
00001000
00000000
00000000
00000100
00000000
00000001
00000000
00000100
00000000
00001000
00000000
,
00010000
00000000
00010100
00000000
00001000
00010000
00100000
00000000
,
01000000
00000000
10010000
00000000
10000000
01000000
00100000
00000000
,
00001000
00000000
00101000
00000000
00010000
00001000
00000100
00000000
,
00000110
00001100
00011000
00110000
,
00011000
00000000
00001000
00000000
00010000
00001000
00000010
00000000
,
00000100
00000000
00001001
00000000
00000001
00000100
00000010
00000000
,
00001000
00000000
00010010
00000000
00001000
00010000
01000000
00000000
,
10000000
00100000
00010000
00100000
10000000
00000000
00000000
00000000
,
01000000
01000000
00100000
00100000
00001000
00001000
00010000
00010000
,
00000100
00000100
00000010
00000010
00000001
00000001
00000010
00000010
,
00000100
00000100
00010000
00010000
00001000
00001000
01000000
01000000
,
00100000
00100000
10000000
10000000
01000000
01000000
00100000
00000000
,
00010000
00010000
00001000
00001000
00000100
00000100
00000010
00000010
,
00001000
00001000
00000001
00000001
00000010
00000010
00001000
00001000
,
00011000
00000000
00010000
01000000
10000000
00000000
10000000
01000000
,
00010000
00000000
00001000
00000100
00000001
00000100
00001000
00000000
,
00100000
00001000
00100000
00001000
00010000
00100000
01000000
10000000
,
01000000
00000000
01100000
00000000
00100000
10000000
00010000
00000000
,
00100000
01000000
00010000
00001000
00010000
00000100
00000010
00000100
,
00001000
00000000
00000001
00000000
00001000
00000100
00000010
00000001
,
00000100
00000000
00000000
00000000
00001000
00000000
00000000
00000000
00010000
00000000
00000000
00001000
00000000
00000000
00010000
00000000
,
00011000
00000000
00110000
00000000
01000000
10000000
00100000
00000000
,
00010000
00001000
00010000
00000000
00000100
00000010
00000100
00000010
,
00000001
00000000
00000000
00000000
00001000
00000000
00000000
00000000
00000001
00000000
00000000
00000100
00000000
00000000
00001000
00000000
,
00022000
00000000
00000000
00033000
,
00001000
00010000
01000000
10000000
00010000
00100000
01000000
10000000
,
00200000
00000000
10000000
00000000
01300000
00010000
10000000
00000000
,
01000000
00100000
00010000
00000000
00001000
00010000
00001000
00000010
,
00000200
00000010
00000010
00000310
,
00000001
00000100
00001000
00000100
00000010
00010000
00001000
00000100
,
00001000
00100000
01000000
10000000
00200000
00000000
01300000
00000000
,
00100000
10000000
00100000
01000000
00100000
00010000
00001000
00000010
,
00000002
00000000
00002000
00000000
,
00003003
00000000
00000000
00000000
,
00000000
00000010
00001000
00010000
,
01000000
00000000
00010000
00000000
,
10000000
01000000
00010000
00001000
,
00010000
00000000
00000000
01000000
00100000
00000000
00010000
00001000
,
00000100
00000100
00000010
00000100
,
00001001
00000000
00000000
00000100
00000110
00000000
00001000
00010000
,
00011000
00000000
00001000
00001000
00010000
00010000
00001000
00000000
,
00001000
00010000
00001000
00100000
00010000
00100000
01000000
20000000
,
30000000
00000000
00100000
10000000
01000000
00010000
00001000
00000100
,
00000010
00001000
00000100
00010000
00001000
00010000
00000010
00000100
,
00001000
00010000
00001000
00100000
01000000
00100000
00010000
10000000
,
01000000
00000000
00010000
00000000
00001000
00000000
00000000
00000000
00011000
00000000
00000000
00000000
00010000
00000000
00000000
00010000
,
00000000
00010000
00000010
00001000
00000100
00000010
00001000
00010000
,
00001000
00000100
00001000
00010000
01000000
00100000
00010000
01000000
,
00100000
00000000
10000000
00000000
01000000
00000000
00000000
00000000
10010000
00000000
00000000
00000000
00100000
00000000
00000000
00100000
,
00000000
00100000
10200000
00000000
00000000
01300000
00010000
00001000
,
00000100
00000001
00000000
00000000
00000000
00000000
00000000
00000000
;

//---------------dance-single - ----------------
#NOTES:
     dance-single:
     :
     Edit:
     15:
     0.748,0.749,0.345,0.201,0.575,490.000,36.000,21.000,0.000,0.000,0.000,0.748,0.749,0.345,0.201,0.575,490.000,36.000,21.000,0.000,0.000,0.000:
0000
0000
0000
0000
,
0000
0000
0000
0000
,
0000
0000
0000
0000
,
0000
0000
0000
0000
,
0000
0000
0000
0000
,
0000
0000
0000
0000
,
0001
0100
0001
0000
0010
1000
0000
0010
0100
0000
0001
0010
0000
0001
0100
0000
,
1000
0100
1000
0000
0010
0001
0000
0010
0100
0000
1000
0010
0000
1000
0100
0000
,
0010
0100
0010
0000
1000
0001
0000
0010
0001
0000
1000
0100
0000
0100
1000
0000
,
0010
0100
0010
0000
0001
0010
0100
1000
0010
0100
0001
0010
0100
1000
0010
0100
,
0001
0000
0010
0000
0100
0000
0001
0010
0001
0000
0100
0000
0000
0000
0100
0000
,
1000
0000
0001
0000
1000
0000
0010
0100
0000
0100
0001
0000
0020
0000
0000
0000
,
0130
0000
1000
0100
0001
0000
0100
0000
0010
0001
1000
0000
0010
1000
0001
0000
,
1001
0000
1001
0000
0100
0000
0001
0100
0001
1000
0100
0010
0100
1000
0010
0100
,
0001
0000
0010
0000
1000
0000
0001
0010
0001
0000
0010
0000
0100
1000
0100
0000
,
1000
0000
0001
0000
0100
0000
0001
0100
0000
0000
2002
0000
0000
0000
3003
0000
,
0110
0000
0100
0001
1000
0000
0010
0000
1000
0000
0100
0000
0001
0000
1000
0000
,
0100
0001
0100
0010
0100
1000
0100
0010
0100
0001
0100
0010
0100
0001
0100
0000
,
0011
0001
0101
0100
1100
1000
1010
0010
,
0001
0100
0001
0000
0010
0001
0010
0000
1000
0100
1000
0000
0010
1000
0010
0000
,
1010
1000
1100
0100
0101
0001
0011
0010
,
1000
0010
1000
0000
0100
1000
0100
0000
0001
0010
0001
0000
0100
0001
0100
0000
,
1100
1000
1010
0010
0011
0001
0101
0100
,
1000
0100
1000
0000
0010
1000
0010
0000
0001
0100
0001
0000
0010
0001
0010
0000
,
0001
0000
0000
0000
0001
0000
0100
0010
1000
0000
0000
0000
1000
0000
0100
0010
,
0001
0000
0000
0000
0001
0000
1000
0000
0010
0000
0010
0000
0010
0001
1000
0000
,
0100
0000
0010
0001
0100
0000
0001
0100
0001
0100
0001
0100
0010
1000
0100
0000
,
0001
0010
0000
0000
0001
0100
0000
0000
0010
1000
0000
0000
0001
0100
0000
0000
,
1001
0000
0100
0000
0100
0000
1000
0000
0100
1000
0010
0000
0100
0001
0010
0000
,
0001
0000
0010
0000
0001
0000
0100
0000
1000
0000
0100
0010
0001
0000
0010
0000
,
2000
0000
3200
0000
0000
0320
0000
0000
0032
0000
0000
0203
0000
0000
0320
0000
,
1030
0000
0001
0100
1000
0010
0001
0000
,
0010
0000
0001
0000
1000
0000
0010
0000
0001
0000
1000
0000
0100
1000
0001
0000
,
0010
0000
0001
0000
0010
0100
0010
0000
2000
0000
0000
3020
0000
0000
0230
0000
,
0002
0000
0000
0303
,
0100
0000
0001
0010
0001
0010
0001
0000
1000
0000
0100
0000
1000
0100
1000
0000
,
0101
0000
0000
0000
0010
0000
0001
0000
1000
0010
0001
0000
0100
0000
0000
0000
,
0010
0000
1000
0000
0100
0000
0001
0100
0001
0100
0010
0000
0001
0000
0100
0000
,
0002
0000
0000
0000
0023
0000
1030
0100
0010
0001
1000
0000
0010
1000
0001
0000
,
0100
0001
1000
0010
0100
0001
0010
1000
,
0001
0000
0010
0000
0100
0000
1000
0000
0100
0010
0000
0100
0010
0000
0000
0000
,
0011
0100
0001
0100
1010
0100
1000
0100
,
0020
0000
0001
0000
0000
0000
0130
0002
2000
0000
0000
0000
0000
0000
3003
0000
,
0010
1000
0010
1000
0001
0100
0001
0100
,
0010
1000
0001
0100
0010
1000
0100
0010
,
0001
0100
0001
0100
0010
1000
0001
0100
,
0010
0001
1000
0001
0010
0100
0010
0001
,
1000
0010
0001
1000
0100
0001
1000
0010
,
0001
0100
0000
0000
1000
0100
0000
0000
0001
0010
0000
0000
1000
0010
0000
0000
,
1001
0000
0000
0001
0000
0100
1000
0000
1100
0000
0001
0100
0001
1000
0100
0000
,
0001
1000
0001
0100
1000
0100
0010
1000
,
0001
0000
0010
0001
0100
0000
0010
0100
0001
1000
0100
1000
0100
0001
0100
0002
,
0000
0003
0000
0000
0000
0000
0000
0000
0000
0000
0000
0000
0000
0000
0000
0000
0010
0000
0000
0000
0001
0000
0000
0000
0000
0000
0000
0000
0000
0000
0000
0000
0010
0000
0000
0000
1000
0000
0000
0000
0000
0000
0000
0000
0000
0000
0000
0000
0001
0000
0000
0000
0100
0000
0000
0000
0000
0000
0000
0000
0000
0000
0000
0000
,
1000
0100
0000
0000
0011
0000
0001
0000
0101
0000
0100
0000
1100
0000
1000
0000
,
1010
0000
1000
0000
0100
0000
0001
0100
0001
0000
0100
0000
1000
0000
0001
0010
,
0001
0000
0010
0000
1001
0000
0011
0000
0000
0110
0000
0000
1010
0000
0000
0101
,
0000
0000
1100
0000
0001
0100
0001
0000
1000
0000
0010
0000
0001
0000
0100
0000
,
1000
0010
1000
0000
0100
0000
0001
0000
0010
0000
1000
0000
0100
0000
0010
0000
,
0100
0000
0001
0000
0010
0000
0100
0001
0000
1000
0100
0000
1010
0000
0000
0110
,
0000
0000
0101
0000
2002
0000
0000
0000
3003
0000
0100
1000
0100
1000
0100
0010
,
0100
0010
0001
1000
0000
0000
0000
0000
0000
0000
0000
0000
0000
0000
0000
0000
;

//---------------dance-double - ----------------
#NOTES:
     dance-double:
     :
     Edit:
     15:
     0.706,0.720,0.230,0.211,0.479,470.000,24.000,22.000,0.000,0.000,0.000,0.706,0.720,0.230,0.211,0.479,470.000,24.000,22.000,0.000,0.000,0.000:
00000000
00000000
00000000
00000000
,
00000000
00000000
00000000
00000000
,
00000000
00000000
00000000
00000000
,
00000000
00000000
00000000
00000000
,
00000000
00000000
00000000
00000000
,
00000000
00000000
00000000
00000000
,
00000010
00000000
00000100
00000000
00001000
00000001
00000010
00000000
00000100
00000000
00000000
00000001
00000000
00000000
00001000
00000000
,
00000100
00000000
00010000
00000000
00001000
00100000
00010000
00000000
01000000
00000000
00000000
10000000
00000000
00000000
00010000
00000000
,
00100000
00000000
00010000
00000000
01000000
00100000
00001000
00000000
00010000
00000000
00000000
00001000
00000000
00000000
01000000
00000000
,
10000000
00000000
00100000
00000000
00010000
01000000
00010000
00000000
00100000
00001000
00100000
00001000
00010000
00000100
00010000
00000100
,
00001000
00000000
00000100
00000000
00010000
00000000
00000100
00001000
00000100
00000000
00010000
00000000
00000000
00000000
01000000
00000000
,
00100000
00000000
10000000
00000000
01000000
00000000
00010000
00001000
00010000
00000000
00000020
00000000
00000000
00000000
00000000
00000000
,
00000000
00000000
00000130
00001000
00000100
00000000
00001000
00000000
00000010
00000000
00001000
00000000
00010000
00000000
01000000
00000000
,
00100000
00000000
01000000
00000000
10000000
00000000
00010000
00000000
00100000
01000000
00100000
01000000
00010000
00100000
00010000
00100000
,
00001000
00000000
00000010
00000000
00010000
00000000
00000010
00001000
00000000
00000000
00000100
00000000
00001000
00000000
00000001
00000000
,
00001000
00000000
00000100
00000000
00010000
00000000
00001000
00010000
00000000
00000000
00022000
00000000
00000000
00000000
00033000
00000000
,
00010000
00000000
00100000
00010000
00100000
00000000
10000000
00000000
00100000
00000000
00010000
00000000
00001000
00000000
00000100
00000000
,
00000010
00001000
00000010
00001000
00000100
00010000
00001000
00010000
00001000
00100000
00010000
01000000
00100000
10000000
01000000
00100000
,
00010000
01000000
10000000
01000000
00010000
00100000
10000000
00100000
,
00010000
01000000
00010000
00000000
00001000
00100000
00001000
00000000
00000010
00010000
00000010
00000000
00010000
00001000
00010000
00000000
,
10000000
01000000
00010000
00100000
10000000
00100000
00001000
00010000
,
00100000
01000000
00100000
00000000
00001000
00100000
00001000
00000000
00010000
00000010
00010000
00000000
00000100
00001000
00000100
00000000
,
00010000
00001000
00000010
00000001
00000100
00001000
00010000
01000000
,
00100000
10000000
00100000
00000000
01000000
00001000
01000000
00000000
00100000
00010000
00100000
00000000
00010000
00000100
00010000
00000000
,
00001000
00000000
00000000
00010000
00001000
00010000
00100000
00010000
00001000
00000000
00000000
00010000
00000010
00000100
00000010
00010000
,
00000010
00000100
00000010
00000100
00000001
00000100
00001000
00000010
,
00001000
00000000
00000001
00000000
00000010
00000001
00000100
00000010
00001000
00000100
00010000
00001000
00100000
00010000
01000000
00100000
,
10000000
00000000
01000000
00000000
00010000
01000000
00000000
00000000
00100000
00000000
00001000
00000000
00010000
00001000
00000000
00000000
,
00010000
00000000
00000100
00000000
00010000
00000000
00001000
00000000
00100000
00001000
00100000
00000000
00010000
00000000
00001000
00000000
,
00000010
00000000
00000001
00000000
00000010
00000000
00001000
00000000
00000010
00000000
00000001
00000010
00000001
00000000
00000100
00000000
,
00011000
00000000
00010010
00000000
00000000
00001010
00000000
00000000
00101000
00000000
00000000
01100000
00000000
00000000
10010000
00000000
,
01000000
00000000
00010000
01000000
00010000
00100000
00001000
00000000
,
00000010
00001000
00100000
00001000
00000010
00001000
01000000
00010000
,
00000100
00000000
00010000
00000000
00100000
00000000
10000000
00000000
01000000
00000000
00000000
00101000
00000000
00000000
00010010
00000000
,
00002000
00000000
00000000
00003000
,
01000000
00000000
00100000
00010000
10000000
01000000
00100000
00000000
10000000
00000000
01000000
00000000
00100000
00010000
01000000
00000000
,
00001000
00000000
00000000
00000000
00000010
00000000
00000100
00000000
00001000
00010000
00001000
00000000
00000200
00000000
00000000
00000000
,
00000310
00000000
00000001
00000000
00000100
00000000
00001000
00000100
00001000
00000100
00000010
00000000
00001000
00000000
00000100
00000000
,
00020000
00000000
00000000
00000000
00230000
00000000
00310000
01000000
00100000
10000000
01000000
00000000
00100000
00001000
00010000
00000000
,
00000010
00010000
00001000
01000000
00001000
00010000
00000100
00000001
,
00000010
00000000
00001000
00000000
00010000
00000000
01000000
00000000
10000000
00100000
00000000
01000000
00010000
00000000
00000000
00000000
,
20000000
32000000
03020000
00230000
00302000
00003002
00000023
00000230
,
00000300
00000000
00010000
00000000
00000000
00000000
00001000
00020000
00002000
00000000
00000000
00000000
00033000
00000000
00000000
00000000
,
00010000
00000010
00010000
00001000
01000000
00010000
10000000
01000000
,
00100000
00001000
00010000
00000010
00001000
00000100
00000010
00000001
,
00000100
00001000
00000001
00000010
00000100
00000010
00000001
00001000
,
00000100
00010000
01000000
00100000
10000000
00010000
00001000
00010000
,
00000100
00001000
00000010
00000001
00001000
00010000
01000000
10000000
,
02100000
03001000
00000120
00010030
,
10010000
00000000
00000000
00010000
00000000
00001000
00010000
00000000
00000010
00000000
00000100
00001000
00000100
00001000
00000010
00000000
,
00010000
00001000
01000000
10000000
00100000
01000000
00010000
00100000
,
00001000
00000000
00000100
00000000
00000010
00000001
00000010
00000001
00000100
00000010
00000100
00000010
00001000
00000100
00010000
00002000
,
00000000
00003000
00000000
00000000
00000000
00000000
00000000
00000000
00000000
00000000
00000000
00000000
00000000
00000000
00000000
00000000
00100000
00000000
00000000
00000000
00010000
00000000
00000000
00000000
00000000
00000000
00000000
00000000
00000000
00000000
00000000
00000000
00100000
00000000
00000000
00000000
10000000
00000000
00000000
00000000
00000000
00000000
00000000
00000000
00000000
00000000
00000000
00000000
00010000
00000000
00000000
00000000
01000000
00000000
00000000
00000000
00000000
00000000
00000000
00000000
00000000
00000000
00000000
00000000
,
10000000
01000000
00000000
00000000
00011000
00000000
00100000
00000000
00010000
00000000
00000010
00000000
00001100
00000000
00000001
00000000
,
00000010
00000000
00001000
00000000
00000100
00000000
00010000
00000000
00010000
00000000
00001000
00000000
01000000
00000000
00010000
00100000
,
00010000
00000000
00100000
00000000
01100000
00000000
00110000
00000000
00000000
01001000
00000000
00000000
00001010
00000000
00000000
00010010
,
00000000
00000000
01010000
00000000
00100000
00010000
00100000
00000000
10000000
00000000
00100000
00000000
00010000
00000000
01000000
00000000
,
10000000
01000000
00010000
00000000
00100000
00000000
10000000
00000000
00010000
00100000
01000000
00000000
10000000
00000000
00100000
00000000
,
00010000
00000000
00100000
00000000
00001000
00000000
00010000
00000010
00000000
00001000
00000100
00000000
00000011
00000000
00000000
00000110
,
00000000
00000000
00001100
00000000
00002002
00000000
00000000
00000000
00003003
00000000
00000001
00000100
00000001
00000100
00000010
00001000
,
00000010
00010000
00001000
00010000
00000000
00000000
00000000
00000000
00000000
00000000
00000000
00000000
00000000
00000000
00000000
00000000
;

//---------------dance-double - ----------------
#NOTES:
     dance-double:
     :
     Challenge:
     15:
     0.706,0.692,0.297,0.086,0.594,476.000,31.000,9.000,0.000,0.000,0.000,0.706,0.692,0.297,0.086,0.594,476.000,31.000,9.000,0.000,0.000,0.000: // measure 0
00000000
00000000
00000000
00000000
,  // measure 1
00000000
00000000
00000000
00000000
,  // measure 2
00000000
00000000
00000000
00000000
,  // measure 3
00000000
00000000
00000000
00000000
,  // measure 4
00000000
00000000
00000000
00000000
,  // measure 5
00000000
00000000
00000000
00000000
,  // measure 6
00000100
00000000
00001000
00000000
00000100
00000010
00000001
00000000
00000200
00000000
00000310
00001000
00000000
00000100
00010000
00000000
,  // measure 7
00001000
00000000
00100000
00000000
00001000
01000000
00100000
00000000
20000000
00000000
30100000
01000000
00000000
00010000
00100000
00000000
,  // measure 8
01000000
00000000
10000000
00000000
01000000
00100000
00010000
00000000
02000000
00000000
03010000
00100000
00000000
00001000
00010000
00000000
,  // measure 9
00000100
00000000
00010000
00000000
00000100
00001000
00000010
00000000
00001000
00000001
00000010
00000100
00001000
00000010
00000100
00001000
,  // measure 10
00010000
00000000
00000000
00000000
00011000
00000000
00000000
00000000
00001000
00000000
00010000
00000000
00100000
10000000
00000000
01000000
,  // measure 11
10000000
00000000
00000000
00000000
01100000
00000000
00000000
00000000
10000000
00000000
00100000
00000000
01000000
00010000
00000000
00100000
,  // measure 12
00010000
00000000
00000000
00000000
00101000
00000000
00000000
00000000
00010000
00000000
00001000
00000000
00000010
00000001
00000000
00000100
,  // measure 13
00000001
00000000
00000000
00000000
00001000
00000000
00000001
00000010
00000100
00001000
00000010
00000100
00001000
00010000
00000100
00001000
,  // measure 14
00000100
00000000
00000000
00000000
00000110
00000000
00000000
00000000
00000001
00000000
00000010
00000000
00000100
00001000
00000000
00000010
,  // measure 15
00001000
00000000
00000000
00000000
00010010
00000000
00000000
00000000
00001000
00000000
00010000
00000000
00100000
10000000
00000000
01000000
,  // measure 16
10000000
00000000
00000000
00000000
10010000
00000000
00000000
00000000
01000000
00000000
00100000
00000000
01000000
00010000
00000000
00001000
,  // measure 17
00010000
00001000
00010000
00100000
01000000
00010000
00100000
01000000
10000000
01000000
00100000
00010000
01000000
00100000
00010000
00001000
,  // measure 18
00010000
00010000
00000100
00000100
00000001
00000001
00001000
00001000
,  // measure 19
00000010
00000010
00010000
00010000
01000000
01000000
00001000
00001000
,  // measure 20
00010000
00010000
10000000
10000000
00010000
00010000
00000100
00000100
,  // measure 21
00000001
00000000
00000001
00000000
00000010
00000000
00000010
00000000
00010000
00000000
00010000
00000000
00001000
00000000
00001000
00010000
,  // measure 22
00011000
00010000
00100000
00100000
11000000
10000000
01000000
01000000
,  // measure 23
00110000
00100000
00001000
00001000
00010100
00010000
00000110
00000010
,  // measure 24
00001001
00000000
00000000
00000010
00000100
00000000
00001000
00000000
00011000
00000000
00000000
01000000
00100000
00000000
00010000
00000000
,  // measure 25
00011000
00000000
00000100
00000001
00000100
00001000
00010000
00100000
,  // measure 26
10000000
00000000
00010000
00100000
00010000
00000000
00100000
00001000
00010000
00000100
00000010
00000100
00001000
00000001
00000010
00000100
,  // measure 27
00001000
00000000
00000010
00000000
00001000
00000001
00001000
00000000
00000010
00000000
00000100
00000010
00000000
00010000
00001000
00000000
,  // measure 28
00100000
00000000
01000000
00000000
10000000
00010000
10000000
00000000
00100000
00000000
01000000
00010000
00000000
00100000
00001000
00000000
,  // measure 29
00010000
00000000
00001000
00000000
00100000
01000000
00100000
00000000
00001000
00000000
00010000
00001000
00000000
00000100
00000001
00000000
,  // measure 30
00001000
00000000
00000010
00000000
00000100
00000010
00000100
00000000
00000110
00000000
00000000
00001100
00000000
00000000
00010100
00000000
,  // measure 31
00010000
00000000
00001000
00000000
00100000
00001000
00010000
00000000
00000100
00000000
00010000
01000000
00000000
10000000
01000000
00000000
,  // measure 32
00100000
00000000
00010000
00000000
00100000
00001000
00010000
00000000
00000010
00000000
00000001
00000010
00000000
00001000
00000100
00000000
,  // measure 33
00000001
00000000
00000100
00000000
00000010
00000001
00001000
00000000
00001001
00000000
00000010
00000100
00000000
00001000
00010000
00000000
,  // measure 34
01000000
00100000
01000000
00000000
10000000
00010000
10000000
00000000
00010000
00100000
00001000
00010000
00100000
01000000
00010000
00100000
,  // measure 35
01000000
00000000
20000000
00000000
00100000
00000000
30100000
01000000
00000000
01000000
00100000
00000000
10000000
00000000
01000000
00000000
,  // measure 36
00100000
00000000
00002000
00000000
00010000
00000000
00013000
00000100
00000000
00000100
00000001
00000000
00001000
00000000
00000010
00000000
,  // measure 37
00000001
00000000
00000200
00000000
00000010
00000000
00000310
00001000
00000000
00000001
00000100
00000000
00001000
00000000
00100000
00000000
,  // measure 38
00020000
00000000
00000000
00000000
01000000
00000000
10030000
00100000
00010000
00000000
00001000
00000000
00011000
00000000
00000000
00000000
,  // measure 39
00000100
00000000
00001000
00000000
00010000
00000000
00100000
00000000
01000000
00000000
00100000
00010000
00001000
00000000
00000010
00000000
,  // measure 40
00000001
00000000
00000010
00000100
00001000
00000000
00000010
00000100
00000001
00000000
00000010
00000000
00001001
00000000
00000000
00000000
,  // measure 41
00000010
00000000
00000001
00000100
00000010
00000000
00001000
00000100
00000010
00000000
00001000
00010000
00000100
00000000
00010000
00001000
,  // measure 42
00100000
00000000
00100000
00000000
01000000
00000000
00100000
00001000
00010000
00001000
00100000
00010000
01000000
00100000
10000000
00010000
,  // measure 43
01000000
00000000
00000000
00000000
,  // measure 44
00000000
10000000
00010000
00001000
,  // measure 45
00000001
00000000
00000100
00000000
,  // measure 46
01000000
00001000
00010000
00000010
,  // measure 47
00000100
00000000
00000000
00000100
00000110
00000000
00000010
00001000
,  // measure 48
00010000
00000000
01000000
01000000
01100000
00000000
00010000
00000000
,  // measure 49
10010000
00000000
01000000
00100000
00101000
00000000
00010000
00000100
,  // measure 50
00001100
00000000
00000010
00000100
00000010
00000100
00000010
00000100
,  // measure 51
00001000
00000000
00000001
00000010
00000100
00000000
00001000
00000100
00000010
00000001
00000100
00000010
00001000
00000100
00010000
00002000
,  // measure 52
00000000
00003000
00000000
00000000
00000000
00000000
00000000
00000000
00000000
00000000
00000000
00000000
00000000
00000000
00000000
00000000
00011000
00000000
00000000
00000000
00000000
00000000
00000000
00000000
00010000
00000000
00000000
00000000
00000000
00000000
00000000
00000000
00001000
00000000
00000000
00000000
00010000
00000000
00000000
00000000
00100000
00000000
00000000
00000000
00000000
00000000
00000000
00000000
10000000
00000000
00000000
00000000
00000000
00000000
00000000
00000000
00010000
00000000
00000000
00000000
01000000
00000000
00000000
00000000
,  // measure 53
00000000
10000000
01000000
00000000
00100000
00000000
01000000
00000000
00010000
10000000
01000000
00000000
00100000
00000000
00001000
00010000
,  // measure 54
00000000
00000100
00001000
00000000
00000010
00000000
00001000
00000000
00000001
00000100
00000010
00000000
00000100
00000000
00000001
00000010
,  // measure 55
00000000
00001000
00010000
00000000
00001000
00000000
01000000
00000000
00100000
10000000
00010000
00000000
10010000
00000000
00000000
01001000
,  // measure 56
00000000
00000000
00010100
00000000
00001000
00000000
00010000
00000000
00100000
00010000
00001000
00000000
00000100
00000000
00000010
00001000
,  // measure 57
00000000
00000001
00000010
00000000
00000100
00000000
00001000
00000000
00000001
00000100
00001000
00000000
00010000
00000000
00100000
10000000
,  // measure 58
00000000
00010000
01000000
00000000
00100000
00000000
10000000
00000000
00010000
00100000
01000000
00000000
11000000
00000000
00100000
00010000
,  // measure 59
00000000
00001000
00000100
00000000
00000120
00000000
00000000
00000000
00000000
00000000
00000031
00001000
00000010
00000100
00001000
00010000
,  // measure 60
00001000
00100000
01000000
10000000
00000000
00000000
00000000
00000000
00000000
00000000
00000000
00000000
00000000
00000000
00000000
00000000
;
