#TITLE:REVOLUTIONARY ADDICT;
#SUBTITLE:;
#ARTIST:TAG underground;
#TITLETRANSLIT:;
#SUBTITLETRANSLIT:;
#ARTISTTRANSLIT:;
#GENRE:;
#CREDIT:;
#BANNER:REVOLUTIONARY ADDICT.png;
#BACKGROUND:REVOLUTIONARY ADDICT-bg.png;
#LYRICSPATH:;
#CDTITLE:./CDTITLES/DanceDanceRevolution X3 VS 2ndMIX.png;
#MUSIC:REVOLUTIONARY ADDICT.ogg;
#OFFSET:0.010;
#SAMPLESTART:12.380;
#SAMPLELENGTH:14.000;
#SELECTABLE:YES;
#DISPLAYBPM:174.000;
#BPMS:0.000=174.000
,131.000=696.000
,135.000=174.000
;
#STOPS:
;
#BGCHANGES:;
#KEYSOUNDS:;
#ATTACKS:;

//---------------dance-single - ----------------
#NOTES:
     dance-single:
     :
     Beginner:
     3:
     0.142,0.249,0.019,0.039,0.000,97.000,2.000,4.000,0.000,0.000,0.000,0.142,0.249,0.019,0.039,0.000,97.000,2.000,4.000,0.000,0.000,0.000:
0000
0000
0000
0000
,
0000
0000
0000
0000
,
0000
0000
0000
0000
,
0000
0000
0000
0000
,
0000
0000
0000
0000
,
0100
0000
0000
0000
,
0100
0000
0000
0000
,
0010
0000
0000
0000
,
0010
0000
0000
0000
,
1000
0000
1000
0000
,
1000
0000
0000
0000
,
0100
0000
0100
0000
,
0100
0000
0000
0000
,
0001
0000
0001
0000
,
0001
0000
0000
0000
,
0010
0000
0010
0000
,
0010
0000
0000
0000
,
1000
0000
1000
0000
,
1000
0000
0000
0000
,
0010
0000
0010
0000
,
0010
0000
0000
0000
,
0001
0000
0001
0000
,
0001
0000
0000
0000
,
0100
0000
0100
0000
,
0100
0000
0000
0000
,
0010
0000
0000
0000
,
1000
0000
0000
0000
,
0100
0000
0000
0000
,
0010
0000
0000
0000
,
0001
0000
0000
0000
,
1000
0000
0000
0000
,
0001
0000
0000
0000
,
0100
0000
0000
0000
,
0000
0000
0000
0100
,
0000
0100
0000
0100
,
0000
0000
0000
0010
,
0000
0010
0000
0010
,
0000
0000
0000
0001
,
0000
0001
0000
1000
,
0000
1000
0000
0100
,
0100
0100
0000
0010
,
0010
0010
0000
0020
,
0000
0000
0030
0000
,
0000
0000
0000
0002
,
0000
0000
0003
0000
,
0000
0000
0000
2000
,
0000
0000
3000
0000
,
0000
0000
0000
0020
,
0000
0000
0030
0000
,
0000
0000
0000
0010
,
0000
0000
0000
0100
,
0000
0000
0000
0010
,
0000
0000
0000
0100
,
0000
0000
0000
1000
,
0000
1000
0000
0001
,
0000
0001
0000
1000
,
0000
0001
0000
1001
,
0000
0000
0000
0100
,
0000
0100
0000
0100
,
0000
0000
0000
0010
,
0000
0010
0000
0010
,
0000
0000
0000
1000
,
0000
1000
0000
1000
,
0000
0000
0000
0001
,
0000
0001
0000
0001
,
0000
0000
0000
0100
,
0000
0100
0000
0001
,
0000
0001
0000
0100
,
0000
0100
0000
1000
,
0000
0000
0000
0001
,
0000
0001
0000
1000
,
0000
1000
0000
0010
,
0010
0010
0000
0100
,
0100
0100
0000
1001
;

//---------------dance-single - ----------------
#NOTES:
     dance-single:
     :
     Easy:
     7:
     0.362,0.476,0.213,0.184,0.000,221.000,22.000,19.000,0.000,0.000,0.000,0.362,0.476,0.213,0.184,0.000,221.000,22.000,19.000,0.000,0.000,0.000:
0000
0000
0000
0000
,
0000
0000
0000
0000
,
0000
0000
0000
0000
,
0000
0000
0000
0000
,
0000
0000
0000
0000
,
0001
1000
0000
1000
,
0001
0100
0000
0100
,
0001
0010
0000
0010
,
0001
0100
1000
0000
,
0001
0001
1000
0001
,
0010
0010
1000
0010
,
0100
0100
0001
0100
,
1000
1000
0001
0100
,
0001
0001
0001
0100
,
0010
0010
0010
1000
,
0100
0100
0100
0010
,
1000
1000
1001
0000
,
1000
0010
0001
0100
,
0001
0010
1000
0001
,
0100
0010
0100
1000
,
0001
0100
1000
0001
,
0010
0001
1000
0001
,
0100
0010
1000
0001
,
0100
0010
0001
0010
,
0100
0100
0110
0000
,
0001
0000
0000
0001
0000
0000
0100
0000
,
0010
0000
0000
0010
0000
0000
1000
0000
,
0100
0000
0000
0100
0000
0000
0010
0000
,
0001
0000
0000
1000
0000
0000
0001
0000
,
0100
0000
0000
0100
0000
0000
0010
0000
,
1000
0000
0000
1000
0000
0000
0001
0000
,
0100
0000
0000
0100
0000
0000
0010
0000
,
1000
0000
0000
0001
0000
0000
1001
0000
,
0000
0000
0000
0001
,
1000
0001
0010
0100
,
1000
0100
0000
0001
,
0100
0001
0010
0100
,
0010
0100
0000
1100
,
0000
0101
0000
0011
,
0000
1010
0000
0100
,
0100
0100
0100
0010
,
0010
0010
0010
0020
,
0000
0000
0000
2030
,
0000
0000
0000
3002
,
0000
0000
0000
0000
,
0000
0000
0003
2000
,
0000
0000
0000
3200
,
0000
0320
0000
0032
,
0000
0000
0000
2003
,
0000
3000
0000
0002
,
1000
0000
1003
0020
,
1000
0000
1030
0200
,
0001
0000
0301
2000
,
0010
0000
3010
0200
,
0310
0200
0301
0020
,
0130
0020
1030
1001
,
1001
0110
0110
2002
,
0000
3003
1001
0001
,
0100
0010
0100
0001
,
0010
0100
1000
0001
,
1000
0010
0100
0010
,
0010
0100
0100
0010
,
0010
0100
0010
0100
,
0001
0010
1000
0010
,
0100
1000
0100
0011
,
0000
1010
0000
1001
,
0100
0001
0100
1000
,
0010
0001
0010
0100
,
0001
0010
0001
0100
,
0100
0000
0010
0100
0010
0000
1001
0000
,
0001
0100
0010
1001
,
1000
0100
0010
0110
,
0000
1001
0000
0101
,
1100
0000
0001
1000
0001
0000
0200
0000
,
0000
0000
0000
0000
,
0000
0000
0000
0300
;

//---------------dance-single - ----------------
#NOTES:
     dance-single:
     :
     Medium:
     10:
     0.451,0.512,0.174,0.155,0.048,293.000,18.000,16.000,0.000,0.000,0.000,0.451,0.512,0.174,0.155,0.048,293.000,18.000,16.000,0.000,0.000,0.000:
0000
0000
0000
0000
,
0000
0000
0000
0000
,
0000
0000
0000
0000
,
0000
0000
0000
0000
,
0000
0000
0000
0000
,
1000
0000
0001
0100
0000
0000
0010
0000
,
1000
0000
0010
0100
0000
0000
0010
0000
,
1000
0000
0001
1000
0000
0000
0100
0000
,
0010
0010
1001
1001
,
0001
0100
0001
0000
0001
0000
1000
0000
,
0100
1000
0100
0000
0100
0000
0010
0000
,
0010
0100
0010
0000
0010
0000
0001
0000
,
0001
0100
0001
0000
1000
0100
1000
0000
,
0001
0100
0010
0000
0100
0000
0010
0000
,
1000
0010
0100
0000
0010
0000
1000
0000
,
0100
1000
0001
0000
1000
0000
0100
0000
,
0010
0100
0010
0100
0010
0000
0000
0000
,
0001
0100
1000
0010
,
0001
0000
0010
0000
1000
0100
0001
0000
,
0100
1000
0010
0001
,
0010
0000
1000
0100
0001
0000
0000
0000
,
1000
0100
0001
0010
,
1000
0000
0010
0000
0001
0100
1000
0000
,
0100
0000
0001
0000
1000
0100
0001
0000
,
0001
0010
0100
1000
0002
0000
0000
0000
,
1003
0000
0000
1000
0000
0000
1000
0000
0000
0000
0000
0000
0020
0000
0000
0000
,
0100
0000
0000
0100
0000
0000
0130
0000
0000
0000
0000
0000
0002
0000
0000
0000
,
0010
0000
0000
0010
0000
0000
0013
0000
0000
0000
0000
0000
2000
0000
0000
0000
,
0001
0000
0000
0001
0000
0000
3001
0000
0000
0000
0000
0000
0100
0000
0000
0000
,
0001
0000
0000
0001
0000
0000
0100
0000
0000
0000
0000
0000
0001
0000
0000
0000
,
0010
0000
0000
0010
0000
0000
1000
0000
0000
0000
0000
0000
0001
0000
0000
0000
,
1000
0000
0000
1000
0000
0000
0100
0000
0000
0000
0000
0000
0010
0000
0000
0000
,
0100
0000
0000
0100
0000
0000
0100
0000
0000
0000
0000
0000
0020
0000
0000
0000
,
0000
0000
0030
1000
,
0100
0000
0010
0001
0100
0001
0010
0000
,
0100
1000
0100
0100
,
0001
0000
0100
0010
1000
0010
0100
0000
,
0010
0000
1000
0000
0100
0000
0001
0001
,
0000
0000
1000
1000
0000
0000
1010
0010
,
0000
0000
0101
0100
0000
0000
1000
0010
,
1000
0000
0001
0100
0001
0000
1000
0010
,
0000
1010
0000
0100
0001
0010
0200
0000
,
0000
0000
0000
2300
,
0000
0000
0000
3020
,
0000
0000
0000
0000
,
0000
0000
0000
0230
,
0000
0000
0000
0302
,
0000
2003
0000
3200
,
0000
0000
0000
0320
,
0000
0130
0000
1001
,
0000
0100
0000
0100
0000
0100
0001
0000
,
0000
0010
0000
0010
0000
0010
0100
0000
,
0000
1000
0000
1000
0000
1000
0010
0000
,
0000
0001
0000
0001
0000
0001
0010
0000
,
0100
0100
1000
0000
0002
0010
0013
0000
,
0100
0100
0001
0000
2000
0100
3100
0000
,
0110
0000
0000
0000
1000
0000
0001
0000
0100
0000
0000
0000
0010
0000
0000
0010
,
0000
0000
0010
0000
0000
0010
0000
0000
0010
0000
0000
0000
1000
0000
0000
0000
,
0010
0000
0001
0010
0100
0000
1000
0000
,
0100
0000
0001
0100
0010
0000
0100
0000
,
0010
0000
1000
0100
0010
0000
0100
0000
,
0001
1000
0000
0010
,
1000
0000
0001
1000
0100
0000
0010
0000
,
0001
0000
1000
0100
0010
0000
1000
0000
,
0110
0000
0001
0100
0010
0000
1010
0000
,
0100
0101
0000
1001
,
0010
0100
1000
0100
0010
0000
0001
0000
,
0100
0010
1000
0010
0100
0000
0010
0000
,
1000
0010
0100
0010
1000
0000
0010
0100
,
0010
0110
0000
1001
,
1000
0100
0010
0001
0100
0000
1001
0000
,
0001
0100
0010
1000
0100
0000
0110
0000
,
0100
1001
0100
1010
,
0011
0000
1000
0100
0001
0100
0020
0000
,
0000
0000
0000
0000
,
0000
0000
0000
0030
;

//---------------dance-single - ----------------
#NOTES:
     dance-single:
     :
     Hard:
     13:
     0.678,0.732,0.155,0.251,0.304,449.000,16.000,26.000,0.000,0.000,0.000,0.678,0.732,0.155,0.251,0.304,449.000,16.000,26.000,0.000,0.000,0.000:
0000
0000
0000
0000
,
0000
0000
0000
0000
,
0000
0000
0000
0000
,
0000
0000
0000
0000
,
0000
0000
0000
0000
,
0010
0000
1000
0100
0000
1000
0010
0000
,
0100
0000
0001
0010
0000
0001
0100
0000
,
1000
0000
0100
0001
0000
0100
0010
0000
,
1001
0000
0000
0000
1001
0000
0000
0000
0001
1000
0000
0001
1000
0000
0010
0000
,
1000
0000
0100
0000
0010
0000
0000
0001
0000
0000
0010
0000
0100
0000
0010
0000
,
0001
0000
0100
0000
0010
0000
0000
1000
0000
0000
0010
0000
0100
0000
0010
0000
,
1000
0000
0001
0000
1000
0000
0000
0100
0000
0000
0010
0000
0001
0000
0010
0000
,
0100
0000
1000
0000
0001
0000
0000
0100
0000
0000
0010
0000
0100
0000
1000
0000
,
0100
0000
0010
0000
1000
0000
0000
0001
0000
0000
0010
0000
0100
0000
0001
0000
,
0100
0000
1000
0000
0001
0000
0000
0100
0000
0000
0010
0000
0100
0000
0001
0000
,
1000
0000
0010
0000
0100
0000
0000
1000
0000
0000
0100
0000
0001
0000
1000
0000
,
0010
0000
0100
0000
0010
0000
0000
1000
0000
0000
0001
0000
0100
0000
0010
0000
,
1000
0000
0001
0000
1000
0001
0000
1000
0001
0000
1000
0001
0000
1000
0001
0000
,
0100
0000
0001
0000
0100
0001
0000
0100
0001
0000
0100
0001
0000
0100
0001
0000
,
0010
0000
0001
0000
0010
0001
0000
0010
0001
0000
0010
0001
0000
0010
0001
0000
,
1000
0000
0100
0000
1000
0100
0000
1000
0100
0000
0010
0000
0001
0000
1000
0000
,
0001
0000
0100
0000
0001
0100
0000
0001
1000
0000
0001
1000
0000
0010
1000
0000
,
0010
0000
0100
0000
0001
0010
0000
0001
0010
0000
0001
1000
0000
0001
1000
0000
,
0001
0000
1000
0000
0100
1000
0000
0100
1000
0000
0010
1000
0000
0001
1000
0000
,
0001
0010
0100
1000
0001
0010
0100
1000
,
0001
0000
0000
0010
0000
0000
0100
0000
0000
1000
0000
0000
0001
0000
0100
0000
,
1000
0000
0000
0100
0000
0000
0010
0000
0000
1000
0000
0000
0001
0000
0100
0000
,
1000
0000
0000
0100
0000
0000
0010
0000
0000
1000
0000
0000
0001
0000
0010
0000
,
1000
0000
0000
0010
0000
0000
0100
0000
0000
1000
0000
0000
0001
0000
0010
0000
,
2000
0000
0000
3020
0000
0000
0230
0000
0000
0302
0000
0000
0103
0000
0010
0000
,
0200
0000
0000
2300
0000
0000
3020
0000
0000
0230
0000
0000
0301
0000
1000
0000
,
0002
0000
0000
2003
0000
0000
3200
0000
0000
0320
0000
0000
0031
0000
0100
0000
,
0020
0000
0000
1000
0000
0000
0230
0000
0000
0001
0000
0000
0320
0000
0000
0000
,
0000
0000
0000
0000
0030
0000
1000
0010
,
1000
0100
1000
0010
0100
0010
0001
0100
,
0001
0010
0100
1000
0001
0000
1000
0100
,
0001
0100
1000
0010
1000
0100
0001
0010
,
1000
0010
0100
1000
0010
0000
1000
1000
,
0010
0000
0001
0001
0100
0000
1000
0100
,
1100
0000
0001
0010
0011
0000
1000
0100
,
0001
0100
0010
1000
0010
0001
1000
1000
,
0010
0010
0100
0100
0001
0001
0020
0000
,
0000
0000
0000
0002
,
0000
0000
0030
0200
,
0000
0000
0000
0000
,
0000
0000
0003
0020
,
0000
0000
0300
2000
,
0030
0200
3000
0020
,
0000
0000
0300
0002
,
0030
0200
0303
1001
,
0010
0100
0000
0010
1000
0100
1100
0000
,
0010
0001
0000
0100
0010
0100
0101
0000
,
0010
1000
0000
0010
0100
0010
1010
0000
,
0100
0001
0000
0010
0100
0010
0011
0000
,
0100
0000
0100
0000
0100
0000
0000
0000
1000
0100
1000
0100
1000
0000
0000
0000
,
0010
0000
0010
0000
0010
0000
0000
0000
0001
0010
0001
0010
0001
0000
0100
0000
,
0010
0000
0100
0000
1000
0000
0100
0000
0001
0000
0010
0000
0100
0000
0000
1000
,
0000
0000
0100
0000
0000
0001
0000
0000
0010
0000
1001
0000
0010
0000
0001
0000
,
0100
0010
1000
0100
1000
0010
0001
0100
,
0010
1000
0100
0010
0100
1000
0010
0001
,
0100
0010
1000
0100
0010
0100
0001
0010
,
0001
1000
0010
0100
0010
1000
0100
0001
,
1000
0100
0010
0001
0100
0010
0001
1000
,
0010
0001
0010
0100
0001
0010
1000
0100
,
0001
0000
0100
0000
0010
0000
0001
0000
0100
0000
0010
0000
0010
0000
0000
1000
,
0000
0000
1100
0000
0010
0000
0000
0001
0000
0000
0011
0000
0001
0000
1000
0000
,
0100
0010
0001
1000
0010
0100
0100
1000
,
0010
0100
0001
0010
0001
0100
0100
1000
,
0010
0001
0010
1000
0001
0100
0100
0010
,
0001
0100
0010
1000
0010
0100
1001
1000
,
0001
0001
0010
0100
1000
0100
0100
0010
,
1000
0000
1000
0000
0100
0000
0010
0000
0001
0000
0100
0000
0110
0000
0000
0010
,
0000
0000
1000
0000
1100
0000
0000
0100
0000
0000
0010
0000
0001
0000
0100
0000
,
1000
0000
0010
0000
0001
0000
1000
0000
0100
0010
0100
0000
2002
0000
0000
0000
,
0000
0000
0000
0000
,
0000
0000
0000
3003
;

//---------------dance-single - ----------------
#NOTES:
     dance-single:
     :
     Challenge:
     16:
     0.923,0.988,0.512,0.242,1.000,591.000,53.000,25.000,0.000,0.000,0.000,0.923,0.988,0.512,0.242,1.000,591.000,53.000,25.000,0.000,0.000,0.000:
0000
0000
0000
0000
,
0000
0000
0000
0000
,
0000
0000
0000
0000
,
0000
0000
0000
0000
,
0000
0000
0000
0000
,
0100
0000
0001
0010
0000
0001
0100
0000
,
0010
0000
1000
0100
0000
1000
0010
0000
,
0001
0000
0010
1000
0000
0010
0100
0000
,
1001
0000
0000
0000
1001
0000
0000
0000
0001
1000
0000
0010
0100
0000
0010
0000
,
1000
0001
1000
0000
0100
1000
0000
0001
0010
0000
0100
1000
0000
0001
0100
0010
,
1000
0001
1000
0000
0001
0100
0000
0010
1000
0000
0100
1000
0000
0001
0010
0100
,
1000
0100
1000
0000
0001
1000
0000
0100
1000
0000
0001
0010
0000
0100
0010
0001
,
0100
0010
0100
0000
0001
0100
0000
0010
1000
0100
0010
0001
0100
0010
1000
0001
,
0100
0001
0100
0000
0001
0100
0000
0010
0100
0000
0001
1000
0000
0100
1000
0100
,
0010
0001
0010
0000
0001
1000
0000
0001
0100
0000
0010
1000
0000
0001
0010
0100
,
1000
0001
1000
0000
0001
0100
0000
0010
0100
0000
0010
1000
0000
0010
1000
0001
,
0010
0100
0010
0000
0001
1000
0000
0100
1000
0000
0010
0100
0001
0100
0010
1000
,
0001
0010
0001
0000
0010
0001
0000
0001
1000
0000
1000
0100
0000
0100
0010
0000
,
0001
0100
0001
0000
0001
0010
0000
0010
0100
0000
0100
1000
0000
1000
0010
0000
,
0100
0001
0100
0000
0100
0010
0000
0010
1000
0000
1000
0001
0000
0001
0010
0000
,
0100
0010
0100
0000
0100
1000
0000
1000
0001
0100
0010
1000
0100
0010
0001
1000
,
0001
0010
0001
0000
0001
0100
0000
0100
1000
0000
1000
0100
0000
0100
0001
0000
,
1000
0100
1000
0000
1000
0100
0000
0100
0001
0000
0001
0100
0000
0100
0010
0000
,
0001
1000
0001
0000
0001
1000
0000
1000
0001
0000
0001
0010
0000
0010
0100
0000
,
0010
0001
0010
0000
0001
0100
0001
0000
1000
0100
0010
0001
1000
0100
0010
0001
,
0100
0000
0000
0010
0000
0000
0101
0000
0000
0010
0000
0000
0100
0000
0010
0100
,
0001
0000
0000
1000
0000
0000
1010
0000
0000
0100
0000
0000
0001
0000
0100
0010
,
1000
0000
0000
0001
0000
0000
0011
0000
0000
0100
0000
0000
1000
0000
0001
0100
,
0010
0000
0000
1000
0000
0000
1100
0000
0000
0010
0000
0000
0001
0000
1000
0010
,
0200
0000
0000
0001
0000
0000
0320
0000
0000
1000
0000
0000
0130
0000
0001
1000
,
0200
0000
0000
0010
0000
0000
2300
0000
0000
0010
0000
0000
3001
0000
0010
0100
,
2000
0000
0000
0001
0000
0000
3020
0000
0000
0100
0000
0000
1030
0000
0100
0010
,
0002
0000
0000
0010
0000
0000
1000
0000
0000
0103
0000
0000
0220
0000
0000
0000
,
0000
0000
0000
0000
0300
0000
1030
0001
,
0100
0010
0000
0011
0000
0010
0000
0100
1000
0000
0001
0000
0100
0000
0010
0000
,
1000
0001
0000
1010
0000
1000
0000
0001
0010
0000
0100
0000
1000
0000
0001
0000
,
0010
0100
0000
1100
0000
0100
0000
0010
0001
0000
1000
0000
0001
0000
0100
0000
,
0010
0100
0000
1001
0000
0010
0000
0100
1000
0000
0010
0000
0010
0000
1000
0000
,
0010
1000
0000
1000
0100
0000
0010
0000
0001
0100
0000
0100
0010
0000
0100
0000
,
0010
1000
0000
1000
0100
0000
0010
0000
0001
1000
0000
1000
0100
0000
0100
0000
,
1000
0000
1000
0000
0010
0000
0010
0000
0001
0000
0001
0000
1000
0100
1000
0100
,
0010
0001
0010
0001
0100
0010
0100
0010
1000
0001
1000
0001
0200
0000
0000
0000
,
0000
0000
0000
0002
,
0000
0000
0300
0020
,
0000
0000
0000
0000
,
0000
0000
0033
0202
,
0000
0000
0303
2020
,
3030
2002
3003
0022
,
0000
0000
0033
0202
,
0303
0220
0330
1001
,
0100
0000
0000
0000
0100
0010
1001
0000
,
0100
0000
0000
0000
0100
0010
1001
0000
,
0100
0000
0000
0000
0100
0010
1001
0000
,
0100
0000
0000
0000
0100
0010
1001
0000
,
0100
0010
1010
0000
0100
0000
0110
0000
,
0100
0000
0010
0000
0101
0000
0000
0000
1000
0001
1000
0001
1000
0000
0001
0100
,
0001
0000
1000
0100
1000
0001
0100
0001
1000
0100
1000
0001
0100
0000
0000
0101
,
0000
0000
1010
0000
0000
1100
0000
0000
1001
0000
1001
0000
0100
0000
1000
0010
,
0100
0001
0000
0101
0000
1000
0100
0010
0001
0000
0100
0000
0010
0000
1000
0001
,
0010
0100
0000
0110
0000
0001
0000
1000
0100
1000
0001
0100
0010
0000
1000
0100
,
1000
0010
0000
0101
0000
0001
1000
0100
0010
0000
0001
0000
1000
0000
0001
0010
,
0100
0010
0000
0110
0000
0001
0000
1000
0010
0000
0100
0000
0010
0000
1000
0010
,
0100
0001
0000
1001
0000
0100
0010
0001
1000
0000
0001
0000
0010
0000
0001
0010
,
0100
1000
0000
0101
0000
0010
0000
1000
0100
0010
0001
1000
0010
0000
0100
0001
,
1000
0010
0000
1100
0000
0010
0001
1000
0001
0000
0010
0000
0011
0000
0000
1001
,
0000
0000
1100
0000
1010
0000
0000
1001
0000
0000
0101
0000
1001
0000
0001
0100
,
0010
0100
0001
0100
0010
0100
0000
0010
1000
0000
0100
0000
1100
0000
1000
0100
,
0010
0100
1000
0100
0010
0100
0000
1000
0001
0010
0001
1000
0010
0000
0100
0010
,
1000
0001
0100
0001
1000
0001
0000
0100
0010
0000
1000
0000
1001
0000
0100
0001
,
1000
0100
0010
0001
0100
0010
0000
1000
0100
0000
0010
0000
1001
0000
0001
0100
,
0000
1100
0000
0101
0000
0011
0000
0010
1000
0000
0100
1000
0100
0000
1000
0100
,
0000
0101
0000
0110
0000
1001
0000
0001
0010
0001
1000
0100
1000
0000
0010
0100
,
0000
0010
0100
0001
0010
0000
0100
0010
0000
0100
1000
0010
0100
0001
0010
0100
,
1000
0010
0100
0001
0010
0100
1000
0100
0010
0001
1000
0001
0020
0000
0000
0000
,
0000
0000
0000
0000
,
0000
0000
0000
0030
;

//---------------dance-double - ----------------
#NOTES:
     dance-double:
     :
     Easy:
     6:
     0.333,0.366,0.155,0.106,0.000,214.000,16.000,11.000,0.000,0.000,0.000,0.333,0.366,0.155,0.106,0.000,214.000,16.000,11.000,0.000,0.000,0.000:
00000000
00000000
00000000
00000000
,
00000000
00000000
00000000
00000000
,
00000000
00000000
00000000
00000000
,
00000000
00000000
00000000
00000000
,
00000000
00000000
00000000
00000000
,
00010000
00000100
00000000
00000100
,
00000010
00000001
00000000
00000001
,
00000100
00001000
00000000
00001000
,
00010000
00001000
00011000
00011000
,
00010000
01000000
10000000
00100000
,
00100000
10000000
01000000
00010000
,
00001000
00000100
00000001
00000010
,
00000010
00000001
00000100
00000000
,
00000100
00001000
00010000
01000000
,
01000000
00010000
00001000
00000100
,
00000100
00001000
00010000
00100000
,
00100000
00010000
00001000
00000000
,
00000100
00000100
00000001
00000001
,
00000100
00000100
00001000
00001000
,
00010000
00010000
00001000
00001000
,
00100000
00010000
00100000
00000000
,
00010000
10000000
01000000
00100000
,
00010000
00100000
00001000
00010000
,
00000100
00001000
00000010
00000100
,
00000001
00001000
00000100
00000000
,
00000001
00000000
00000000
00000001
00000000
00000000
00000100
00000000
,
00001000
00000000
00000000
00001000
00000000
00000000
00010000
00000000
,
00100000
00000000
00000000
00100000
00000000
00000000
10000000
00000000
,
01000000
00000000
00000000
01000000
00000000
00000000
00010000
00000000
,
00001000
00000000
00000000
00010000
00000000
00000000
00000100
00000000
,
00000010
00000000
00000000
00000001
00000000
00000000
00001000
00000000
,
00000001
00000000
00000000
00000100
00000000
00000000
00001000
00000000
,
00010000
00000000
00000000
00001000
00000000
00000000
00011000
00000000
,
00000000
00000000
00000000
00001000
,
00100000
01000000
10000000
00010000
,
00100000
01000000
00010000
00001000
,
00000100
00000001
00000010
00000100
,
00001000
00000100
00000010
00000110
,
00000000
00001100
00000000
00011000
,
00000000
00110000
00000000
01100000
,
01000000
01000000
01000000
00010000
,
10000000
00010000
10000000
00200000
,
00000000
00000000
00000000
20300000
,
00000000
00000000
00000000
30020000
,
00000000
00000000
00000000
00030000
,
00000000
00000000
00000000
00002000
,
00000000
00000000
00000000
00023000
,
00000000
00030020
00000000
00002030
,
00000000
00000000
00000000
00003002
,
00000000
00000003
00000000
00000001
,
00000000
00000100
00000000
00000000
00000001
00000000
00001000
00000000
,
00000000
00000010
00000000
00000000
00001000
00000000
00000100
00000000
,
00000000
00010000
00000000
00000000
00000100
00000000
00010000
00000000
,
00000000
00001000
00000000
00000000
00010000
00000000
00001000
00000000
,
00001000
00100000
00100000
00010000
,
00010000
10000000
10000000
01000000
,
00010000
00001000
00000010
00000200
,
00000000
00000300
00001001
00001000
,
00000100
00000010
00000001
00000001
,
00000010
00000100
00001000
00000010
,
00000100
00001000
00010000
00001000
,
00010000
00001000
00000000
00010000
,
00001000
00100000
00010000
00010000
,
00100000
01000000
00100000
00010000
,
10000000
01000000
00100000
01100000
,
00000000
10010000
00000000
10000000
,
01000000
00010000
00001000
00010000
,
00001000
00000100
00000001
00000100
,
00000001
00000010
00001000
00000010
,
00001000
00010000
00000000
00011000
,
00000000
01000000
00000000
10010000
,
00000000
00100000
00000000
01100000
,
00000000
00011000
00000000
00000100
,
00000100
00001000
00000001
00002002
,
00000000
00000000
00000000
00000000
,
00000000
00000000
00000000
00003003
;

//---------------dance-double - ----------------
#NOTES:
     dance-double:
     :
     Medium:
     9:
     0.489,0.512,0.300,0.377,0.010,284.000,31.000,39.000,0.000,0.000,0.000,0.489,0.512,0.300,0.377,0.010,284.000,31.000,39.000,0.000,0.000,0.000:
00000000
00000000
00000000
00000000
,
00000000
00000000
00000000
00000000
,
00000000
00000000
00000000
00000000
,
00000000
00000000
00000000
00000000
,
00000000
00000000
00000000
00000000
,
00000100
00000000
00001000
00000001
00000000
00000000
00000100
00000000
,
00001000
00000000
00010000
00001000
00000000
00000000
00010000
00000000
,
01000000
00000000
00100000
00010000
00000000
00000000
01000000
00000000
,
00100000
00100000
02200000
03300000
,
00020000
10000000
01000000
00130000
,
02000000
00000000
00010000
00000000
03100000
10000000
00010000
00000000
,
00200000
01000000
00010000
00301000
,
00020000
00000000
00001000
00000000
00030100
00001000
00000010
00000000
,
00000200
00000010
00001000
00000310
,
00002000
00000000
00000100
00000000
00003001
00000010
00000100
00000000
,
00000020
00000001
00000100
00001030
,
00010000
00001000
00000100
00001000
00010000
00000000
00000000
00000000
,
00002000
00000010
00010000
00103000
,
00020000
00000000
01000000
00000000
10030000
01000000
00100000
00000000
,
02000000
00010000
10000000
03100000
,
00020000
00000000
00100000
00000000
00031000
00000100
00001000
00000000
,
00000020
00001000
00000001
00001030
,
00000200
00000000
00010000
00000000
00000310
00001000
00010000
00000000
,
00200000
10000000
00010000
01300000
,
00001000
00010000
00001000
00000100
00000020
00000000
00000000
00000000
,
00001030
00000000
00000000
00000101
00000000
00000000
00000010
00000000
,
00001100
00000000
00000000
00011000
00000000
00000000
00100000
00000000
,
01010000
00000000
00000000
10100000
00000000
00000000
01000000
00000000
,
00110000
00000000
00000000
01001000
00000000
00000000
00010000
00000000
,
00101000
00000000
00000000
00010100
00000000
00000000
00000010
00000000
,
00000101
00000000
00000000
00001010
00000000
00000000
00000100
00000000
,
00011000
00000000
00000000
01100000
00000000
00000000
10000000
00000000
,
10010000
00000000
00000000
00101000
00000000
00000000
00022000
00000000
,
00000000
00000000
00033000
00001000
,
00010000
00000000
00000100
00001000
00000010
00000000
00000100
00000000
,
00000001
00000000
00000100
00001000
00010000
00000000
00001000
00000000
,
00100000
00000000
00010000
00100000
01000000
00000000
00100000
00000000
,
00010000
00000000
10000000
01000000
00100000
00000000
00010000
00010000
,
00001000
00000000
00001000
00001000
00010000
00000000
00000010
00000010
,
00000100
00000000
00000001
00000001
00001000
00000000
00000001
00001000
,
00000001
00000000
00000100
00000010
00000100
00000000
00001000
00001000
,
00000000
00101000
00000000
00010000
01000000
00100000
20000000
00000000
,
00000000
00000000
00000000
30020000
,
00000000
00000000
00000000
00230000
,
00000000
00000000
00000000
00000000
,
00000000
00000000
00000000
00302000
,
00000000
00000000
00000000
00003200
,
00000000
00000320
00000000
00002030
,
00000000
00000000
00000000
00003002
,
00000000
00000023
00000000
00000130
,
00000010
00000100
00000000
00001000
00000000
00000001
00000100
00000000
,
00000010
00001000
00000000
00010000
00000000
00001000
00010000
00000000
,
00010000
01000000
00000000
00100000
00000000
01000000
10000000
00000000
,
00010000
10000000
00000000
00010000
00000000
00010000
10010000
00000000
,
10000000
01000000
00010000
00000000
00001000
00010000
00001000
00000000
,
00001000
00000100
00000001
00000000
00000100
00000000
00001001
00000000
,
00000110
00000000
00000000
00000000
00000001
00000000
00000100
00000000
00001000
00000000
00010000
00000000
00100000
00000000
00000000
00100000
,
00000000
00000000
00100000
00000000
00000000
00100000
00000000
00000000
10010000
00000000
00000000
00000000
20000000
00000000
00000000
00000000
,
00100000
30010000
00100000
00002000
,
00010000
00000000
00003100
00000000
00000010
00000100
00000020
00000000
,
00001000
00010030
00000100
00000020
,
00000001
00000000
00000130
00001000
00000001
00000000
00000200
00000000
,
00000010
00000301
00001000
00000200
,
00001000
00000000
00010300
00000000
00001000
00010000
00002000
00000000
,
00100000
00013000
00001000
00011000
,
00001000
00101000
00100000
10010000
,
10000000
01000000
00200000
00000000
00001000
00000000
00310000
00000000
,
01000000
00100000
02000000
00000000
00010000
00000000
03001000
00000000
,
00010000
00000100
00002000
00000000
00000010
00000000
00003001
00000000
,
00000100
00000010
00000110
00000000
00000110
00000000
00001001
00000000
,
00000001
00000100
00000000
00001000
00010000
01000000
00100000
00000000
,
01000000
00010000
00000000
00001000
00000100
00000010
00000100
00000000
,
00000110
00001000
00011000
00100000
,
01100000
00000000
00010000
10000000
01000000
00010000
00002000
00000000
,
00000000
00000000
00000000
00000000
,
00000000
00000000
00000000
00003000
;

//---------------dance-double - ----------------
#NOTES:
     dance-double:
     :
     Hard:
     13:
     0.624,0.659,0.164,0.116,0.300,423.000,17.000,12.000,0.000,0.000,0.000,0.624,0.659,0.164,0.116,0.300,423.000,17.000,12.000,0.000,0.000,0.000:
00000000
00000000
00000000
00000000
,
00000000
00000000
00000000
00000000
,
00000000
00000000
00000000
00000000
,
00000000
00000000
00000000
00000000
,
00000000
00000000
00000000
00000000
,
00001000
00000000
00100000
00010000
00000000
10000000
01000000
00000000
,
00100000
00000000
00001000
00010000
00000000
00000100
00001000
00000000
,
00000010
00000000
00001000
00000001
00000000
00000010
00000100
00000000
,
00001001
00000000
00000000
00000000
00001001
00000000
00000000
00000000
00001000
00000001
00000000
00001000
00000001
00000000
00000100
00000000
,
00000001
00000000
00000000
00000100
00000000
00000000
00000010
00000000
00000000
00001000
00000000
00000000
00000010
00000000
00000100
00000000
,
00000100
00000000
00000000
00001000
00000000
00000000
00010000
00000000
00000000
00100000
00000000
00000000
01000000
00000000
01000000
00000000
,
00010000
00000000
00000000
10000000
00000000
00000000
01000000
00000000
00000000
00100000
00000000
00000000
00010000
00000000
00010000
00000000
,
00100000
00000000
00000000
01000000
00000000
00000000
00010000
00000000
00001000
00000000
00000100
00000000
00000001
00000000
00000010
00000000
,
00000001
00000000
00000000
00000100
00000000
00000000
00001000
00000000
00000000
00010000
00000000
00000000
00100000
00000000
10000000
00000000
,
00010000
00000000
00000000
00100000
00000000
00000000
01000000
00000000
00000000
10000000
00000000
00000000
00100000
00000000
00010000
00000000
,
00001000
00000000
00000000
00010000
00000000
00000000
00000100
00000000
00000000
00000001
00000000
00000000
00001000
00000000
00000010
00000000
,
00000001
00000000
00000000
00000100
00000000
00000000
00000010
00000000
00001000
00000000
00000010
00000000
00000100
00000000
00001000
00000000
,
00010000
00000000
00001000
00000000
00010000
00001000
00000000
00010000
00001000
00000000
00100000
00001000
00000000
00000000
00100000
00000000
,
00010000
00000000
01000000
00000000
00010000
01000000
00000000
00010000
01000000
00000000
00010000
10000000
00000000
00000000
00010000
00000000
,
00100000
00000000
00010000
00000000
00100000
00010000
00000000
00100000
00010000
00000000
00100000
00001000
00000000
00000000
00100000
00000000
,
00001000
00000000
00010000
00000000
00001000
00010000
00000000
00001000
00010000
00000000
00001000
00000000
00000100
00000000
00000001
00000000
,
00001000
00000000
00000010
00000000
00001000
00000010
00000000
00001000
00000010
00000000
00001000
00000001
00000000
00000000
00001000
00000000
,
00000010
00000000
00000100
00000000
00000010
00001000
00000000
00000010
00001000
00000000
00000010
00010000
00000000
00000000
00000010
00000000
,
00010000
00000000
00000100
00000000
00010000
00000100
00000000
00010000
00000100
00000000
00010000
00001000
00000000
00000000
00010000
00000000
,
00001000
00100000
01000000
10000000
00100000
01000000
00010000
00000000
,
10000000
00000000
00000000
01000000
00000000
00000000
00010000
00000000
00000000
01000000
00000000
00000000
10000000
00000000
00100000
00000000
,
01000000
00000000
00000000
00010000
00000000
00000000
00001000
00000000
00000000
00010000
00000000
00000000
00100000
00000000
00001000
00000000
,
00010000
00000000
00000000
00000100
00000000
00000000
00000010
00000000
00000000
00000100
00000000
00000000
00001000
00000000
00000010
00000000
,
00000001
00000000
00000000
00000010
00000000
00000000
00000100
00000000
00000000
00000010
00000000
00000000
00010000
00000000
00001000
00000000
,
00000100
00000000
00000000
00000110
00000000
00000000
00000010
00000000
00000000
00000100
00000000
00000000
00001000
00000000
00010000
00000000
,
00001000
00000000
00000000
01001000
00000000
00000000
01000000
00000000
00000000
00100000
00000000
00000000
10000000
00000000
00010000
00000000
,
00100000
00000000
00000000
11000000
00000000
00000000
00100000
00000000
00000000
00001000
00000000
00000000
00010000
00000000
01000000
00000000
,
00100000
00000000
00000000
00011000
00000000
00000000
00000100
00000000
00000000
00000010
00000000
00000000
00000002
00000000
00000000
00000000
,
00000000
00000000
00000000
00000000
00000003
00000000
00000001
00000100
,
00000010
00001000
00000001
00000100
00001000
00010000
00001000
00100000
,
00010000
01000000
00100000
10000000
00010000
00000000
00100000
00010000
,
10000000
01000000
00100000
00001000
00010000
00001000
00010000
00000010
,
00001000
00000010
00000100
00000001
00001000
00000000
00000001
00001000
,
00000001
00000000
00001000
00000000
00010100
00000000
00001000
00010000
,
00001000
00000000
00100000
00000000
11000000
00000000
10000000
00100000
,
01000000
00010000
00100000
00001000
00010000
00010000
00000100
00000010
,
00000001
00001000
00000001
00000100
00001000
00000000
00200000
00000000
,
00000000
00000000
00000000
00020000
,
00000000
00000000
00300000
20000000
,
00000000
00000000
00000000
00000000
,
00000000
00000000
00030000
02000000
,
00000000
00000000
30000000
00200000
,
03000000
00002000
00300000
00020000
,
00000000
00000000
00003000
00000200
,
00030000
00000020
00000330
00001001
,
00000000
00000100
00000000
00000010
00000100
00001000
00001001
00000000
,
00000000
00000100
00000000
00000001
00000010
00000100
00001100
00000000
,
00000000
00010000
00000000
00000100
00010000
00001000
00011000
00000000
,
00000000
01000000
00000000
00010000
01000000
00100000
10100000
00000000
,
10000000
00000000
01000000
00000000
00010000
00000000
00000000
00000000
00001000
00010000
00001000
00010000
00001000
00000000
00000000
00000000
,
00001000
00000000
00000100
00000000
00000001
00000000
00000000
00000000
00001000
00000001
00001000
00000001
00001000
00000000
00000010
00000000
,
00000001
00000000
00000010
00000000
00000100
00000000
00001000
00000000
00010000
00000000
00100000
00000000
10000000
00000000
00000000
01000000
,
00000000
00000000
00010000
00000000
00000000
00001000
00000000
00000000
00000010
00000000
00000001
00000000
00001001
00000000
00001000
00000000
,
00000010
00000100
00000001
00000010
00001000
00010000
00000010
00001000
,
00000100
00010000
00000010
00000100
00001000
00000000
01000000
00100000
,
00010000
00100000
10000000
00100000
01000000
00010000
00100000
00001000
,
00100000
00010000
01000000
00010000
00100000
00000000
00001000
00010000
,
00000100
00000010
00000100
00001000
00000010
00000100
00000001
00001000
,
00000010
00010000
00001000
00000100
00000010
00000000
00000100
00001000
,
00010000
00000000
01000000
00000000
00100000
00000000
00010000
00000000
10000000
00000000
00000000
00000000
00100000
00000000
00000000
10000000
,
00000000
00000000
01100000
00000000
00010000
00000000
00000000
00001000
00000000
00000000
00000110
00000000
00000001
00000000
00000100
00000000
,
00001000
00000100
00000010
00010000
00000100
00000010
00000001
00000010
,
00001000
00010000
00001000
00100000
00010000
01000000
00100000
10000000
,
01000000
00010000
01000000
00100000
00001000
00010000
00000010
00010000
,
00001000
00000100
00000010
00001000
00000100
00000000
00000001
00000001
,
00001000
00000001
00000100
00001000
00010000
00001000
00100000
00100000
,
01000000
00000000
00100000
00000000
00010000
00000000
10000000
00000000
01000000
00000000
00010000
00000000
00001000
00000000
00000000
00000100
,
00000000
00000000
00000001
00000000
00000010
00000000
00000000
00001000
00000000
00000000
00010000
00000000
00001000
00000000
00001000
00000000
,
00010000
00010000
00001000
00010000
01000000
00100000
20020000
00000000
,
00000000
00000000
00000000
00000000
,
00000000
00000000
00000000
30030000
;

//---------------dance-double - Blank----------------
#NOTES:
     dance-double:
     :
     Challenge:
     16:
     0.887,0.988,0.338,0.222,1.000,585.000,35.000,23.000,0.000,0.000,0.000,0.887,0.988,0.338,0.222,1.000,585.000,35.000,23.000,0.000,0.000,0.000:
00000000
00000000
00000000
00000000
,
00000000
00000000
00000000
00000000
,
00000000
00000000
00000000
00000000
,
00000000
00000000
00000000
00000000
,
00000000
00000000
00000000
00000000
,
00010000
00000000
00000100
00001000
00000000
00000001
00000010
00000000
,
00000100
00000000
00010000
00001000
00000000
00100000
00010000
00000000
,
01000000
00000000
00010000
10000000
00000000
01000000
00100000
00000000
,
01100000
00000000
00000000
00000000
10010000
00000000
00000000
00000000
00100000
00010000
00000000
00100000
00001000
00000000
00010000
00000000
,
00001000
00010000
00001000
00000000
00010000
00000010
00000000
00001000
00000100
00000000
00001000
00000010
00000000
00001000
00000001
00000000
,
00000010
00000001
00000010
00000000
00000001
00000010
00000000
00000001
00000100
00000000
00000001
00001000
00000000
00000010
00001000
00000000
,
00000100
00010000
00000100
00000000
00010000
00000100
00000000
00010000
00001000
00000000
00100000
00001000
00000000
00100000
00010000
00000000
,
10000000
00100000
10000000
00000000
00100000
10000000
00000000
00010000
10000000
01000000
00100000
00000000
00010000
01000000
00100000
00000000
,
10000000
00010000
10000000
00000000
00010000
00100000
00000000
00010000
01000000
00000000
00001000
01000000
00000000
00001000
00010000
00000000
,
00001000
00010000
00001000
00000000
00010000
00000100
00000000
00001000
00000100
00000000
00001000
00000001
00000000
00000100
00000001
00000000
,
00000010
00000001
00000010
00000000
00000001
00001000
00000000
00000010
00001000
00000000
00000100
00010000
00000000
00001000
00010000
00000000
,
00001000
01000000
00001000
00000000
00010000
01000000
00000000
00100000
10000000
00000000
00010000
10000000
01000000
00100000
00010000
00000000
,
10000000
01000000
10000000
00000000
01000000
10000000
00000000
10000000
01000000
00000000
01000000
00100000
00000000
00100000
00001000
00000000
,
00010000
00001000
00010000
00000000
00001000
00010000
00000000
00010000
00000100
00000000
00000100
00000010
00000000
00000010
00000001
00000000
,
00000100
00000010
00000100
00000000
00000010
00000100
00000000
00000100
00000001
00000000
00000001
00001000
00000000
00001000
00000100
00000000
,
00000010
00000001
00000010
00000000
00000001
00000100
00000000
00000100
00000010
00001000
00000100
00000000
00010000
00000100
00001000
00000000
,
00000100
00010000
00000100
00000000
00010000
00001000
00000000
00001000
00100000
00000000
00100000
00010000
00000000
00010000
01000000
00000000
,
00100000
10000000
00100000
00000000
10000000
00100000
00000000
00100000
00010000
00000000
00010000
00100000
00000000
00100000
10000000
00000000
,
00010000
00100000
00010000
00000000
00100000
00010000
00000000
00010000
00001000
00000000
00001000
00000100
00000000
00000100
00000010
00000000
,
00000001
00001000
00000100
00000000
00000010
00000001
00001000
00000000
00000010
00001000
00000010
00001000
00000100
00010000
00000100
00010000
,
00001000
00000000
00000000
00010000
00000000
00000000
00101000
00000000
00000000
00010000
00000000
00000000
01000000
00000000
00100000
10000000
,
00010000
00000000
00000000
01000000
00000000
00000000
10100000
00000000
00000000
01000000
00000000
00000000
00100000
00000000
00010000
10000000
,
01000000
00000000
00000000
00010000
00000000
00000000
00011000
00000000
00000000
00000100
00000000
00000000
00000010
00000000
00000001
00001000
,
00000100
00000000
00000000
00000010
00000000
00000000
00000101
00000000
00000000
00000010
00000000
00000000
00001000
00000000
00000001
00000100
,
00000020
00000000
00000000
00001000
00000000
00000000
00000230
00000000
00000000
00001000
00000000
00000000
00000310
00000000
00001000
00000100
,
00020000
00000000
00000000
00001000
00000000
00000000
00032000
00000000
00000000
00100000
00000000
00000000
00013000
00000000
00001000
01000000
,
00200000
00000000
00000000
10000000
00000000
00000000
02300000
00000000
00000000
10000000
00000000
00000000
03100000
00000000
10000000
00010000
,
00200000
00000000
00000000
01000000
00000000
00000000
10000000
00000000
00000000
00310000
00000000
00000000
20020000
00000000
00000000
00000000
,
00000000
00000000
00000000
00000000
00030000
00000000
30010000
01000000
,
00100000
10000000
00000000
00010000
00000000
10000000
00000000
01000000
00100000
00000000
00010000
00000000
01000000
00000000
00100000
00000000
,
00010000
00001000
00000000
00010000
00000000
00001000
00000000
00010000
00000100
00000000
00000010
00000000
00000001
00000000
00001000
00000000
,
00000100
00000010
00000000
00000100
00000000
00000010
00000000
00000001
00000100
00000000
00000010
00000000
00001000
00000000
00000010
00000000
,
00000100
00001000
00000000
00010000
00000000
00001000
00000000
00010000
00001000
00000000
00100000
00000000
00010000
00000000
10000000
00000000
,
00010000
10000000
00000000
10000000
00100000
00000000
01000000
00000000
00100000
01000000
00000000
01000000
00001000
00000000
00010000
00000000
,
00001000
00010000
00000000
00010000
00000100
00000000
00000010
00000000
00000100
00000010
00000000
00000010
00000001
00000000
00000100
00000000
,
00000010
00000000
00001000
00000000
00000100
00000000
00010000
00000000
00001000
00000000
00100000
00000000
00010000
01000000
00010000
01000000
,
00100000
10000000
00100000
10000000
00010000
00100000
00010000
00100000
00001000
00010000
00001000
00010000
00000020
00000000
00000000
00000000
,
00000000
00000000
00000000
00002000
,
00000000
00000000
00000030
00000002
,
00000000
00000000
00000000
00000000
,
00000000
00000000
00003003
00020200
,
00000000
00000000
00030300
00202000
,
00303000
00000000
00000000
00000000
00020020
00000000
00000000
00000000
00000030
00030000
00000000
00000000
00022000
00000000
00000000
00000000
,
00000000
00000000
00003000
02000000
,
00030000
00000000
00000000
00000000
03200000
00000000
00000000
00000000
01300000
00000000
00000000
00000000
10010000
00000000
10000000
00100000
,
00000000
10000000
00000000
00010000
00000000
00100000
00000000
00001000
00010000
00000000
01000000
00000000
00100000
00000000
00001000
00010000
,
00000000
00000100
00000000
00000010
00000000
00000100
00000000
00001000
00000100
00000010
00000001
00000000
00000100
00000000
00000001
00000100
,
00000000
00000010
00000000
00000001
00000000
00000010
00000000
00001000
00000100
00000000
00010000
00000000
00000010
00000000
00000100
00001000
,
00000000
00010000
00000000
00000100
00000000
00010000
00000000
00001000
00100000
00000000
01000000
00000000
00100000
00000000
00010000
10000000
,
00000000
10000000
00000000
10000000
01000000
00000000
00100000
00001000
00000000
00001000
00000000
00001000
00010000
00000000
00000010
00000100
,
00000000
00000100
00000000
00000100
00000001
00000000
00001000
00000010
00000000
00000010
00000000
00000010
00000100
00000000
00000010
00001000
,
00000100
00000000
00010000
00001000
00010000
00001000
00100000
00010000
01000000
00100000
10000000
01000000
00100000
00000000
00000000
01100000
,
00000000
00000000
00101000
00000000
00000000
00011000
00000000
00000000
00010010
00000000
00001010
00000000
00000100
00000000
00000001
00000100
,
00000000
00001000
00000000
00010000
00000000
00001000
00000000
00000100
00000010
00000000
00001000
00000000
00000100
00000000
00010000
00001000
,
00000000
01000000
00000000
00100000
00000000
01000000
00000000
00010000
00100000
01000000
10000000
00100000
01000000
00000000
00100000
01000000
,
00000000
00010000
00000000
10000000
00000000
01000000
00000000
00100000
00001000
00000000
00010000
00000000
00001000
00000000
00100000
01000000
,
00000000
00010000
00000000
00001000
00000000
00010000
00000000
00000100
00000010
00000000
00000110
00000000
00000010
00000000
00000001
00000100
,
00000000
00001000
00000000
00000100
00000000
00000001
00000000
00000010
00000100
00000000
00000010
00000000
00000001
00000000
00000100
00001000
,
00000000
00010000
00000000
00001000
00000000
01000000
00000000
00010000
00100000
01000000
10000000
00010000
01000000
00000000
00100000
01000000
,
00000000
00100000
00000000
10000000
00000000
01000000
00000000
00010000
00001000
00000000
00010000
00000000
00011000
00000000
00000000
00001100
,
00000000
00000000
00010010
00000000
00011000
00000000
00000000
00110000
00000000
00000000
01001000
00000000
00011000
00000000
00001000
00000100
,
00000000
00000001
00000000
00001001
00000000
00000010
00000000
00010000
00001000
00000000
00100000
00000000
00001000
00000000
00010000
01000000
,
00000000
10000000
00000000
10010000
00000000
00100000
00000000
00001000
00010000
00000010
00001000
00000001
00000100
00000000
00000001
00000010
,
00000000
00000001
00000000
00001100
00000000
00000010
00000000
00010000
00000100
00000000
00001000
00000000
00000010
00000000
00000100
00001000
,
00000000
00010000
00000000
00011000
00000000
00100000
00000000
00010000
10000000
00000000
00100000
00000000
10010000
00000000
10000000
01000000
,
00000000
00110000
00000000
00101000
00000000
00010000
00000000
00001000
00000100
00000000
00000010
00000000
00001001
00000000
00000001
00000100
,
00000000
00001010
00000000
00010010
00000000
00001000
00000000
00010000
01000000
00100000
00010000
10000000
00010000
00000000
10000000
00100000
,
00000000
01000000
00010000
00100000
00010000
00000000
00100000
00001000
00000000
00010000
00001000
00010000
00000010
00001000
00000010
00001000
,
00000001
00000100
00000001
00000100
00000010
00001000
00000010
00001000
00000100
00010000
00000100
00010000
00002000
00000000
00000000
00000000
,
00000000
00000000
00000000
00000000
,
00000000
00000000
00000000
00003000
;

//---------------dance-single - REV----------------
#NOTES:
     dance-single:
     :
     Edit:
     17:
     0.998,1.000,0.464,0.280,1.000,646.000,48.000,29.000,0.000,0.000,0.000,0.998,1.000,0.464,0.280,1.000,646.000,48.000,29.000,0.000,0.000,0.000: // measure 0
0000
0000
0000
0000
,  // measure 1
0000
0000
0000
0000
,  // measure 2
0000
0000
0000
0000
,  // measure 3
0000
0000
0000
0000
,  // measure 4
0000
0000
0000
0000
,  // measure 5
0011
0000
0001
0100
0000
0001
1000
0000
,  // measure 6
0110
0000
0001
1000
0000
0100
1000
0000
,  // measure 7
0110
0000
0001
0100
0000
0001
1000
0000
,  // measure 8
1010
0000
0000
0000
0011
0000
0000
0000
0001
0100
0000
1000
0100
0000
0001
0000
,  // measure 9
1000
0010
0100
0000
0010
0100
0000
0001
0100
0000
0010
1000
0000
0100
0010
1000
,  // measure 10
0001
0010
1000
0000
0010
0001
0000
1000
0100
0000
0010
0001
0000
1000
0010
0100
,  // measure 11
0001
1000
0001
0000
1000
0010
0000
0100
0001
0000
0010
0100
0000
0001
0010
0100
,  // measure 12
1000
0001
1000
0000
0001
0010
0000
0100
0001
0000
0010
0100
0000
1000
0100
0010
,  // measure 13
0100
0010
0001
0000
1000
0010
0000
0001
0100
0000
0010
0001
0000
1000
0001
0010
,  // measure 14
0100
1000
0100
0000
0001
0010
0000
0100
0001
0000
0010
1000
0000
0010
0001
0100
,  // measure 15
0010
1000
0100
0000
0001
0100
0000
0001
0010
0000
1000
0010
0000
1000
0001
0100
,  // measure 16
0010
1000
0010
1000
0001
0100
0001
0100
0001
0010
0100
1000
0001
0100
0010
1000
,  // measure 17
0100
0010
0100
0000
0001
0100
0000
0100
0001
0000
1000
0100
0000
0100
1000
0000
,  // measure 18
0001
0100
0001
0000
1000
0010
0000
0010
0001
0000
0001
0010
0000
0010
1000
0000
,  // measure 19
0001
1000
0001
0000
1000
0100
0000
0100
1000
0000
0001
0100
0000
0100
0001
0000
,  // measure 20
0010
1000
0010
0000
0001
1000
0000
1000
0100
0000
0100
1000
0000
1000
0001
0000
,  // measure 21
1000
0001
1000
0000
0010
0100
0000
0100
0001
0000
0010
0100
0000
0100
1000
0000
,  // measure 22
0001
0100
0001
0000
1000
0001
0000
0001
0010
0000
0010
0001
0000
0001
1000
0000
,  // measure 23
0010
0100
0010
0000
1000
0100
0000
0100
0001
0000
0010
1000
0000
1000
0001
0000
,  // measure 24
0001
0100
0001
0100
0001
0010
0100
0010
0100
1000
0001
0100
0010
1000
0001
0000
,  // measure 25
1100
0000
0000
0110
0000
0000
1010
0000
0000
0101
0000
0000
1001
0000
0100
0010
,  // measure 26
0001
0000
0000
0101
0000
0000
1010
0000
0000
1100
0000
0000
0011
0000
0100
0001
,  // measure 27
0010
0000
0000
0110
0000
0000
0101
0000
0000
1100
0000
0000
0011
0000
0010
0100
,  // measure 28
1000
0000
0000
0011
0000
0000
0101
0000
0000
1010
0000
0000
1001
0000
0010
0100
,  // measure 29
2000
0000
0000
3020
0000
0000
0230
0000
0000
0302
0000
0000
0103
0000
0010
1000
,  // measure 30
0200
0000
0000
2300
0000
0000
3020
0000
0000
0230
0000
0000
0301
0000
1000
0100
,  // measure 31
0002
0000
0000
2003
0000
0000
3200
0000
0000
0320
0000
0000
0031
0000
0100
0001
,  // measure 32
0020
0000
0000
2030
0000
0000
3002
0000
0000
0203
0000
0000
0020
0000
0000
0000
,  // measure 33
0000
0000
0000
0000
0330
0000
0100
0010
,  // measure 34
1000
0010
0000
0110
0000
1001
0000
0001
0010
0000
0100
0000
0001
0000
0100
0000
,  // measure 35
0001
0100
0000
0110
0000
1010
0000
0010
0100
0000
0001
0000
1000
0000
0100
0000
,  // measure 36
0001
0010
0000
0110
0000
1100
0000
1000
0100
0000
0001
0000
0100
0000
0010
0000
,  // measure 37
1000
0010
0000
0011
0000
0101
0000
0010
0100
0000
0001
0000
0110
0000
0110
0000
,  // measure 38
0010
0001
0000
0001
0100
0000
0100
0000
0010
1000
0000
1000
0100
0000
0100
0000
,  // measure 39
0001
1000
0000
1000
0100
0000
0100
0000
0010
0001
0100
0000
1100
0000
0010
1000
,  // measure 40
0100
0000
0010
0001
0100
0000
0010
1000
0100
0000
0001
0010
1000
0001
0010
0100
,  // measure 41
1000
0010
0001
0010
1000
0100
1000
0100
0010
0001
0010
0001
0200
0000
0000
0000
,  // measure 42
0000
0000
0000
2000
,  // measure 43
0000
0000
0300
0002
,  // measure 44
0000
0000
0000
0000
,  // measure 45
0000
0000
3000
0020
,  // measure 46
0000
0000
0003
2000
,  // measure 47
0000
0030
0000
0000
0002
0000
0000
0000
3000
0000
0000
0000
0200
0000
0000
0000
,  // measure 48
0000
0000
0303
2200
,  // measure 49
3300
0000
0000
0000
0202
0000
0000
0000
0303
0000
0000
0000
1000
0000
0100
0001
,  // measure 50
0000
0001
0000
0001
0000
0001
0000
0100
0001
1000
0100
0000
0001
0000
0100
1000
,  // measure 51
0000
1000
0000
1000
0000
1000
0000
0100
1000
0001
0100
0000
1000
0000
0010
0100
,  // measure 52
0000
1000
0000
1000
0000
0100
0000
0010
0001
0010
0100
0000
0001
0000
0100
0010
,  // measure 53
0000
0001
0000
0001
0000
0010
0000
0100
1000
0010
0100
0000
1000
0000
0010
1000
,  // measure 54
0100
0000
0010
0100
0001
0000
1000
0001
0010
0000
0100
0010
1000
0000
0001
1000
,  // measure 55
0100
0000
0001
0100
0010
0000
0100
0010
0001
0000
1000
0001
0100
0001
0010
0001
,  // measure 56
0100
1000
0001
0100
0010
0100
0010
1000
0100
0010
0001
0000
0101
0000
0000
1100
,  // measure 57
0000
0000
1010
0000
0000
0011
0000
0000
0110
0000
1001
0000
0010
0000
0001
0100
,  // measure 58
0010
0100
0000
0010
0000
1000
0000
0001
0010
0001
0100
0001
0010
0000
0100
0001
,  // measure 59
1000
0100
0000
0010
0000
0100
0000
0001
0100
1000
0100
0001
0100
0000
0001
0010
,  // measure 60
0100
1000
0000
0001
0000
1000
0000
0010
1000
0001
1000
0010
1000
0000
0010
0100
,  // measure 61
0001
0100
0000
0010
0000
0100
0000
1000
0100
0010
0100
1000
0100
0000
0001
0100
,  // measure 62
0010
0100
0000
0001
0000
0010
0000
0001
1000
0001
0100
0010
0001
0000
1000
0010
,  // measure 63
0001
0010
0000
0001
0000
0010
0000
0001
0010
0100
1000
0010
0100
0000
0100
0001
,  // measure 64
1000
0100
0000
0010
0000
0001
0000
0010
0100
0001
0100
0000
1010
0000
0000
1100
,  // measure 65
0000
0000
0101
0000
0110
0000
0000
1001
0000
0000
0011
0000
0001
0100
0010
0100
,  // measure 66
0001
0100
0010
0100
0000
0010
0000
1000
0100
0010
0100
1000
0100
0001
0010
0001
,  // measure 67
0100
0001
0010
0001
0000
0100
0000
0001
1000
0010
1000
0001
0100
0010
1000
0010
,  // measure 68
0100
0010
1000
0010
0000
0100
0000
0001
0100
0010
1000
0001
0010
0100
0010
0001
,  // measure 69
0010
0100
0010
0001
0000
1000
0000
0010
0001
1000
0100
0000
1000
0100
0010
0001
,  // measure 70
1000
0100
0010
0001
0000
0100
0000
0010
1000
0001
0010
0100
1000
0010
0100
0001
,  // measure 71
1000
0010
0100
0001
0000
0010
0000
0001
0100
0010
1000
0000
0110
0000
1000
0010
,  // measure 72
0000
1000
0100
0010
0001
0000
0100
0001
0000
0100
0010
1000
0100
0010
0100
1000
,  // measure 73
0010
0100
0001
0010
1000
0010
0001
0100
0010
1000
0001
1000
0020
0000
0000
0000
,  // measure 74
0000
0000
0000
0000
,  // measure 75
0000
0000
0000
0030
;

//---------------dance-double - REVD----------------
#NOTES:
     dance-double:
     :
     Edit:
     17:
     0.932,1.000,0.406,0.126,1.000,620.000,42.000,13.000,0.000,0.000,0.000,0.932,1.000,0.406,0.126,1.000,620.000,42.000,13.000,0.000,0.000,0.000:
00000000
00000000
00000000
00000000
,
00000000
00000000
00000000
00000000
,
00000000
00000000
00000000
00000000
,
00000000
00000000
00000000
00000000
,
00000000
00000000
00000000
00000000
,
10010000
00000000
00010000
10000000
00000000
00010000
00000010
00000000
,
00001001
00000000
00001000
00000001
00000000
00001000
01000000
00000000
,
01100000
00000000
00100000
01000000
00000000
01000000
00001000
00000000
,
00010100
00000000
00000000
00000000
01001000
00000000
00000000
00000000
00010000
00001000
00000000
00000010
00000001
00000000
00000010
00000000
,
00000100
00000010
00000100
00000000
00001000
00010000
00000000
00001000
00010000
00000000
00100000
01000000
00000000
00010000
00100000
00000000
,
00010000
00001000
00010000
00000000
00000100
00010000
00000000
00001000
00010000
00000000
01000000
00010000
00000000
00001000
00010000
00000000
,
00001000
00000100
00001000
00000000
00000001
00000100
00000000
00001000
00000100
00000000
00100000
00001000
00000000
00010000
00001000
00000000
,
00100000
00001000
00100000
00000000
00010000
00000010
00000000
00010000
00001000
00000010
00000001
00000100
00000010
00001000
00000001
00000000
,
00000100
00000010
00010000
00000000
00001000
00000100
00000000
00010000
00000010
00000000
00010000
00001000
00000000
00100000
00001000
00000000
,
00010000
01000000
00010000
00000000
00100000
01000000
00000000
10000000
00100000
00000000
01000000
00010000
00000000
01000000
00100000
00000000
,
10000000
01000000
00010000
00000000
00100000
01000000
00000000
00100000
00010000
00000000
01000000
10000000
00000000
01000000
00010000
00000000
,
00100000
00001000
00100000
00001000
00010000
00000010
00010000
00000010
00010000
00001000
00000100
00000010
00000001
00000100
00000010
00001000
,
00000100
00010000
00001000
00000000
01000000
00010000
00000000
00100000
00001000
00000000
00010000
00000100
00000000
00001000
00000010
00000000
,
00000001
00000100
00000010
00000000
00000100
00010000
00000000
00001000
00100000
00000000
00010000
01000000
00000000
00100000
10000000
00000000
,
00010000
01000000
10000000
00000000
00100000
00010000
00000000
00001000
00010000
00000000
01000000
00001000
00000000
00010000
00001000
00000000
,
10000000
01000000
10000000
00000000
00010000
00100000
00000000
00010000
01000000
00000000
00100000
10000000
00000000
01000000
10000000
00000000
,
00100000
00010000
00100000
00000000
00001000
00010000
00000000
00000100
00010000
00000000
00001000
00000010
00000000
00010000
00001000
00000000
,
00010000
00000100
00010000
00000000
00000010
00001000
00000000
00000100
00000010
00000000
00000001
00000100
00000000
00000010
00001000
00000000
,
00000010
00000100
00000010
00000000
00000001
00000100
00000000
00000100
00000001
00000000
00000010
00001000
00000000
00001000
00010000
00000000
,
00000010
00010000
00000010
00010000
00001000
00100000
00001000
00000000
01000000
00001000
01000000
00001000
00010000
00000100
00010000
00000000
,
01000000
00000000
00000000
00100000
00000000
00000000
10000000
00000000
00000000
00010000
00000000
00000000
00100000
00000000
01000000
00001000
,
01000000
00000000
00000000
00010000
00000000
00000000
00100000
00000000
00000000
10000000
00000000
00000000
01000000
00000000
00001000
00010000
,
00001000
00000000
00000000
00000010
00000000
00000000
00000100
00000000
00000000
00001000
00000000
00000000
00000010
00000000
00000001
00000100
,
00000001
00000000
00000000
00001000
00000000
00000000
00000010
00000000
00000000
00000001
00000000
00000000
00000100
00000000
00001000
00000010
,
00001000
00000000
00000000
00011000
00000000
00000000
01001000
00000000
00000000
10100000
00000000
00000000
00110000
00000000
00100000
00010000
,
00100000
00000000
00000000
10010000
00000000
00000000
01100000
00000000
00000000
00011000
00000000
00000000
00000110
00000000
00000100
00000010
,
00000100
00000000
00000000
00001001
00000000
00000000
00000110
00000000
00000000
00010100
00000000
00000000
00011000
00000000
00001000
00010000
,
00001000
00000000
00000000
00000110
00000000
00000000
00010100
00000000
00000000
00101000
00000000
00000000
22000000
00000000
00000000
00000000
,
00000000
00000000
00000000
00000000
33000000
00000000
00100000
01000000
,
10000000
01000000
00000000
00100000
00000000
00010000
00000000
10000000
00010000
00000000
00001000
00000000
00000010
00000000
00000001
00000000
,
00001000
00000001
00000000
00000010
00000000
00000100
00000000
00010000
00001000
00000000
00000010
00000000
00000001
00000000
00000100
00000000
,
00010000
00001000
00000000
00100000
00000000
00010000
00000000
01000000
00100000
00000000
10000000
00000000
01000000
00000000
10000000
00000000
,
01000000
00100000
00000000
01000000
00000000
00010000
00000000
00100000
00001000
00000000
00010000
00000000
01100000
00000000
01000000
00100000
,
00010000
00000000
00001000
00000000
00000110
00000000
00000010
00000100
00001000
00000000
00010000
00000000
10010000
00000000
10000000
00010000
,
01000000
00000000
00100000
00000000
00001001
00000000
00000001
00001000
00000010
00000000
00000100
00000000
00001001
00000000
00001000
00000100
,
00000001
00000000
00000001
00000100
00001000
00000000
00010000
00100000
10000000
00000000
10000000
00100000
00010000
01000000
00100000
10000000
,
00010000
00100000
00001000
00010000
00001000
00010000
00000010
00000100
00000001
00001000
00000100
00000010
00000002
00000000
00000000
00000000
,
00000000
00000000
00000000
00002000
,
00000000
00000003
00000000
00000000
00020000
00000000
00000000
00000000
00003000
00000000
00000000
00000000
00000020
00000000
00000000
00000000
,
00000000
00000000
00000000
00000000
,
00000000
00000000
00000030
00000200
,
00000000
00000000
00030000
00002000
,
00000300
02000000
00003000
00200000
,
00000000
00000000
03000000
00002000
,
00300000
00000002
00003003
00011000
,
01000000
00000000
00011000
00000000
00000100
00010000
00011000
00000000
,
00100000
00000000
00000010
00000000
00011000
00011000
00010010
00000000
,
00000101
00000000
00001100
00000000
00000100
00000100
00010000
00000000
,
00001000
00000000
00100000
00000000
01000000
00000000
00000000
00000000
00010000
00000000
00100000
00000000
11000000
00000000
01000000
00010000
,
01000000
00000000
00001000
01000000
00001000
00000000
00100000
00010000
00100000
00000000
00001000
00000010
00001000
00000000
00000100
00001000
,
00000100
00000000
00000001
00000100
00000001
00000000
00000010
00000100
00000010
00000000
00000001
00001000
00000010
00000100
00000001
00001000
,
00000100
00010000
00001000
00010000
00001000
01000000
00100000
10000000
01000000
00100000
00010000
00000000
00010010
00000000
00000000
00000110
,
00000000
00000000
00011000
00000000
00000000
01100000
00000000
00000000
00101000
00000000
00010100
00000000
00001100
00000000
00000001
00000100
,
00000001
00000010
00000000
00001000
00000000
00000100
00000000
00001000
00100000
00000000
00010000
00000000
01000000
00000000
00100000
00010000
,
00100000
01000000
00000000
00001000
00000000
00100000
00000000
00010000
10000000
00100000
10000000
00010000
10000000
00000000
00100000
00010000
,
00100000
01000000
00000000
00100000
00000000
00001000
00000000
00010000
00100000
00000000
01000000
00000000
00010000
00000000
01000000
00010000
,
00100000
01000000
00000000
10000000
00000000
01000000
00000000
00010000
00100000
00001000
00010000
00000000
00000100
00000000
00001000
00000010
,
00000100
00000001
00000000
00001000
00000000
00000001
00000000
00000100
00000010
00000000
00010000
00000000
00001000
00000000
00000001
00000010
,
00001000
00000100
00000000
00010000
00000000
00001000
00000000
00100000
01000000
00010000
01000000
00100000
01000000
00000000
00001000
00010000
,
00001000
00100000
00000000
00010000
00000000
00000100
00000000
00000010
00001000
00000000
00000010
00000000
00000100
00000000
00010000
00001000
,
00000000
00000010
00000001
00000000
00000100
00000000
00010000
00001000
00000000
01000000
00100000
00000000
00010000
00100000
01000000
10000000
,
00010000
00100000
01000000
10000000
00000000
00010000
00000000
10000000
00100000
01000000
00010000
00100000
00001000
00010000
00000100
00001000
,
00000010
00000100
00000001
00000010
00000000
00000100
00000000
00001000
00010000
00100000
00010000
00001000
00010000
00100000
10000000
00100000
,
00010000
00100000
10000000
00100000
00000000
01000000
00000000
00100000
10000000
00010000
10000000
00100000
00010000
01000000
00100000
01000000
,
00010000
01000000
00100000
01000000
00000000
00001000
00000000
00000010
00010000
00000100
00010000
00000010
00010000
00000100
00010000
00000010
,
00001000
00000100
00000010
00000001
00000000
00001000
00000000
00010000
00001000
00010000
00000010
00001000
00000100
00000010
00000001
00000100
,
00000010
00001000
00000100
00010000
00000000
00001000
00000000
00100000
00010000
01000000
00100000
10000000
00010000
00000000
00100000
01000000
,
00000000
00100000
00010000
00000100
00001000
00000000
00000010
00000100
00000000
00010000
00001000
00000010
00000001
00000100
00001000
00000100
,
00010000
10000000
00100000
00010000
00100000
01000000
10000000
01000000
00100000
00010000
10000000
00010000
00200000
00000000
00000000
00000000
,
00000000
00000000
00000000
00000000
,
00000000
00000000
00000000
00300000
;
