#TITLE:REBORN MAGIC;
#SUBTITLE:;
#ARTIST:seiya-murai meets "eimy";
#TITLETRANSLIT:;
#SUBTITLETRANSLIT:;
#ARTISTTRANSLIT:;
#GENRE:;
#CREDIT:;
#BANNER:REBORN MAGIC.png;
#BACKGROUND:REBORN MAGIC-bg.png;
#LYRICSPATH:;
#CDTITLE:./CDTitles/DanceDanceRevolution X3 vs 2ndMIX.png;
#MUSIC:REBORN MAGIC.mp3;
#OFFSET:1.360;
#SAMPLESTART:62.040;
#SAMPLELENGTH:15.000;
#LASTBEATHINT:0.840;
#SELECTABLE:YES;
#BPMS:0.000=140.000
;
#STOPS:
;
#BGCHANGES:;
#KEYSOUNDS:;
#ATTACKS:;

//---------------dance-single - ----------------
#NOTES:
     dance-single:
     :
     Easy:
     4:
     0.224,0.230,0.064,0.137,0.000,150.000,7.000,15.000,0.000,0.000,0.000,0.224,0.230,0.064,0.137,0.000,150.000,7.000,15.000,0.000,0.000,0.000:
0000
0000
0000
0000
,
0000
0000
0000
0000
,
0000
0000
0000
0000
,
0000
0000
0000
0000
,
0000
0000
0000
0000
,
0001
0000
0100
0000
,
0001
0000
0100
0000
,
1000
0000
0100
0000
,
1000
0000
0100
0000
,
0001
0001
0100
0000
,
1000
1000
0100
0000
,
0010
0010
0100
0000
,
1001
0000
0000
0000
,
1000
0000
1000
0001
,
1000
0200
0000
0300
,
1000
0000
1000
0010
,
0100
0002
0000
0003
,
0010
0000
0010
0001
,
0010
0200
0000
0300
,
0010
0000
0010
0010
,
0001
0000
1000
0000
,
0010
0000
0100
0100
,
0001
0100
0000
0100
,
0010
0000
0010
0010
,
0100
0001
0000
0001
,
1000
0000
1000
0001
,
0100
0100
0000
0010
,
0100
0000
0100
0100
,
0001
1000
0100
0000
,
2000
0000
3002
0000
,
0203
0000
0000
0300
,
0001
0001
1000
1000
,
0200
0000
0300
0000
,
0010
0000
0001
0001
,
0010
0000
1000
1000
,
0010
0000
0110
0000
,
2002
0000
0000
3003
,
0001
0010
0100
0010
,
0001
1000
0001
0000
,
0100
0100
0010
0000
,
1000
0001
1001
0000
,
0001
1000
1000
0100
,
0010
0001
0001
1000
,
0001
0010
0001
0010
,
0100
0100
0010
0000
,
1000
0100
0010
0100
,
1000
0001
1000
0000
,
0010
0010
0100
0000
,
0001
1000
1001
0000
,
1000
0001
0001
0010
,
0100
1000
1000
0001
,
0200
0000
0320
0000
,
0130
0000
0001
1000
,
2002
0000
0000
0000
,
0000
0000
0000
3003
,
1000
0000
0100
0000
,
0001
0001
0100
0000
,
0001
0000
0010
0000
,
1000
1000
0010
0000
,
0001
0000
1000
0000
,
0010
0100
0010
2002
,
0000
0000
0000
0000
,
0000
0000
0000
0000
,
3003
0000
0000
0000
;

//---------------dance-single - ----------------
#NOTES:
     dance-single:
     :
     Medium:
     7:
     0.337,0.373,0.164,0.091,0.000,231.000,18.000,10.000,0.000,0.000,0.000,0.337,0.373,0.164,0.091,0.000,231.000,18.000,10.000,0.000,0.000,0.000:
0000
0000
0000
0000
,
0000
0000
0000
0000
,
0000
0000
0000
0000
,
0000
0000
0000
0000
,
0000
0000
0000
0000
,
1000
0010
1000
0010
,
1000
0100
1000
0100
,
0001
1000
0001
1000
,
0010
1000
0100
1000
,
0100
0001
0100
0001
,
0010
0001
0010
0100
,
0001
0010
0001
1000
,
0200
0000
0000
0300
,
1000
0100
0001
1000
,
0100
0000
0100
0000
0001
0100
1000
0000
,
0001
0100
1000
0001
,
0100
1001
0010
0100
,
0001
0100
1000
0001
,
0100
0000
0100
0000
0001
0100
1000
0000
,
0100
0001
1000
0100
,
0010
1010
0100
0110
,
1000
0001
0010
0100
,
0001
0100
1000
0000
0001
0100
1000
0000
,
0100
0001
1000
0100
,
0001
0011
1000
1001
,
0100
0001
1000
0100
,
0001
0100
1000
0000
0001
0100
1000
0000
,
0010
0100
0100
0010
,
0100
0000
0000
0000
1000
0100
0001
0000
,
0100
0000
0000
0010
0000
0000
1000
0000
,
0000
0100
0000
0000
0001
0100
1000
0000
,
0001
0001
0100
0010
,
1000
0100
0001
0000
0100
0000
0000
0000
,
0020
0000
0100
0031
,
0200
0000
1000
0310
,
1000
0000
1001
0110
,
1001
0000
0000
1001
0000
0000
1001
0000
,
0010
1000
0100
0010
,
0001
0000
1000
0100
0001
0000
0001
0100
,
2000
0100
0100
3001
,
0100
0010
0101
0000
,
1000
0100
0001
0000
1000
0000
0100
0000
,
0001
0100
1000
0000
0001
0000
0100
0000
,
2010
3001
2100
3001
,
0110
0000
1000
0100
0001
0000
0000
0000
,
0010
0001
0100
0010
,
1000
0000
0001
0100
1000
0000
1000
0100
,
0002
0100
0100
1003
,
0100
0010
1100
0000
,
0001
0100
1000
0000
0001
0000
0100
0000
,
1000
0100
0001
0000
1000
0000
0100
0000
,
0012
1000
0100
1003
,
1001
0000
0010
0000
,
1000
0100
0001
0100
,
1000
0000
0100
0000
0001
0100
1000
0000
,
0001
0100
1000
0100
,
0001
0000
1000
0100
0001
0000
1000
0100
,
0001
0100
1000
0100
,
0010
0001
0100
1000
,
0100
0001
0100
1000
,
0001
0100
1000
0100
0001
0000
0000
2002
,
0000
0000
0000
0000
,
0000
0000
0000
0000
,
3003
0000
0000
0000
;

//---------------dance-single - ----------------
#NOTES:
     dance-single:
     :
     Hard:
     9:
     0.404,0.431,0.210,0.082,0.009,278.000,23.000,9.000,0.000,0.000,0.000,0.404,0.431,0.210,0.082,0.009,278.000,23.000,9.000,0.000,0.000,0.000:
0000
0000
0000
0000
,
0000
0000
0000
0000
,
0000
0000
0000
0000
,
0000
0000
0000
0000
,
0000
0000
0000
0000
,
1000
0010
1000
0010
0000
0000
0010
0100
,
0000
0000
1000
0001
0000
0000
0001
0100
,
0000
0000
1000
0001
0000
0000
0001
0100
,
0000
0000
0010
1000
0000
0000
1000
0001
,
0000
1000
0100
0010
0000
0000
0001
1000
,
0000
1000
0100
0010
0000
0001
0010
0100
,
0000
0010
0100
1000
0000
0001
0010
0100
,
2000
0001
0010
3100
,
1100
0000
0000
0000
0001
0000
0001
0100
,
1000
0000
1000
0100
0001
0000
1000
0000
,
0101
0000
0000
0000
0010
0000
1000
0100
,
0001
0000
0001
0100
1000
0000
0001
0000
,
0011
0000
0000
0000
1000
0000
0001
0010
,
1000
0000
1000
0010
0001
0000
0100
0000
,
1010
0000
0000
0000
0001
0000
1000
0010
,
0001
0010
1000
0000
0001
0000
0000
0000
,
1001
0000
0000
1000
0100
0000
0001
0100
,
1000
0000
0001
0000
1000
0100
0001
0000
,
0100
0000
0000
0010
0100
0000
1000
0100
,
0001
0000
0010
0000
0001
0100
1000
0000
,
0100
0000
0000
1000
0001
0000
1000
0010
,
0001
0000
0010
0000
0001
0010
1000
0000
,
0100
0000
0000
0001
1000
0000
0001
0010
,
1000
0000
0010
0000
1000
0010
0001
0000
,
0011
0000
0001
0100
0000
0000
1010
0000
,
0010
1000
0000
0000
0100
0000
1001
0000
,
1000
0100
0010
0000
0001
0000
0100
0000
,
1000
0010
0100
0000
1001
0000
0000
0000
,
0100
0000
0010
0000
0100
0001
0010
0000
,
0100
0000
0010
0000
0100
1000
0010
0000
,
0100
0010
0101
1010
,
1001
0000
0000
0010
0000
0000
0100
0000
0000
1000
0000
0000
1001
0000
0000
0000
,
2100
3001
0102
1003
,
0010
0000
1000
0100
0001
0000
0001
0100
,
1000
0000
0010
0100
0000
0100
0010
0000
,
0100
0001
1002
0013
,
0100
1000
0001
0100
0000
0010
0100
0001
,
0000
0010
0100
1000
0000
0010
0100
0010
,
1000
1000
0001
0001
1000
0100
0010
0001
,
0010
0000
0001
0100
1000
0000
0000
0000
,
0012
0103
2010
3100
,
0010
0000
0001
0100
1000
0000
1000
0100
,
0001
0000
0010
0100
0000
0100
0010
0001
,
1000
1100
0101
0010
,
0100
0001
1000
0100
0000
0010
0100
1000
,
0000
0010
0100
0001
0000
0010
0100
0020
,
0000
1000
1000
0000
0100
0100
0000
0001
,
0031
0000
1000
0100
0001
0010
1000
0100
,
0001
0010
1000
0100
,
0001
0100
1000
0000
0001
0010
1000
0000
,
0100
0001
0010
1000
,
0001
1000
1001
0000
,
0010
1000
0100
0000
0001
0100
1000
0000
,
0010
0001
1000
0010
,
0100
0001
0010
0000
1000
0010
0001
0000
,
0100
0100
0000
0010
0110
0000
0010
2002
,
0000
0000
0000
0000
,
0000
0000
0000
0000
,
3003
0000
0000
0000
;

//---------------dance-double - ----------------
#NOTES:
     dance-double:
     :
     Easy:
     5:
     0.216,0.230,0.055,0.118,0.000,147.000,6.000,13.000,0.000,0.000,0.000,0.216,0.230,0.055,0.118,0.000,147.000,6.000,13.000,0.000,0.000,0.000:
00000000
00000000
00000000
00000000
,
00000000
00000000
00000000
00000000
,
00000000
00000000
00000000
00000000
,
00000000
00000000
00000000
00000000
,
00000000
00000000
00000000
00000000
,
00010000
00000000
00001000
00000000
,
00000100
00000000
00000001
00000000
,
00000100
00000000
00001000
00000000
,
00010000
00000000
00001000
00000000
,
00010000
00000000
01000000
00000000
,
10000000
00000000
01000000
00000000
,
00010000
00000000
00001000
00000000
,
00011000
00000000
00000000
00000000
,
00000100
00000000
00000010
00000010
,
00000100
00000200
00000000
00000300
,
00000001
00000000
00000001
00000100
,
00000010
00002000
00000000
00003000
,
00010000
00000000
00010000
00001000
,
00010000
00002000
00000000
00003000
,
00100000
00000000
00010000
01000000
,
00100000
20000000
00000000
30000000
,
01000000
00000000
10000000
10000000
,
01000000
00010000
00000000
00001000
,
00000100
00000000
00000001
00000001
,
00000100
00001000
00000000
00010000
,
00100000
00000000
10000000
10000000
,
00100000
00010000
00000000
00001000
,
00000010
00000000
00000001
00000001
,
00000010
00001000
00000001
00000000
,
00000001
00000000
00000100
00000000
,
00020000
00000000
00000000
00030000
,
00001000
00001000
00010000
00010000
,
02000000
00000000
03000000
00000000
,
00100000
00000000
10000000
00000000
,
00100000
00000000
00010000
00000000
,
00001000
00000000
00011000
00011000
,
00022000
00000000
00000000
00033000
,
00010000
00001000
00000100
00001000
,
00010000
00000010
00001000
00000000
,
00000010
00000010
00000100
00000001
,
00000100
00001000
00010000
00000000
,
00001000
00010000
00001000
00100000
,
00010000
00100000
00001000
00000000
,
00010000
00000100
00001000
00000100
,
00000010
00000001
00000100
00000000
,
00001000
00010000
00100000
00010000
,
00001000
01000000
00010000
00000000
,
01000000
01000000
00100000
10000000
,
00100000
00010000
00001000
00000000
,
00010000
00001000
00010000
00000100
,
00001000
00000010
00000100
00000000
,
00000020
00000000
00000100
00000100
,
00000130
00000000
00000001
00001000
,
00002002
00000000
00000000
00000000
,
00000000
00000000
00000000
00003003
,
00000001
00000000
00000100
00000000
,
00001000
00001000
00010000
00000000
,
00010000
00000000
00100000
00000000
,
10000000
10000000
01000000
00000000
,
00010000
00000000
00001000
00000000
,
00010000
00000000
00001000
00000000
00010000
00000000
00000000
00022000
,
00000000
00000000
00000000
00000000
,
00000000
00000000
00000000
00000000
,
00033000
00000000
00000000
00000000
;

//---------------dance-double - ----------------
#NOTES:
     dance-double:
     :
     Medium:
     7:
     0.322,0.316,0.146,0.073,0.000,223.000,16.000,8.000,0.000,0.000,0.000,0.322,0.316,0.146,0.073,0.000,223.000,16.000,8.000,0.000,0.000,0.000:
00000000
00000000
00000000
00000000
,
00000000
00000000
00000000
00000000
,
00000000
00000000
00000000
00000000
,
00000000
00000000
00000000
00000000
,
00000000
00000000
00000000
00000000
,
00100000
00010000
01000000
00010000
,
00100000
00001000
00010000
00000000
,
00000010
00001000
00000100
00001000
,
00000010
00010000
00001000
00000000
,
00010000
00001000
00000100
00001000
,
00100000
00010000
01000000
00000000
,
00001000
00010000
01000000
00010000
,
00002000
00000000
00000000
00003000
,
01010000
00000000
00100000
10000000
,
01000000
00000000
00100000
00000000
01000000
00010000
00001000
00000000
,
00000010
00000000
00000001
00001000
,
00000100
00000011
00000100
00000100
,
00000110
00000000
00000100
00000001
,
00000010
00000000
00001000
00000000
00000100
00001000
00010000
00000000
,
00100000
00000000
10000000
00010000
,
01000000
10100000
01000000
01000000
,
01100000
10010000
01000000
10000000
,
00100000
00000000
00010000
00000000
01000000
00010000
00001000
00000000
,
00000100
00000011
00000100
00000010
,
00001000
00000001
00001000
00010000
,
01010000
10100000
01000000
00100000
,
00010000
10000000
00010000
00001000
,
00000100
00001000
00000010
00000001
,
00000100
00001000
00000010
00000001
,
00000100
00000000
00000100
00001000
00000000
00000000
00010000
00000000
,
00001000
00010000
00000000
00000000
00010000
01000000
10000000
00000000
,
00010000
01000000
10000000
00100000
,
00010000
01000000
10000000
00000000
01000000
00000000
00000000
00000000
,
00200000
00000000
00010000
00301000
,
00020000
00000000
00001000
00030010
,
00001000
00000000
00000001
00001000
,
00000110
00000000
00000000
00001001
00000000
00000000
00000110
00000000
,
00000100
00000001
00000010
00001000
,
00010000
00000000
00001000
00010000
01000000
00000000
10000000
01000000
,
00020000
01000000
01000000
01000000
,
00031000
00010000
00011000
00000000
,
00010000
00001000
00000100
00000000
00000001
00000000
00000010
00000000
,
00000001
00000100
00001000
00000000
00010000
00001000
00100000
00000000
,
00020000
01000000
10000000
00100000
,
00031000
00000000
00010000
01000000
10000000
00000000
00000000
00000000
,
01000000
10000000
00100000
00010000
,
00001000
00000000
00010000
00001000
00000100
00000000
00000001
00000100
,
00002000
00000100
00000100
00000100
,
00013000
00001000
00011000
00000000
,
00001000
00010000
01000000
00000000
10000000
00000000
00100000
00000000
,
10000000
01000000
00010000
00000000
00001000
00000000
00000010
00000000
,
00000001
00000100
00001000
00000000
00000001
00000100
00001000
00000000
,
00001001
00000000
00000010
00000000
,
00000100
00001000
00010000
01000000
,
00100000
00010000
00001000
00000010
,
00000100
00001000
00010000
01000000
,
10000000
00000000
10000000
01000000
00010000
00000000
00000000
00000000
,
00010000
00001000
00000100
00000010
,
00001000
00010000
01000000
00100000
,
00010000
00001000
00000100
00000010
,
00001000
00000100
00000001
00000100
00001000
00000000
00000000
00022000
,
00000000
00000000
00000000
00000000
,
00000000
00000000
00000000
00000000
,
00033000
00000000
00000000
00000000
;

//---------------dance-double - ----------------
#NOTES:
     dance-double:
     :
     Hard:
     11:
     0.474,0.459,0.255,0.073,0.009,328.000,28.000,8.000,0.000,0.000,0.000,0.474,0.459,0.255,0.073,0.009,328.000,28.000,8.000,0.000,0.000,0.000:
00000000
00000000
00000000
00000000
,
00000000
00000000
00000000
00000000
,
00000000
00000000
00000000
00000000
,
00000000
00000000
00000000
00000000
,
00000000
00000000
00000000
00000000
,
00001000
00000010
00010000
00000010
00001000
00000010
00010000
00000010
,
00001000
00000100
00010000
00000100
00001000
00000100
00010000
00010000
,
00001000
00100000
00010000
00100000
00001000
00100000
00010000
00100000
,
00001000
01000000
00010000
01000000
00001000
01000000
00010000
00010000
,
10000000
01000000
00010000
01000000
10000000
01000000
00010000
01000000
,
10000000
00100000
00010000
00100000
10000000
00100000
00010000
00001000
,
00000100
00000001
00000100
00001000
00000100
00000001
00000100
00001000
,
00020000
00100000
00000010
00031000
,
00011000
00000000
00001000
00000000
00010000
00001000
00010000
01000000
,
10000000
00000000
00010000
00000000
10000000
00100000
00010000
00000000
,
00011000
00000000
00010000
00000000
00001000
00010000
00001000
00000100
,
00000001
00000000
00001000
00000000
00000001
00000010
00001000
00000000
,
00011000
00000000
00010000
00000000
01000000
00000000
10000000
00100000
,
01000000
00000000
00010000
00000000
10000000
00100000
00010000
00000000
,
00011000
00000000
00001000
00000000
00000100
00000000
00000001
00000010
,
00000100
00000000
00001000
00000000
00000001
00000010
00001000
00000000
,
00101000
00000000
00010000
00000000
01000000
10000000
00100000
01000000
,
00001000
00010000
01000000
00000000
10000000
00100000
00010000
00000000
,
00010010
00000000
00001000
00000000
00000100
00000001
00000010
00000100
,
00010000
00001000
00000100
00000000
00000001
00000010
00001000
00000000
,
00020000
00000000
00031000
00001000
00100000
00000000
00010000
00100000
,
01000000
10000000
01000000
00000000
10000000
00100000
00010000
00000000
,
00011000
00000000
00010000
00000000
00000010
00000000
00001000
00000010
,
00000100
00000001
00000100
00000000
00000010
00000100
00000010
00000000
,
00001001
00000000
00000001
00001000
00000000
00000000
00011000
00000000
,
00010000
10000000
00000000
00000000
00000000
00000000
10010000
00000000
,
10000000
01000000
00010000
00001000
00010000
00001000
00000100
00000001
,
00000100
00000001
00001000
00001001
,
00000010
00000000
00000100
00000000
00000010
00000100
00001000
00010000
,
00100000
00000000
01000000
00000000
00100000
00010000
00001000
00000100
,
00000010
00000100
00000110
00001001
,
00010100
00000000
00000000
00101000
00000000
00000000
01010000
00000000
00000000
10100000
00000000
00000000
10010000
00000000
00000000
00000000
,
01020000
10000000
00100000
00001000
,
00100000
00000000
10030000
01000000
00010000
00000000
00001000
00010000
,
00001000
00000000
00000100
00000010
00000000
00000001
00000100
00000010
,
00001000
00001100
00000012
00001003
,
00000001
00001000
00000010
00000100
00000000
00001000
00100000
00010000
,
00000000
10000000
01000000
00010000
00000000
00001000
00010000
00001000
,
00100000
01000000
00001000
00010000
00000010
00000100
00010000
00001000
,
00011000
00000000
00001000
00000100
00000001
00000000
00001001
00000000
,
00002100
00000001
00000010
00010000
,
00000010
00000000
00003001
00000100
00001000
00000000
00010000
00001000
,
00010000
00000000
01000000
00100000
00000000
10000000
01000000
00100000
,
00010000
01010000
20100000
30010000
,
10000000
00010000
00100000
01000000
00000000
00010000
00000010
00001000
,
00000000
00000001
00000100
00001000
00000000
00010000
00001000
00010000
,
00000100
00000010
00001000
00010000
01000000
00100000
00001000
00010000
,
00001000
00000000
00011000
00000000
00010000
00001000
00000010
00000001
,
00000100
00001000
00010000
00000000
01000000
00000000
00001000
00000000
,
00010000
01000000
10000000
00000000
01000000
00010000
00001000
00000000
,
00000010
00001000
00010000
00000000
01000000
00010000
00001000
00000000
,
00000010
00001000
00010000
00000000
01000000
00010000
00001000
00000000
,
01000000
00010000
00001000
00000000
00000100
00000000
00010000
00000000
,
00001000
00000100
00000001
00000000
00000100
00001000
00010000
00000000
,
01000000
00010000
00001000
00000000
00000100
00000000
00010000
00000000
,
00001000
00000100
00000001
00000000
00000100
00001000
00010000
00022000
,
00000000
00000000
00000000
00000000
,
00000000
00000000
00000000
00000000
,
00033000
00000000
00000000
00000000
;

//---------------dance-single - ----------------
#NOTES:
     dance-single:
     :
     Challenge:
     13:
     0.578,0.488,0.091,0.200,0.342,412.000,10.000,22.000,0.000,0.000,0.000,0.578,0.488,0.091,0.200,0.342,412.000,10.000,22.000,0.000,0.000,0.000:
0000
0000
0000
0000
,
0000
0000
0000
0000
,
0000
0000
0000
0000
,
0000
0000
0000
0000
,
0000
0000
0000
0000
,
1000
0000
0010
0000
0100
0000
0001
0010
0000
0000
0010
0000
0100
0000
1000
0000
,
0001
0000
0100
0000
1000
0000
0001
0010
0000
0000
0010
0000
0100
0000
0010
0000
,
1000
0000
0001
0000
0100
0000
0010
1000
0000
0000
1000
0000
0001
0000
0100
0000
,
0010
0000
1000
0000
0100
0000
0010
0001
0000
0000
0001
0000
1000
0000
0001
0000
,
0010
0000
1000
0000
0100
0000
0010
0001
0000
0000
0001
0000
0100
0000
1000
0000
,
0010
0000
0100
0000
0001
0000
1000
0100
0000
0000
0100
0000
0001
0000
0100
0000
,
1000
0000
0010
0000
0100
0000
1000
0001
0000
0000
0001
0000
0010
0000
0100
0000
,
1001
0000
0000
0000
0010
0000
0010
0000
0010
0000
0000
0000
0100
0000
0100
0010
,
0100
0000
0001
0100
0010
1000
0010
0100
,
1000
0100
0001
0100
1000
0100
0001
0100
,
0010
0000
0010
0100
0010
0000
0100
0010
,
1000
0001
0010
0100
1000
0000
0100
0100
,
0100
0000
0001
1000
0010
0100
0001
0010
,
0100
1000
0001
0010
0100
0010
0001
0010
,
1000
0000
0010
0001
0100
0010
1000
0010
,
0001
0100
0000
0000
1000
0100
0000
0000
0001
0100
0000
0000
1000
0100
0000
0000
,
0001
0000
0010
0000
0200
0000
0000
1000
0000
1300
0000
0000
0002
0000
0000
0010
,
0000
0013
0000
0000
2000
0000
0000
0001
0000
3001
0000
0000
0020
0000
0000
0100
,
0000
0130
0000
0000
2000
0000
0000
0100
0000
3100
0000
0000
0020
0000
0000
0001
,
0000
0031
0000
0000
2000
0000
0000
0100
0000
3100
0000
0000
0002
0000
0000
1000
,
0000
1003
0000
0000
0100
0000
0001
0010
0000
0100
0000
0000
1000
0000
0010
0100
,
0000
0001
0000
0000
0010
0000
0100
0001
0000
0010
0000
0000
1000
0000
0100
0010
,
0000
0001
0000
0000
0010
0000
1000
0100
1000
0010
0000
0000
0001
0000
1000
0010
,
1000
0100
1000
0000
0010
0000
0100
0000
0001
0000
1000
0000
0100
0000
0000
0000
,
0001
0100
0001
0100
0010
1000
0100
0010
,
0100
1000
0001
0010
0010
1000
0010
0010
,
0001
0100
0100
1000
0100
0100
0010
0001
,
1000
0010
0100
0001
0010
0100
0010
0001
,
1000
0010
0010
1000
0100
0001
0010
0010
,
0100
0001
0010
0010
0100
1000
0010
0001
,
1000
0010
0000
0000
0100
0001
0000
0000
0101
0000
0000
0000
1010
0000
0000
0000
,
1000
0000
0000
0010
0000
0000
0001
0000
0000
0100
0000
0000
1000
0000
0000
0000
,
0101
0000
0000
0001
0010
0000
0000
0010
0100
0000
0000
0100
1000
0000
0000
1000
,
0010
0000
0000
0010
0100
0000
0000
0100
0001
0000
0000
0001
0010
0000
0000
0010
,
1000
0000
0000
1000
0001
0000
0000
0001
0100
0000
0000
0100
0010
0000
0000
0010
,
0100
0000
0000
0100
0010
0000
0000
0020
0200
0000
0000
0000
0330
0000
0000
0000
,
0001
0100
0010
1000
0100
0010
0100
0010
,
0001
0010
0100
1000
0100
0001
0100
1000
,
0100
0001
0100
1000
0010
0100
0010
0001
,
0010
0000
0000
0000
1001
0000
0100
0020
0200
0000
0000
0000
0330
0000
0000
0000
,
1001
0000
0000
0001
1000
0000
0000
1000
0010
0000
0000
0010
0100
0000
0000
0100
,
0001
0000
0000
0001
0010
0000
0000
0010
0100
0000
0000
0100
1000
0000
0000
1000
,
0001
0000
0000
0001
0100
0000
0000
0100
0010
0000
0000
0010
1000
0000
0000
1000
,
0001
0000
0000
0001
1000
0000
0000
2000
0002
0000
0000
0000
3003
0000
0000
0000
,
0100
0001
1000
0100
1000
0010
0100
1000
,
0001
0001
0010
0100
1000
1000
0100
0220
,
0000
0000
0000
0330
,
1001
0000
1000
0100
0001
0010
1000
0100
,
0001
0010
0001
0100
1000
0010
0100
0001
,
0010
0100
1000
0010
0001
0010
1000
0010
,
0100
0001
0100
0010
1000
0100
1000
0001
,
0100
0001
1000
0010
1000
0001
0010
0001
,
1000
0100
0010
0001
1000
0010
0100
0001
,
0010
1000
0010
0001
0010
0100
1000
0001
,
0010
1000
0100
0001
0010
1000
0100
0010
,
0100
0020
0200
0000
0330
0000
0010
0200
0020
0000
0330
0000
0110
0000
2002
0000
,
0000
0000
0000
0000
,
0000
0000
0000
0000
,
3003
0000
0000
0000
;

//---------------dance-single - ----------------
#NOTES:
     dance-single:
     :
     Beginner:
     2:
     0.125,0.138,0.018,0.000,0.000,94.000,2.000,0.000,0.000,0.000,0.000,0.125,0.138,0.018,0.000,0.000,94.000,2.000,0.000,0.000,0.000,0.000: // measure 0
0000
0000
0000
0000
,  // measure 1
0000
0000
0000
0000
,  // measure 2
0000
0000
0000
0000
,  // measure 3
0000
0000
0000
0000
,  // measure 4
0000
0000
0000
0000
,  // measure 5
1000
0000
1000
0000
,  // measure 6
1000
0000
0000
0000
,  // measure 7
0001
0000
0001
0000
,  // measure 8
0001
0000
0000
0000
,  // measure 9
1000
0000
1000
0000
,  // measure 10
1000
0000
0000
0000
,  // measure 11
0001
0000
0001
0000
,  // measure 12
0001
0000
0000
0000
,  // measure 13
1000
0000
1000
0000
,  // measure 14
0100
0000
0000
0000
,  // measure 15
0001
0000
0001
0000
,  // measure 16
0100
0000
0000
0000
,  // measure 17
1000
0000
1000
0000
,  // measure 18
0010
0000
0000
0000
,  // measure 19
0001
0000
0001
0000
,  // measure 20
0010
0000
0000
0000
,  // measure 21
1000
0000
0100
0000
,  // measure 22
1000
0000
0000
0000
,  // measure 23
0001
0000
0100
0000
,  // measure 24
0001
0000
0000
0000
,  // measure 25
1000
0000
0010
0000
,  // measure 26
1000
0000
0000
0000
,  // measure 27
0001
0000
0010
0000
,  // measure 28
0001
0000
0000
0000
,  // measure 29
1000
0000
1000
0000
,  // measure 30
0100
0000
0100
0000
,  // measure 31
0001
0000
0001
0000
,  // measure 32
0100
0000
0000
0000
,  // measure 33
1000
0000
1000
0000
,  // measure 34
0010
0000
0010
0000
,  // measure 35
0001
0000
0001
0000
,  // measure 36
1001
0000
0000
0000
,  // measure 37
1000
1000
1000
0000
,  // measure 38
1000
0000
0000
0000
,  // measure 39
0001
0000
0001
0000
,  // measure 40
0010
0000
0000
0000
,  // measure 41
0001
0001
0001
0000
,  // measure 42
0001
0000
0000
0000
,  // measure 43
1000
1000
1000
0000
,  // measure 44
1000
0000
0000
0000
,  // measure 45
0001
0001
0001
0000
,  // measure 46
0001
0000
0000
0000
,  // measure 47
1000
0000
1000
0000
,  // measure 48
0010
0000
0000
0000
,  // measure 49
0100
0100
0100
0000
,  // measure 50
0100
0000
0000
0000
,  // measure 51
0010
0000
0010
0000
,  // measure 52
0010
0000
0000
0000
,  // measure 53
1001
0000
0000
0000
,  // measure 54
1000
0000
1000
0000
,  // measure 55
0100
0000
0100
0000
,  // measure 56
0001
0000
0000
0000
,  // measure 57
0001
0000
0001
0000
,  // measure 58
0100
0000
0100
0000
,  // measure 59
1000
0000
1000
0000
,  // measure 60
0100
0000
0100
0100
;
