#TITLE:Quickening;
#SUBTITLE:;
#ARTIST:dj TAKA;
#TITLETRANSLIT:;
#SUBTITLETRANSLIT:;
#ARTISTTRANSLIT:;
#GENRE:PSYCHEDELIC;
#CREDIT:;
#MENUCOLOR:;
#METERTYPE:DDR X;
#BANNER:Quickening.png;
#BACKGROUND:Quickening-bg.png;
#LYRICSPATH:;
#CDTITLE:./CDTITLES/DanceManiax.png;
#MUSIC:Quickening.mp3;
#OFFSET:0.904;
#SAMPLESTART:51.870;
#SAMPLELENGTH:15.000;
#SELECTABLE:YES;
#LISTSORT:;
#DISPLAYBPM:150.000;
#BPMS:0.000=149.980;
#STOPS:;
#BGCHANGES:2.313=Quickening.avi=1.000=1=1=0,
99999=-nosongbg-=1.000=0=0=0 // don't automatically add -songbackground-
;
#ATTACKS:;

//---------------dance-single - ----------------
#NOTES:
     dance-single:
     :
     Easy:
     6:
     0.273,0.383,0.097,0.261,0.000:
0000
0000
0000
0000
,
0000
0000
0000
0000
,
0000
0000
0000
0000
,
0000
0000
0000
0000
,
0000
0000
0000
0000
,
0100
0001
1000
0000
,
1000
0000
0100
0000
,
1000
0000
0100
0000
,
2000
0000
0001
3001
,
1001
0000
0001
0000
,
0100
0100
0010
0010
,
0100
0000
0001
0000
,
1000
0001
0100
0010
,
2000
0000
0010
3000
,
0001
0100
0001
1000
,
0020
0000
1000
0030
,
0010
1000
0001
0100
,
1001
0000
0100
0000
,
0010
0000
1000
0000
,
0002
0100
0100
0103
,
0001
0000
0100
0000
,
0001
0000
0010
0000
,
0002
0000
1000
0003
,
0010
0000
1000
0000
,
2000
0010
0010
3010
,
1001
0000
0010
0000
,
0100
0000
0010
0000
,
0100
0001
1000
0010
,
2000
0000
0010
3001
,
1000
0000
0010
0000
,
0220
0000
0000
0330
,
0002
0000
1000
1003
,
0010
1000
0001
0100
,
0002
0000
1000
1003
,
0010
1000
0001
0100
,
0020
0000
1000
0130
,
0100
0001
1000
0010
,
1000
0000
0100
0000
,
0100
1000
0001
0010
,
0200
0000
1000
0300
,
1001
0010
1001
0100
,
0220
0000
0000
0000
,
0000
0000
0000
0030
,
0000
0000
0010
0310
,
1000
0001
1000
0010
,
0100
0000
0010
0000
,
0100
0001
1000
0010
,
0200
0010
0000
0310
,
0010
1000
0001
0100
,
1000
0000
0010
0000
,
2000
3010
0002
0103
,
2000
3001
0002
1003
,
0010
1000
0100
0010
,
0220
0300
0001
0031
,
0100
0000
0001
0000
,
1001
0000
1000
0000
,
0020
0000
1000
1030
,
0020
0000
0100
0130
,
2000
0001
0001
3001
,
0002
1000
1000
1003
,
0020
0100
0100
0130
,
1001
0000
0000
0000
;

//---------------dance-single - ----------------
#NOTES:
     dance-single:
     :
     Medium:
     7:
     0.420,0.442,0.474,0.300,0.000:
0000
0000
0000
0000
,
0000
0000
0000
0000
,
0000
0000
0000
0000
,
0000
0000
0000
0000
,
0000
0000
0000
0000
,
1000
1000
0001
0001
,
0010
0010
0100
0100
,
1001
0010
0001
0100
,
1001
0010
1000
0100
,
2002
0003
0001
3001
,
1100
0000
0010
0000
,
0110
0010
0110
1000
,
0110
0001
1001
1000
,
0002
0010
0100
1003
,
0001
0000
0100
0001
1000
0000
0001
0000
,
0010
0000
0100
1000
0001
0000
1000
0000
,
0002
1003
2000
3001
,
0100
0002
0100
0103
,
0020
1000
1030
1000
,
1001
0010
1001
0100
,
1001
0010
1001
0100
,
0002
1000
0100
1003
,
2000
0001
0010
3001
,
1100
0001
0011
0010
,
0110
1000
1100
0100
,
1000
0000
1000
0001
1000
0000
0001
0000
,
2002
3003
0220
0330
,
1010
0100
1010
0100
,
0001
0000
0100
0001
1000
0000
0100
0000
,
0100
0000
1000
0001
0100
0000
0001
0000
,
0110
0001
1001
0100
,
0110
1001
0010
1001
,
0010
0001
0010
1000
,
2002
0003
0001
3001
,
1000
0010
0100
0000
0002
0000
1003
0000
,
1001
1000
0100
0010
,
0110
1100
0001
1000
,
0010
1000
0001
0000
0010
0000
0100
0000
,
0110
1100
0001
1000
,
0110
0010
1001
0001
,
2000
0000
3001
1000
0002
0000
0103
0000
,
0202
0000
0000
0000
,
0000
0000
0000
0300
,
0100
1000
0100
1003
,
0100
0101
2000
0000
,
3001
0101
0002
0000
,
1003
0000
1100
0000
1000
0001
1000
0000
,
0001
1000
0001
0000
1001
0000
0100
0000
,
0002
1003
0020
0130
,
0002
0013
0200
1300
,
2000
0001
0010
3001
,
0010
1000
0001
1000
,
1001
0000
0110
0000
0001
0000
1000
0001
,
1000
1100
1001
0100
,
2000
0000
0010
0000
3001
0000
1000
0001
,
0100
0002
0100
1003
,
1100
0000
1010
0000
0010
0000
1000
0001
,
0100
0000
0202
0000
0300
0000
1003
0001
,
1000
0101
0010
1001
,
0100
0010
0100
0010
,
1010
0000
1000
0000
0110
0000
0010
0010
,
0010
0000
0000
0000
;

//---------------dance-single - ----------------
#NOTES:
     dance-single:
     :
     Hard:
     11:
     0.489,0.627,0.077,0.126,0.198:
0000
0000
0000
0000
,
0000
0000
0000
0000
,
0000
0000
0000
0000
,
0000
0000
0000
0000
,
0001
0000
0000
0100
0000
0000
0001
0000
1000
0000
0000
0100
0000
0000
1000
0000
,
0010
0000
0000
0100
0000
0000
0001
0000
0010
0000
0000
0100
0000
0000
1000
0000
,
0001
0000
0000
0100
0000
0000
0010
0000
1000
0000
0000
0001
0000
0000
0010
0000
,
0001
0010
0100
1000
0010
1000
0001
1000
,
0001
1000
0001
1000
0001
1000
0001
1000
0001
1000
0001
1000
0001
1000
0001
0000
,
2000
0001
0001
3001
,
1000
0000
0000
0010
0000
0000
1000
0000
0001
0000
0000
0010
0000
0000
0001
0000
,
0100
0000
0000
0010
0000
0000
1000
0000
0100
0000
0000
0010
0000
0000
0001
0000
,
1000
0000
0000
0010
0000
0000
0100
0000
0001
0000
0000
1000
0000
0000
0001
0000
,
0002
1000
1000
1003
,
0010
0000
0000
0100
0000
0000
0001
0000
0010
0000
0000
0100
0000
0000
1000
0000
,
0001
0000
0000
0100
0000
0000
0010
0000
1000
0000
0000
0001
0000
0000
0010
0000
,
0100
1000
0001
1000
0100
0001
0100
0001
,
2000
0100
0100
3100
,
0001
0000
0000
0100
0000
0000
0001
0000
1000
0000
0000
0100
0000
0000
1000
0000
,
0010
0000
0000
0100
0000
0000
0001
0000
0010
0000
0000
0100
0000
0000
1000
0000
,
0001
0000
0000
0100
0000
0000
0010
0000
1000
0000
0000
0001
0000
0000
0010
0000
,
0001
0000
0000
0100
0000
0000
0001
0000
1000
0000
0000
0100
0000
0000
1000
0000
,
0010
0000
0000
0100
0000
0000
0001
0000
0010
0000
0000
0100
0000
0000
1000
0000
,
0001
0000
0000
0100
0000
0000
0010
0000
1000
0000
0000
0001
0000
0000
0010
0000
,
0001
0100
0001
1000
0100
0010
0001
1000
,
0002
1000
1000
1003
,
0001
0000
0000
0010
0000
0000
0001
0000
1000
0000
0000
0010
0000
0000
1000
0000
,
0100
0000
0000
0010
0000
0000
0001
0000
0100
0000
0000
0010
0000
0000
1000
0000
,
0001
0000
0000
0010
0000
0000
0100
0000
1000
0000
0000
0001
0000
0000
1000
0000
,
2000
0001
0001
3001
,
0002
1003
0020
0130
,
0002
1003
2000
3010
,
0011
1100
0011
1100
,
0012
1000
1000
1003
,
0000
0010
0000
1100
0000
0001
0000
0100
,
0000
1000
0000
0001
0000
0010
1000
0001
,
0000
1000
0000
0101
0000
0001
0000
0100
,
0000
0010
0000
1000
0000
0100
0001
1000
,
0000
0010
0000
0101
0000
1000
0000
0100
,
0000
0001
0000
1000
0000
0010
0001
1000
,
0001
1000
0010
1000
0100
0010
0001
0100
,
0002
0000
0000
0000
,
0000
0000
0000
0003
,
0000
0000
0000
0000
,
0010
0100
0001
0000
1000
0100
0010
0000
,
0001
0100
0001
0000
1000
0100
1000
0000
,
0010
0100
0001
0000
0001
1000
0100
0000
,
0010
0100
0010
0000
0001
1000
0001
0000
,
0010
0100
1000
0000
0001
0100
0010
0000
,
1000
0100
1000
0000
0001
0100
0001
0000
,
0010
0100
1000
0000
1000
0001
0100
0000
,
0010
0100
0010
0000
1000
0001
1000
0000
,
2000
0100
0100
3100
,
1000
0010
0001
0010
1000
0010
0001
0010
,
0001
0100
0010
1000
0001
0100
0010
0100
,
1000
0100
0001
0100
1000
0100
0001
0100
,
0001
0010
0100
1000
0001
0100
0001
1000
,
0001
0010
1000
0010
0001
0010
1000
0010
,
0001
0100
0010
1000
0001
0100
0010
0100
,
0001
0100
1000
0100
0001
0100
1000
0100
,
1000
0010
0100
0001
1000
0100
1000
0100
,
0002
1000
1000
1003
;

//---------------dance-double - ----------------
#NOTES:
     dance-double:
     :
     Easy:
     5:
     0.239,0.354,0.126,0.203,0.000:
00000000
00000000
00000000
00000000
,
00000000
00000000
00000000
00000000
,
00000000
00000000
00000000
00000000
,
00000000
00000000
00000000
00000000
,
00000000
00000000
00000000
00000000
,
00100000
00010000
10000000
00000000
,
00010000
00000000
01000000
00000000
,
00001000
00000000
00010000
00000000
,
00000020
00000000
00000100
00000130
,
00001100
00000000
00010000
00001000
,
01000000
01000000
00100000
00100000
,
01000000
00000000
00010000
00000000
,
00010000
10000000
01000000
00100000
,
00001000
00000000
00010000
00000000
,
00000020
00000100
00001000
00001030
,
00000002
00000000
00001000
00001003
,
00000100
00000000
00020000
00030000
,
00002000
00003000
00100000
00000000
,
00010000
00000000
00011000
00000000
,
00010000
00000000
00000100
00000000
,
00001001
00000010
00010000
00000000
,
00011000
00000000
00100000
00000000
,
00001000
00010000
00001000
00000000
,
00100000
00000000
00010000
00000000
,
20000000
00010000
30010000
01000000
,
00001000
00010000
00000010
00000000
,
00001001
00000000
00000100
00000000
,
00010000
00000000
00001000
00000000
,
00100000
00000000
02000000
00000000
,
10000000
00000000
00100000
03000000
,
00100000
00000000
00001000
00000000
,
00011000
00000000
00000010
00001000
,
00000010
00000000
00010000
00000000
,
00001000
00100000
00010000
00000000
,
00100000
00000000
00010000
00000000
,
20000000
00000000
00100000
30000000
,
01000000
00000000
00001000
00000000
,
00010000
00000000
00000100
00000000
,
00000010
00000000
00000100
00000000
,
00010000
00000000
00001000
00000000
,
00100000
00000000
00010000
00000000
,
20020000
00000000
00000000
00000000
,
00000000
00000000
00000000
00030000
,
00000000
00000000
00010000
30010000
,
10000000
00000000
00010000
00000000
,
01000000
00000000
00011000
00000000
,
00000010
00001000
00000001
00000100
,
00000020
00001000
00000000
00001030
,
00000100
00000000
00010000
00000000
,
00001000
00000000
00100000
00000000
,
00020000
10030000
20000000
30010000
,
01000000
00000000
00011000
00000000
,
00000020
00000000
00000100
00000030
,
00000110
00000000
00001000
00000000
,
00000100
00000000
00010000
00000000
,
00011000
00000000
00200000
00300000
,
02000000
13000000
00020000
01030000
,
00200000
01300000
00001000
00000000
,
00011000
00000000
00000020
00001030
,
00000200
00010300
00001000
01000000
,
00200000
00000000
01000000
01300000
,
10010000
00000000
00000000
00000000
;

//---------------dance-double - ----------------
#NOTES:
     dance-double:
     :
     Medium:
     6:
     0.398,0.413,0.387,0.242,0.000:
00000000
00000000
00000000
00000000
,
00000000
00000000
00000000
00000000
,
00000000
00000000
00000000
00000000
,
00000000
00000000
00000000
00000000
,
00000000
00000000
00000000
00000000
,
01000000
01000000
00010000
00010000
,
10000000
10000000
00010000
00010000
,
10010000
00100000
10010000
01000000
,
01010000
00100000
00110000
00001000
,
00011000
00010000
00000100
00000000
,
00002000
00003001
00000002
00001003
,
00000110
00000010
00010000
00001000
,
01000000
00100000
10000000
10010000
,
00020000
00100000
01000000
00130000
,
00001000
00010000
00000010
00000100
,
00000010
00000000
00001000
00000001
00000100
00000000
00000001
00000000
,
00002000
00003001
00000002
00001003
,
00000100
00001100
00000100
00010000
,
00011000
00100000
01000000
10010000
,
10010000
00100000
10010000
01000000
,
00020000
00100000
00100000
00130000
,
00001000
00010000
00001100
00000010
,
00000200
00000010
00000001
00000310
,
00000110
00001010
00000100
00010000
,
00011000
00100000
01000000
11000000
,
10000000
00000000
00010000
10000000
00010000
00000000
10000000
00000000
,
20020000
30030000
02200000
03300000
,
10100000
01000000
00001000
00010000
,
00000100
00000000
00001000
00000001
00000100
00000000
00000001
00000000
,
00001000
00000000
00000010
00001000
00000100
00000000
00010000
00000000
,
00001000
00100000
00010000
01000000
,
00100000
10010000
00100000
10010000
,
10000000
01000000
00100000
00010000
,
20020000
30000000
01000000
01030000
,
00100000
00110000
00001000
00010000
,
00000010
00001000
00000100
00000010
,
00000110
00001100
00000001
00001000
,
00001001
00000100
00001100
00000000
,
00010000
00001000
00100000
00000000
,
01000000
00100000
10010000
10000000
,
00020000
00000000
10030000
00010000
20000000
00000000
30010000
00000000
,
02020000
00000000
00000000
00000000
,
00000000
00000000
00000000
03000000
,
10000000
01000000
10000000
01030000
,
01000000
11000000
20000000
00000000
,
30010000
01010000
00020000
00000000
,
01030000
00000000
00001000
00010000
00000010
00000000
00001000
00000001
,
00001000
00000000
00000001
00001000
00000001
00000000
00001000
00000000
,
00000002
00001003
00002000
00003010
,
00000020
00001030
00002000
00003010
,
00010000
00001000
01000000
00100000
,
01100000
10000000
00010000
01000000
,
00001000
00000000
00010000
00000000
00000100
00000000
00000010
00000100
,
00001000
00001100
00000001
00000110
,
00002000
00000000
00000010
00000000
00003100
00000000
00010000
00001000
,
00100000
00020000
00100000
01030000
,
01010000
00000000
10000000
00000000
00100000
00000000
10000000
00010000
,
01000000
00000000
00001000
00000000
00011000
00000000
00000010
00001000
,
00000100
00000010
00000001
00001001
,
00000100
00000010
00000100
00000010
,
00001010
00000000
00001000
00000000
00000110
00000000
00000010
00000010
,
00000010
00000000
00000000
00000000
;

//---------------dance-double - ----------------
#NOTES:
     dance-double:
     :
     Hard:
     8:
     0.464,0.531,0.406,0.280,0.000:
00000000
00000000
00000000
00000000
,
00000000
00000000
00000000
00000000
,
00000000
00000000
00000000
00000000
,
00000000
00000000
00000000
00000000
,
00000000
00000000
00000000
00000000
,
10010000
00100000
10010000
01000000
,
01010000
00100000
00011000
00000100
,
00000010
00000001
00001000
00000000
00000001
00001000
00000001
00000000
,
00001000
00000001
00000010
00000000
00000001
00001000
00000001
00000000
,
00001100
00000000
00010000
00000000
00001000
00000000
01000000
00100000
,
10000000
00000000
00010000
00000000
10010000
00000000
00100000
00010000
,
01000000
00000000
00001000
00000000
00010000
00000000
00000010
00000100
,
00000010
00000000
00001000
00000001
00000100
00000000
00000010
00010000
,
00002000
00000000
00010000
00000000
00010000
00000000
00013000
00001000
,
01000000
00000000
00010000
00000000
10000000
00000000
00010000
01000000
,
00100000
10010000
11000000
00010000
,
10000000
01010000
11000000
10000000
,
20020000
00000000
30000000
00000000
00100000
00100000
00130000
00000000
,
00110000
00000000
00010000
10000000
00100000
00000000
01000000
00001000
,
00010000
00002000
00013000
00000020
,
00001030
00000000
00000001
00001000
00000010
00000000
00000100
00000001
,
00001000
00000001
00001001
00001001
,
00000010
00000000
00010000
00001000
01000000
00000000
00100000
00000000
,
01100000
01000000
00010000
10010000
,
00100000
00000000
01000000
00100000
01000000
00000000
01100000
00000000
,
20020000
30030000
00220000
00330000
,
00022000
00033000
00002200
00003300
,
00000202
00000303
00002002
00003003
,
00001100
00000000
00000100
00010000
00001000
00000000
00100000
00000000
,
00010000
01000000
00100000
10000000
00020000
00000000
00100000
00000000
,
10030000
10010000
00010000
01100000
,
10010000
00000000
00010000
01000000
00001000
00000000
00010000
00000010
,
00000200
00000010
00000010
00000310
,
00001001
00000000
00000001
00000010
00000100
00000000
00010000
00000000
,
00001000
00000000
01000000
00100000
10000000
00000000
00010000
00000000
,
10010000
00000000
00010000
10000000
00100000
00000000
01000000
00000000
,
01000000
00000000
00010000
10000000
01000000
00000000
00100000
00000000
,
00012000
00010000
00010000
00013000
,
00002100
00000100
00000100
00003100
,
00000010
00000001
00000100
00000000
00000001
00001000
00000100
00000000
,
00010000
00001000
00100000
00000000
00010000
00100000
00010000
00000000
,
00220000
00000000
00000000
00300000
,
02000000
00000000
00000000
03000000
,
00100000
01000000
01000000
00130000
,
00001000
00000000
00010000
00000010
00001000
00000000
00000001
00000000
,
00001000
00000000
00000001
00001000
00000001
00000000
00001001
00000000
,
00000001
00000101
00001000
00001100
,
00001000
00000000
00000010
00001000
00000100
00000000
00011000
00000000
,
00100000
00000000
01000000
10000000
00010000
00000000
01010000
00000000
,
10000000
00000000
00010000
00100000
01000000
00000000
01100000
00000000
,
01000000
00000000
10000000
00010000
00100000
00000000
00001000
00000000
,
00011000
00000000
00000010
00001000
00000002
00000000
00001000
00001000
,
00001003
00000000
00000100
00010000
00002000
00000000
00010000
00010000
,
00013000
00001000
00100000
00010000
,
11000000
00000000
00100000
00000000
00001000
00000000
00010000
00000010
,
00000100
00000000
00000001
00001000
00000002
00000000
00001000
00001000
,
00001003
00000000
00000001
00001000
00000002
00000000
00000100
00000100
,
00000103
00000000
00000010
00010000
00002000
00000000
00010000
00010000
,
00013000
00000000
00001000
00000000
01000000
00000000
00100000
01000000
,
00010000
00000000
10000000
00010000
01000000
00100000
10000000
00010000
,
01000000
00000000
00010000
00000000
01100000
00000000
10000000
00010000
,
10010000
00000000
00000000
00000000
;

//---------------dance-single - ----------------
#NOTES:
     dance-single:
     :
     Beginner:
     3:
     0.163,0.176,0.068,0.000,0.000:
0000
0000
0000
0000
,
0000
0000
0000
0000
,
0000
0000
0000
0000
,
0000
0000
0000
0000
,
0000
0000
0000
0000
,
0100
0000
1000
0000
,
1000
0000
0100
0000
,
1000
0000
0100
0000
,
1000
0000
0001
0001
,
0000
0000
0001
0000
,
0100
0100
0000
0010
,
0000
0000
0001
0000
,
1000
0000
0100
0000
,
1000
0000
0010
0000
,
0001
0000
0001
0000
,
0010
0000
1000
0000
,
0010
0000
0001
0000
,
1001
0000
0100
0000
,
0010
0000
1000
0000
,
0001
0000
0100
0100
,
0000
0000
0100
0000
,
0001
0000
0010
0000
,
0001
0000
1000
0000
,
0010
0000
1000
0000
,
1000
0000
0010
0010
,
0000
0000
0010
0000
,
0100
0000
0010
0000
,
0100
0000
1000
0000
,
1000
0000
0010
0000
,
1000
0000
0010
0000
,
0110
0000
0000
0000
,
0001
0000
1000
1000
,
0000
1000
0000
0100
,
0000
0000
1000
1000
,
0000
1000
0000
0100
,
0000
0000
1000
0000
,
0100
0000
1000
0000
,
1000
0000
0100
0000
,
0100
0000
0001
0000
,
0100
0000
1000
0000
,
1001
0000
1001
0000
,
0110
0000
0000
0000
,
0000
0000
0000
0000
,
0000
0000
0010
0010
,
0000
0001
0000
0010
,
0000
0000
0010
0000
,
0100
0000
1000
0000
,
0100
0000
0000
0010
,
0010
0000
0001
0000
,
1000
0000
0010
0000
,
1000
0000
0001
0000
,
1000
0000
0001
0000
,
0010
0000
0100
0000
,
0110
0000
0001
0001
,
0000
0000
0001
0000
,
1001
0000
1000
0000
,
0010
0000
1000
1000
,
0000
0000
0100
0100
,
0000
0001
0001
0001
,
0001
0000
1000
1000
,
0000
0100
0100
0100
;

//---------------dance-single - ----------------
#NOTES:
     dance-single:
     :
     Challenge:
     14:
     0.610,0.749,0.261,0.019,0.599: // measure 1
0000
0000
0000
0000
,  // measure 2
0000
0000
0000
0000
,  // measure 3
0000
0000
0000
0000
,  // measure 4
0000
0000
0000
0000
,  // measure 5
1001
0000
0000
0110
0000
0000
0001
0000
1010
0000
0000
0101
0000
0000
1000
0000
,  // measure 6
0010
0000
0001
0100
0000
1000
0001
0000
0010
0000
0001
0100
0000
0010
1000
0000
,  // measure 7
0001
0000
0010
0100
0000
0001
0010
0000
1000
0000
0100
0001
0000
1000
0010
0000
,  // measure 8
0001
0010
0100
1000
0001
0010
0100
1000
,  // measure 9
0001
0100
0001
0100
1000
0010
1000
0010
0001
1000
0001
1000
0010
0100
0001
1000
,  // measure 10
0100
0000
0000
0010
0000
0000
0100
0000
0001
0000
0000
1000
0000
0000
0100
0000
,  // measure 11
1000
0000
0000
0010
0000
0000
1000
0000
0001
0000
0000
0010
0000
0000
0001
0000
,  // measure 12
0100
0000
0000
0010
0000
0000
1000
0000
0100
0000
0000
0010
0000
0000
0001
0000
,  // measure 13
1000
0000
0000
0010
0000
0000
0100
0000
1000
0100
1000
0100
1000
0000
0100
0000
,  // measure 14
0010
0000
0000
0001
0000
0000
0100
0000
0010
0000
0000
1000
0000
0000
0100
0000
,  // measure 15
0001
0000
0000
1000
0000
0000
0010
0000
0001
0000
0000
0100
0000
0000
1000
0000
,  // measure 16
0001
0000
0000
0100
0000
0000
0010
0000
1000
0000
0000
0001
0000
0000
0010
0000
,  // measure 17
1000
0100
1000
0100
0010
0100
0010
0100
0010
0001
0010
0001
1000
0010
0100
0001
,  // measure 18
1000
0000
0000
0001
0000
0000
0100
0000
0010
0000
0000
1000
0000
0000
0010
0000
,  // measure 19
0001
0000
0000
0100
0000
0000
1000
0000
0001
0000
0000
0010
0000
0000
1000
0000
,  // measure 20
0001
0000
0000
0010
0000
0000
0100
0000
1000
0000
0000
0001
0000
0000
0010
0000
,  // measure 21
0100
0000
0000
0010
0000
0000
0001
0000
1000
0001
1000
0001
1000
0000
0010
0000
,  // measure 22
0001
0000
0000
0100
0000
0000
0001
0000
1000
0000
0000
0100
0000
0000
0010
0000
,  // measure 23
1000
0000
0000
0100
0000
0000
0010
0000
0001
0000
0000
0010
0000
0000
0001
0000
,  // measure 24
0100
0000
0000
0010
0000
0000
1000
0000
0100
0000
0000
1000
0000
0000
0010
0000
,  // measure 25
1000
0000
0100
0000
0010
0000
0001
0000
1000
0100
1000
0100
0010
0001
0100
0010
,  // measure 26
1000
0000
0000
0100
0000
0000
1000
0000
0100
0000
0000
0010
0000
0000
1000
0000
,  // measure 27
0001
0000
0000
0010
0000
0000
0001
0000
0100
0000
0000
0001
0000
0000
0010
0000
,  // measure 28
1000
0000
0000
0100
0000
0000
1000
0000
0001
0000
0000
0010
0000
0000
0100
0000
,  // measure 29
1000
0000
0000
0010
0000
0000
0100
0000
0010
0000
0000
1000
0000
0000
0001
0000
,  // measure 30
1000
0100
0001
1000
0001
0010
0001
0100
,  // measure 31
0001
0100
1000
0100
0001
0010
0100
0010
,  // measure 32
1000
0100
0010
0100
1000
0001
0010
0100
,  // measure 33
0011
0110
1100
1001
,  // measure 34
0001
0000
0000
0010
0000
0000
0100
0000
0001
0000
0000
1000
0000
0000
0100
0000
,  // measure 35
0001
0000
0000
0010
0000
0000
1000
0000
0100
0000
0000
0001
0000
0000
0100
0000
,  // measure 36
1000
0000
0000
0100
0000
0000
0001
0000
0010
0000
0000
1000
0000
0000
0001
0000
,  // measure 37
0010
0000
0000
0100
0000
0000
0010
0000
0001
0000
0000
0010
0000
0000
0100
0000
,  // measure 38
0001
0000
0000
0010
0000
0000
1000
0000
0100
0000
0000
0001
0000
0000
1000
0000
,  // measure 39
0010
0000
0000
0100
0000
0000
0001
0000
0010
0000
0000
1000
0000
0000
0100
0000
,  // measure 40
0001
0010
1000
0001
0100
1000
0001
0010
,  // measure 41
1000
0100
1000
0100
0010
0001
0010
0001
1000
0001
1000
0001
0010
0100
0001
1000
,  // measure 42
0100
0000
0000
1100
0000
0000
0011
0000
0000
0000
0000
0000
0101
0000
0000
0110
,  // measure 43
0000
1010
0000
0000
0000
0000
0000
0000
,  // measure 44
0000
1100
0000
0000
1001
0000
0000
0100
0000
0010
0000
1000
0100
0000
0110
0000
,  // measure 45
1000
0001
0000
0000
0010
0001
0000
0000
0010
1000
0000
0000
0100
1000
0000
0000
,  // measure 46
0001
0100
0000
0000
1000
0010
0000
0000
0001
0100
0000
0000
1000
0010
0000
0000
,  // measure 47
1000
0100
0000
0000
0001
0100
0000
0000
1000
0001
0000
0000
0100
0010
0000
0000
,  // measure 48
1000
0100
0000
0000
0010
0001
0000
0000
0010
1000
0000
0000
0100
0010
0000
0000
,  // measure 49
1000
0100
0000
0000
1000
0000
0010
0000
0001
0100
0000
0000
0010
0000
1000
0000
,  // measure 50
0100
0010
0000
0000
0100
0000
0010
0000
0001
0100
0000
0000
1000
0000
0100
0000
,  // measure 51
1000
1000
0100
0100
0010
0010
0001
0001
,  // measure 52
0100
0010
0100
0010
1000
0001
1000
0001
1000
0100
0010
0001
0100
0010
1000
0001
,  // measure 53
0010
0000
0000
0000
1001
0000
0000
0000
0011
0000
0000
0001
0010
0000
0001
0010
,  // measure 54
0001
0010
0100
0010
0100
1000
0001
0010
,  // measure 55
0100
1000
0100
1000
0001
0100
0010
0100
,  // measure 56
1000
0010
0100
0001
0010
1000
0001
1000
,  // measure 57
0001
0100
1000
0001
0010
0100
0010
0001
,  // measure 58
1001
0000
0000
0000
,  // measure 59
0110
0000
0000
0000
,  // measure 60
1100
0000
0011
0000
,  // measure 61
1100
1010
0110
0101
,  // measure 62
0022
0000
0000
0000
,  // measure 63
0033
0000
0000
0000
;

//---------------dance-double - ----------------
#NOTES:
     dance-double:
     :
     Challenge:
     14:
     0.653,0.989,0.155,0.416,0.638:
00000000
00000000
00000000
00000000
,
00000000
00000000
00000000
00000000
,
00000000
00000000
00000000
00000000
,
00000000
00000000
00000000
00000000
,
00002000
00000000
00000000
00000010
00000000
00000000
00003100
00000000
00000002
00000000
00000000
00001000
00000000
00000000
00000103
00000000
,
00020000
00000000
10030000
00100000
00000000
01000000
00010000
00000000
00002000
00000000
00003010
00000100
00000000
00000001
00001000
00000000
,
00020000
00000000
00130000
01000000
00000000
10000000
00010000
00000000
00002000
00000000
00003100
00000010
00000000
00000001
00001000
00000000
,
00010000
01000000
00100000
10000000
00010000
00001000
00000100
00000010
,
00000001
00000100
00000010
00001000
00000001
00000010
00000100
00001000
00010000
00000100
00010000
00000100
00001000
00010000
00001000
00010000
,
00100000
00000000
00000000
10000000
00000000
00000000
00010000
00000000
00001000
00000000
00000000
00000100
00000000
00000000
00000001
00000000
,
00000010
00000000
00000000
00000100
00000000
00000000
00001000
00000000
00010000
00000000
00000000
00100000
00000000
00000000
10000000
00000000
,
00010000
00000000
00000000
00000100
00000000
00000000
00001000
00000000
00000001
00000000
00000000
00000100
00000000
00000000
00000010
00000000
,
00001000
00000000
00000000
00010000
00000000
00000000
00100000
00000000
01000000
00010000
00100000
10000000
00100000
00000000
00001000
00000000
,
00010000
00000000
00000000
00000100
00000000
00000000
00001000
00000000
00000001
00000000
00000000
00001000
00000000
00000000
00000100
00000000
,
00010000
00000000
00000000
00000010
00000000
00000000
00001000
00000000
00010000
00000000
00000000
01000000
00000000
00000000
00100000
00000000
,
10000000
00000000
00000000
01000000
00000000
00000000
00100000
00000000
00010000
00000000
00000000
01000000
00000000
00000000
00001000
00000000
,
00000100
00001000
00000100
00001000
00000010
00000100
00000010
00000100
00000001
00000010
00000001
00000010
00000100
00000010
00001000
00000001
,
00000100
00000000
00000000
00010000
00000000
00000000
01000000
00000000
00100000
00000000
00000000
10000000
00000000
00000000
00100000
00000000
,
00010000
00000000
00000000
00001000
00000000
00000000
00000100
00000000
00001000
00000000
00000000
00000001
00000000
00000000
00000010
00000000
,
00001000
00000000
00000000
00010000
00000000
00000000
01000000
00000000
00100000
00000000
00000000
10000000
00000000
00000000
00010000
00000000
,
00100000
00000000
00000000
00010000
00000000
00000000
00001000
00000000
00010000
00001000
00010000
00001000
00000100
00000000
00000001
00000000
,
00000010
00000000
00000000
00000100
00000000
00000000
00001000
00000000
00010000
00000000
00000000
01000000
00000000
00000000
00100000
00000000
,
10000000
00000000
00000000
00010000
00000000
00000000
00100000
00000000
00001000
00000000
00000000
00010000
00000000
00000000
00001000
00000000
,
00000100
00000000
00000000
00000001
00000000
00000000
00001000
00000000
00000100
00000000
00000000
00000010
00000000
00000000
00001000
00000000
,
00010000
00000000
01000000
00000000
00100000
00000000
10000000
00000000
00010000
00100000
00010000
00100000
00010000
00001000
00010000
00001000
,
00000100
00000000
00000000
00000100
00000000
00000000
00001000
00000000
00000010
00000000
00000000
00001000
00000000
00000000
00000001
00000000
,
00000010
00000000
00000000
00001000
00000000
00000000
00010000
00000000
01000000
00000000
00000000
00010000
00000000
00000000
00100000
00000000
,
10000000
00000000
00000000
01000000
00000000
00000000
00010000
00000000
00100000
00000000
00000000
00001000
00000000
00000000
00000100
00000000
,
00001000
00000000
00000000
00000001
00000000
00000000
00001000
00000000
00000010
00000000
00000000
00000100
00000000
00000000
00010000
00000000
,
00200000
00010000
01000000
10300000
,
00010000
00000000
00001000
00000100
00010000
00000000
00000100
00000010
,
00000100
00001000
00000100
00000010
00000001
00001000
00010000
00000000
,
01010000
10010000
10100000
01100000
,
10000000
00000000
00000000
00100000
00000000
00000000
01000000
00000000
00010000
00000000
00000000
00100000
00000000
00000000
00001000
00000000
,
00000100
00000000
00000000
00000001
00000000
00000000
00001000
00000000
00000100
00000000
00000000
00000010
00000000
00000000
00001000
00000000
,
00000001
00000000
00000000
00001000
00000000
00000000
00000100
00000000
00010000
00000000
00000000
01000000
00000000
00000000
00010000
00000000
,
00100000
00000000
00000000
10000000
00000000
00000000
00100000
00000000
10000000
00000000
00000000
00100000
00000000
00000000
01000000
00000000
,
00010000
00000000
00000000
00001000
00000000
00000000
00000100
00000000
00000010
00000000
00000000
00001000
00000000
00000000
00000100
00000000
,
00000001
00000000
00000000
00000100
00000000
00000000
00000010
00000000
00001000
00000000
00000000
00000100
00000000
00000000
00010000
00000000
,
00100000
10000000
01000000
00100000
01000000
10000000
00100000
00010000
,
00001000
00000100
00001000
00000100
00000010
00000001
00000010
00000001
00001000
00000001
00001000
00000001
00000100
00000010
00001000
00000001
,
00000200
00000000
00000000
00020300
00000000
00000000
00002000
00000000
00000000
00000000
00033000
00000000
01010000
00000000
00000000
01100000
,
00000000
20200000
00000000
00000000
00000000
00000000
00000000
30300000
,
00000000
00001000
00000000
00000000
00000100
00000000
00000000
00001000
00000000
00000001
00000000
00001000
00000010
00000000
00000100
00000000
,
00002000
00010000
00003000
00000000
00200000
01000000
00300000
00000000
00200000
00001000
00300000
00000000
02000000
00100000
03000000
00000000
,
00020000
10000000
00030000
00000000
00200000
01000000
00300000
00000000
00020000
00001000
00030000
00000000
00000020
00010000
00000030
00000000
,
00002000
00000100
00003000
00000000
00000002
00001000
00000003
00000000
00000200
00000010
00000300
00000000
00000200
00001000
00000300
00000000
,
00020000
01000000
00030000
00000000
20000000
01000000
30000000
00000000
00020000
00100000
00030000
00000000
00002000
00010000
00003000
00000000
,
00000200
00001000
00000300
00000000
00000001
00000000
00000100
00000000
00020000
00001000
00030000
00000000
00100000
00000000
10000000
00000000
,
02000000
00100000
03000000
00000000
00010000
00000000
00000100
00000000
00002000
00010000
00003000
00000000
00000100
00000000
00000001
00000000
,
00000001
00000010
00000001
00000010
00000100
00001000
00000100
00001000
00010000
00001000
00010000
00001000
00000100
00010000
00000100
00010000
,
00001000
00100000
00001000
00100000
00010000
00100000
01000000
10000000
00100000
01000000
00010000
00100000
01000000
10000000
00100000
01000000
,
00020000
00000000
00000000
00000000
00001000
00000000
00000000
00000000
00030100
00000000
00000000
00000001
00000100
00000000
00000010
00001000
,
00000100
00010000
00001000
00100000
00001000
00010000
00100000
01000000
,
10000000
01000000
10000000
01000000
00010000
01000000
00010000
00001000
,
00010000
00001000
00000100
00001000
00000001
00000100
00001000
00000001
,
00000010
00001000
00000010
00001000
00010000
10000000
00010000
00100000
,
00022000
00000000
00000000
00033000
,
00202000
00000000
00000000
00303000
,
00000220
00000330
00002002
00003003
,
00110000
01010000
01100000
10100000
,
22000000
00000000
00000000
00000000
,
33000000
00000000
00000000
00000000
;
