#TITLE:PUNISHER;
#SUBTITLE:;
#ARTIST:TAGĂ—PON;
#TITLETRANSLIT:;
#SUBTITLETRANSLIT:;
#ARTISTTRANSLIT:;
#GENRE:;
#CREDIT:;
#BANNER:PUNISHER.png;
#BACKGROUND:PUNISHER-bg.png;
#LYRICSPATH:;
#CDTITLE:./CDTitles/DanceDanceRevolution 2013.png;
#MUSIC:PUNISHER.ogg;
#OFFSET:0.000;
#SAMPLESTART:54.667;
#SAMPLELENGTH:15.000;
#SELECTABLE:YES;
#DISPLAYBPM:180.000;
#BPMS:0.000=180.000
;
#STOPS:
;
#BGCHANGES:;
#KEYSOUNDS:;
#ATTACKS:;

//---------------dance-single - ----------------
#NOTES:
     dance-single:
     :
     Hard:
     14:
     0.663,0.725,0.233,0.125,0.342,514.000,28.000,15.000,0.000,0.000,0.000,0.663,0.725,0.233,0.125,0.342,514.000,28.000,15.000,0.000,0.000,0.000:
0000
0000
0000
0000
,
0000
0000
0000
0000
,
0000
0000
0000
0000
0000
0000
0000
0000
0000
0000
0000
0000
0000
0000
0010
1000
,
0002
0000
0000
0000
,
0000
0000
0000
0000
,
0000
0000
0000
0000
,
0000
0000
0000
0003
,
0010
0000
0000
0000
0010
0000
0000
0000
0001
0000
0000
0010
0000
0000
1100
0000
,
0000
0001
1000
0000
0110
0000
1001
0000
,
0010
0000
0000
0000
0010
0000
0000
0000
1000
0000
0000
0010
0000
0000
0101
0000
,
0000
1000
1000
0001
0010
0001
1000
0100
,
0010
0000
0100
0000
0010
0000
0000
0000
0100
0000
1000
0100
0000
0000
0010
0000
,
0001
1000
0001
0100
0001
1000
0001
0000
,
0100
0000
0010
0000
0100
0000
0000
0000
0010
0000
1000
0001
0000
0000
0100
0000
,
0010
1000
0001
1000
0100
1000
0001
0000
,
0010
0000
0001
0000
1000
0000
0000
0000
0010
0000
0100
0010
0000
0000
1000
0000
,
0001
0100
0010
0100
0001
0100
0010
0000
,
1000
0000
0000
0000
0001
0000
0000
0000
0110
0000
0000
1001
0000
0000
0110
0000
,
0000
1000
0001
1000
0001
0010
0100
1000
,
0000
0000
0001
0000
0100
0000
1000
0000
0100
0000
0010
0100
0000
0000
0001
0000
,
0000
0000
1000
0000
0100
0000
0001
0000
0100
0000
0010
0100
0000
0000
1000
0000
,
0001
0000
1000
0000
0110
0000
0001
0010
,
0000
1000
0100
0000
0001
0000
0100
0000
,
0000
0000
0001
0000
0010
0000
1000
0000
0010
0000
0100
0010
0000
0000
0001
0000
,
0000
0000
1000
0000
0010
0000
0001
0000
0010
0000
0100
0010
0000
0000
1000
0000
,
0001
0000
1000
0000
0110
0000
0001
0100
,
0000
1000
0010
0000
0001
0000
0010
0000
,
0100
0000
1000
0000
0101
0000
0010
0100
,
0000
0000
0001
0000
2000
0000
0000
0000
0001
0000
0000
0001
3000
0000
0001
0000
,
0010
0000
0001
0000
1000
0000
0010
0000
0100
0000
0000
0100
0000
0000
0100
0000
,
0010
0000
1000
0000
0001
0000
0010
0000
0100
0000
0000
0100
0000
0000
0000
0000
,
1000
0000
0001
0000
0100
0000
0010
0000
1000
0000
0000
1000
0000
0000
1000
0000
,
0001
0010
0100
0000
2002
0000
3003
0000
,
1000
0000
0100
0000
0010
0000
0100
0000
1000
0000
0000
1000
0000
0000
1000
0000
,
0001
0000
0100
0000
0010
0000
0100
0000
0001
0000
0000
0001
0000
0000
0000
0000
,
1000
0001
0000
0100
0001
0000
1000
0001
0000
0100
0001
0000
0101
0000
0000
0000
,
0001
1000
0000
0100
1000
0000
0001
1000
0000
0100
1000
0000
1100
0000
0000
0000
,
1000
0001
0000
0010
0001
0000
1000
0001
0000
0010
0001
0000
0011
0000
0000
0000
,
0001
1000
0000
0010
1000
0000
0001
1000
0000
0010
1000
0000
1010
0000
0000
0000
,
0010
0010
0100
0010
0000
1000
0001
0010
,
0100
0100
0010
0100
0000
1000
0001
0000
,
1000
0100
0000
0000
0001
0100
0000
0000
,
0001
0000
0010
0000
0100
0000
1000
0001
0000
0001
1000
0000
0100
0000
0010
0000
,
0001
1000
0100
0000
0010
0100
1000
0000
,
0010
0000
1000
0000
0001
0000
0100
0010
0000
0010
0100
0000
0010
0000
1000
0000
,
0001
0100
0010
0000
1000
0001
0100
0000
,
0010
0000
1000
0000
0100
0000
0010
0001
0000
0001
0010
0000
0100
0000
0010
0000
,
0001
0100
0010
0000
1000
0100
0010
0000
,
0001
0000
0010
0000
0100
0000
1000
0001
0000
0001
0100
0000
0010
0000
1000
0001
,
0000
0001
0010
0000
0100
0000
1000
0001
0000
0001
0100
0000
0010
0000
1000
0000
,
0002
0000
0203
0000
,
2300
0000
3020
0000
,
0032
0000
2003
0000
,
3020
0000
0230
0000
,
0301
0100
0010
0100
0001
0100
0010
0100
,
0001
0010
0100
1000
0010
0100
0001
1000
,
0001
0100
0000
0010
0100
0000
0001
0100
0000
0010
0100
0000
1001
0000
0000
0000
,
1000
0100
0000
0010
0100
0000
1000
0100
0000
0010
0100
0000
1001
0000
0000
0000
,
0001
0010
0000
0100
0010
0000
0001
0010
0000
0100
0010
0000
1001
0000
0000
0000
,
1000
0010
0000
0100
0010
0000
1000
0010
0000
0100
0010
0000
1001
0000
0000
0000
,
0010
0010
0100
0010
0000
0001
1000
0010
,
0100
0100
0010
0100
0000
0001
1000
0000
,
0001
0000
0010
0000
,
2200
0000
0000
3300
,
0001
0000
0100
0000
,
0010
0000
1000
0000
0010
0000
0100
0010
0000
0000
0000
0000
0100
0000
0000
0000
,
0010
1000
0010
0000
1000
0100
1000
0000
,
0100
0001
0100
0000
0001
0010
0001
0000
,
1010
1100
0101
0011
,
1000
0010
1000
0010
0100
0000
0000
0000
0001
0010
0001
0010
0100
0000
0000
0000
,
1000
0000
0010
0000
0100
0000
0001
1000
0000
1000
0001
0000
0100
0000
0010
0000
,
1000
0001
0100
0000
0010
0100
0001
0000
,
0010
0000
0001
0000
1000
0000
0100
0010
0000
0010
0100
0000
0010
0000
0001
0000
,
1000
0100
0010
0000
0001
1000
0100
0000
,
0010
0000
0001
0000
0100
0000
0010
1000
0000
1000
0010
0000
0100
0000
0010
0000
,
1000
0100
0010
0000
0001
0100
0010
0000
,
1000
0000
0010
0000
0100
0000
0001
1000
0000
1000
0100
0000
0010
0000
0001
1000
,
0000
1000
0010
0000
0100
0000
0001
1000
0000
1000
0100
0000
0010
0000
0001
0000
,
1000
0000
0100
0000
1000
0000
0100
0000
0010
0000
0100
0010
0000
0000
0001
0000
,
0100
1000
0100
0001
0100
1000
0100
0000
,
0001
0000
0100
0000
0001
0000
0100
0000
0010
0000
0100
0010
0000
0000
1000
0000
,
0100
0001
0100
1000
0100
0001
0100
0000
,
0010
0000
0000
0000
0010
0000
0000
0000
1000
0000
0000
0010
0000
0000
0101
0000
,
0000
1000
0001
0000
0110
0000
1001
0000
,
0010
0000
0000
0000
0010
0000
0000
0000
0001
0000
0000
0010
0000
0000
1100
0000
,
0000
0001
0001
1000
0010
0100
0001
1000
,
0002
0000
0000
0000
,
0003
0000
0000
0000
;

//---------------dance-double - ----------------
#NOTES:
     dance-double:
     :
     Hard:
     14:
     0.654,0.725,0.133,0.192,0.342,510.000,16.000,23.000,0.000,0.000,0.000,0.654,0.725,0.133,0.192,0.342,510.000,16.000,23.000,0.000,0.000,0.000:
00000000
00000000
00000000
00000000
,
00000000
00000000
00000000
00000000
,
00000000
00000000
00000000
00000000
00000000
00000000
00000000
00000000
00000000
00000000
00000000
00000000
00000000
00000000
00001000
00010000
,
00002000
00000000
00000000
00000000
,
00000000
00000000
00000000
00000000
,
00000000
00000000
00000000
00000000
,
00000000
00000000
00000000
00003000
,
00010000
00000000
00000000
00000000
00010000
00000000
00000000
00000000
00000010
00000000
00000000
00000100
00000000
00000000
00000001
00000000
,
00000000
00000010
00000100
00000000
00001001
00000000
00000110
00000000
,
00001000
00000000
00000000
00000000
00001000
00000000
00000000
00000000
00010000
00000000
00000000
00100000
00000000
00000000
01000000
00000000
,
00000000
00100000
10000000
00000000
00010000
00100000
01000000
10000000
,
00010000
00000000
01000000
00000000
00100000
00000000
00000000
00000000
01000000
00000000
00001000
00010000
00000000
00000000
00000010
00000000
,
00001000
00000010
00010000
00001000
00010000
00000010
00001000
00000000
,
00000100
00000000
00000010
00000000
00000100
00000000
00000000
00000000
00000010
00000000
00000001
00001000
00000000
00000000
00000010
00000000
,
00000100
00000001
00001000
00000001
00000100
00001000
00010000
00000000
,
00010000
00000000
00000100
00000000
00000010
00000000
00000000
00000000
00000100
00000000
00010000
00001000
00000000
00000000
00100000
00000000
,
00010000
00100000
00001000
00010000
00001000
00100000
00010000
00000000
,
10000000
00000000
00000000
00000000
00010000
00000000
00000000
00000000
01100000
00000000
00000000
10010000
00000000
00000000
01100000
00000000
,
00000000
00100000
10000000
01000000
10000000
00010000
01000000
00001000
,
00000000
00000000
00010000
00000000
00001000
00000000
00000100
00000000
00000010
00000000
00000100
00000001
00000000
00000000
00001000
00000000
,
00000000
00000000
00000001
00000000
00001000
00000000
00000100
00000000
00000010
00000000
00000001
00000010
00000000
00000000
00000100
00000000
,
00001000
00000000
00010000
00000000
00011000
00000000
00001000
00100000
,
00000000
01000000
10000000
00000000
00010000
00000000
00010000
00000000
,
00000000
00000000
01000000
00000000
00100000
00000000
10000000
00000000
00100000
00000000
01000000
00010000
00000000
00000000
01000000
00000000
,
00000000
00000000
00001000
00000000
00010000
00000000
00000010
00000000
00001000
00000000
00000010
00000100
00000000
00000000
00000010
00000000
,
00001000
00000000
00000001
00000000
00000110
00000000
00001000
00000100
,
00000000
00000001
00000010
00000000
00001000
00000000
00001000
00000000
,
00010000
00000000
00001000
00000000
00011000
00000000
01000000
00100000
,
00000000
00000000
10000000
00000000
00020000
00000000
00000000
00000000
10000000
00000000
00000000
10000000
00030000
00000000
10000000
00000000
,
00010000
00000000
01000000
00000000
00100000
00000000
01000000
00000000
00010000
00000000
00000000
00010000
00000000
00000000
00010000
00000000
,
10000000
00000000
01000000
00000000
00100000
00000000
00010000
00000000
00001000
00000000
00000000
00001000
00000000
00000000
00000000
00000000
,
00000100
00000000
00000010
00000000
00000001
00000000
00000010
00000000
00000100
00000000
00000000
00000100
00000000
00000000
00000100
00000000
,
00001000
00000010
00000100
00000000
00002002
00000000
00003003
00000000
,
00000001
00000000
00001000
00000000
00000100
00000000
00010000
00000000
00000010
00000000
00000000
00000010
00000000
00000000
00000010
00000000
,
00000100
00000000
00001000
00000000
00010000
00000000
00001000
00000000
00100000
00000000
00000000
00100000
00000000
00000000
00000000
00000000
,
00001000
00100000
00000000
00010000
00100000
00000000
01000000
00100000
00000000
00010000
00100000
00000000
00002000
00000000
00000000
00000000
,
00013000
00000010
00000000
00001000
00000010
00000000
00000100
00000010
00000000
00001000
00000010
00000000
00020000
00000000
00000000
00000000
,
00031000
01000000
00000000
00010000
01000000
00000000
00100000
01000000
00000000
00010000
01000000
00000000
00002000
00000000
00000000
00000000
,
00013000
00000100
00000000
00001000
00000100
00000000
00000010
00000100
00000000
00001000
00000100
00000000
00020000
00000000
00000000
00000000
,
00030010
00000010
00000100
00000010
00000000
00001000
00000001
00000100
,
00001000
00001000
00010000
00001000
00000000
00010000
01000000
00000000
,
10000000
10000000
00000000
00000000
00010000
00010000
00000000
00000000
,
01000000
00000000
00100000
00000000
10000000
00000000
01000000
00100000
00000000
01000000
00100000
00000000
00010000
00000000
01000000
00000000
,
00001000
00010000
00000100
00000000
00000010
00000100
00001000
00000000
,
00000010
00000000
00001000
00000000
00000001
00000000
00000100
00000010
00000000
00000100
00000010
00000000
00000100
00000000
00001000
00000000
,
00010000
01000000
10000000
00000000
00010000
10000000
01000000
00000000
,
00100000
00000000
00010000
00000000
01000000
00000000
00001000
00010000
00000000
00001000
00010000
00000000
00000100
00000000
00010000
00000000
,
00001000
00000010
00000100
00000000
00001000
00000001
00000010
00000000
,
00000100
00000000
00001000
00000000
00000001
00000000
00000100
00000010
00000000
00001000
00000010
00000000
00010000
00000000
00001000
00100000
,
00000000
00010000
00100000
00000000
01000000
00000000
10000000
00010000
00000000
01000000
00010000
00000000
10000000
00000000
00100000
00000000
,
02000000
00000000
03020000
00000000
,
20030000
00000000
32000000
00000000
,
03020000
00000000
00032000
00000000
,
00003020
00000000
00000032
00000000
,
00001003
00000100
00000010
00000001
00000100
00000010
00001000
00000100
,
00000010
00001000
00010000
01000000
10000000
00100000
01000000
00010000
,
00100000
00010000
00000000
00100000
01000000
00000000
00100000
00010000
00000000
00100000
00001000
00000000
00020000
00000000
00000000
00000000
,
00030010
00001000
00000000
00000010
00000100
00000000
00000010
00001000
00000000
00000010
00010000
00000000
00002000
00000000
00000000
00000000
,
01003000
00010000
00000000
01000000
00100000
00000000
01000000
00010000
00000000
01000000
00001000
00000000
00020000
00000000
00000000
00000000
,
00030100
00001000
00000000
00000100
00000010
00000000
00000100
00001000
00000000
00000100
00010000
00000000
00002000
00000000
00000000
00000000
,
00103000
00100000
01000000
00100000
00000000
00010000
10000000
01000000
,
00010000
00001000
00000100
00000001
00000000
00001000
00000100
00000000
,
00001000
00000000
00000010
00000000
,
00000202
00000000
00000000
00000303
,
00000010
00000000
00001000
00000000
,
00010000
00000000
00001000
00000000
00000100
00000000
00001000
00010000
00000000
00000000
00000000
00000000
00001000
00000000
00000000
00000000
,
00010000
01000000
10000000
00000000
00010000
01000000
00100000
00000000
,
10000000
00100000
00010000
00000000
10000000
01000000
00010000
00000000
,
00110000
00011000
00001100
00000110
,
00000001
00000010
00000001
00000010
00000001
00000000
00000000
00000000
00001000
00000010
00001000
00000010
00001000
00000000
00000000
00000000
,
00000100
00000000
00000010
00000000
00000001
00000000
00000100
00000010
00000000
00000100
00000010
00000000
00001000
00000000
00000100
00000000
,
00010000
00001000
01000000
00000000
00100000
01000000
00010000
00000000
,
00100000
00000000
00010000
00000000
10000000
00000000
01000000
00100000
00000000
01000000
00100000
00000000
01000000
00000000
00010000
00000000
,
00001000
00000100
00000001
00000000
00001000
00000001
00000100
00000000
,
00000010
00000000
00001000
00000000
00000100
00000000
00010000
00001000
00000000
00010000
00001000
00000000
01000000
00000000
00001000
00000000
,
00010000
00100000
01000000
00000000
00010000
10000000
00100000
00000000
,
01000000
00000000
00010000
00000000
10000000
00000000
01000000
00100000
00000000
00010000
00100000
00000000
00001000
00000000
00010000
00000010
,
00000000
00001000
00000010
00000000
00000100
00000000
00000001
00001000
00000000
00000100
00001000
00000000
00000001
00000000
00000000
00000000
,
00001000
00000000
00000100
00000000
00000010
00000000
00000000
00000000
00000100
00000000
00010000
00001000
00000000
00000000
00100000
00000000
,
00010000
00100000
00001000
00010000
00001000
00100000
00010000
00000000
,
01000000
00000000
00100000
00000000
01000000
00000000
00000000
00000000
00100000
00000000
10000000
00010000
00000000
00000000
00100000
00000000
,
01000000
10000000
00010000
10000000
01000000
00010000
00001000
00000000
,
00010000
00000000
00000000
00000000
00010000
00000000
00000000
00000000
00000010
00000000
00000000
00000100
00000000
00000000
00000001
00000000
,
00000000
00000010
00000100
00000000
00001001
00000000
00000110
00000000
,
00001000
00000000
00000000
00000000
00001000
00000000
00000000
00000000
00010000
00000000
00000000
00100000
00000000
00000000
01000000
00000000
,
00000000
00100000
10000000
00010000
00100000
01000000
10000000
00010000
,
02000000
00000000
00000000
00000000
,
03000000
00000000
00000000
00000000
;

//---------------dance-single - ----------------
#NOTES:
     dance-single:
     :
     Challenge:
     17:
     1.000,1.000,0.725,0.650,0.933,741.000,87.000,78.000,0.000,0.000,0.000,1.000,1.000,0.725,0.650,0.933,741.000,87.000,78.000,0.000,0.000,0.000: // measure 0
0000
0000
0000
0000
,  // measure 1
0000
0000
0000
0000
,  // measure 2
0000
0000
0000
0000
0000
0000
0000
0000
0000
0000
0000
0000
0000
0000
1000
0010
,  // measure 3
0100
0000
0000
0000
1001
0000
0000
0000
0022
0033
0000
2002
3003
0000
0202
0000
,  // measure 4
0303
0000
0220
0330
2002
3003
0000
0000
0101
0000
0000
0000
1100
0000
0000
0000
,  // measure 5
0001
0000
0000
0000
0110
0000
0000
0000
2020
3030
0000
0202
0303
0000
2020
0000
,  // measure 6
3030
0000
2002
3003
0202
0303
0000
0000
0010
1000
0001
1000
0100
0010
0001
0100
,  // measure 7
0010
0000
0001
0000
1000
0000
0010
0000
2200
3300
0000
0202
0303
0000
0022
0000
,  // measure 8
0033
0000
2020
3030
2002
0000
3003
0000
0101
0000
0000
0000
1010
0000
0000
0000
,  // measure 9
0010
0000
0001
0000
1000
0000
0010
0000
1100
0000
0000
0101
0000
0000
0110
0000
,  // measure 10
0000
0000
1001
0000
0100
0000
1000
0100
0010
0001
0010
0100
0010
0001
1000
0010
,  // measure 11
1000
0000
0100
0010
0001
0000
0100
0010
1000
0000
0010
0100
0001
0000
0010
0000
,  // measure 12
0001
1000
0010
0000
0010
1000
0001
0000
0100
0000
1000
0010
1000
0001
1000
0000
,  // measure 13
0100
0000
0010
1000
0100
0000
0010
0001
0100
0000
0010
1000
0001
0000
0100
0000
,  // measure 14
0010
0100
0001
0000
0001
0100
0010
0000
1000
0000
0100
1000
0001
1000
0100
0000
,  // measure 15
0001
0000
0010
0100
0001
0000
0010
0100
1000
0000
0001
0100
0010
0000
1000
0000
,  // measure 16
0010
1000
0001
0000
0010
0100
1000
0000
0010
0000
0100
0001
1000
0001
0100
0000
,  // measure 17
1000
0100
0010
0001
0100
0010
1000
0010
0200
0300
0000
2002
3003
0000
2200
0000
,  // measure 18
3300
0000
0100
0010
1000
0100
0010
1000
0001
1000
0010
0100
0001
1000
0100
0010
,  // measure 19
0001
0000
0100
0000
0010
0000
0001
0000
1000
0000
0010
0100
0001
0000
0100
0000
,  // measure 20
0010
0000
1000
0000
0001
0000
0100
0000
0010
0000
1000
0100
0010
0000
0001
0000
,  // measure 21
0110
0010
1010
1000
1100
0000
0001
0011
,  // measure 22
0000
0000
1010
0000
0101
0000
0000
0000
0100
0010
0100
0001
1000
0100
0010
0001
,  // measure 23
0100
0000
0010
0001
0010
0000
0011
0000
0100
0000
0010
1000
0010
0000
0100
0000
,  // measure 24
0000
0000
1001
0000
0010
0000
0100
0000
1000
0000
0001
0010
0001
0000
0100
0000
,  // measure 25
1010
0000
0011
0000
1010
0000
0001
0101
,  // measure 26
0000
0000
1000
0000
1100
0000
0000
0000
0001
0100
0010
1000
0010
1000
0100
0010
,  // measure 27
0100
0000
1001
0000
1100
0000
0010
0101
,  // measure 28
0000
0000
0010
0000
1100
0000
0000
0000
1000
0100
0010
0001
0100
0001
0010
0000
,  // measure 29
1001
0000
0001
0000
1000
0000
0100
0000
0110
0000
0001
0100
0000
0010
1000
0000
,  // measure 30
1000
0000
0001
0000
0010
0000
0100
0000
0010
0000
0002
0200
0000
0000
0303
0000
,  // measure 31
0010
0000
1000
0000
0100
0000
0010
0000
0100
0000
0001
1000
0000
0010
1000
0000
,  // measure 32
0001
0000
0100
0000
0010
0000
0000
0000
1000
0100
1000
0100
0010
0100
0010
0100
,  // measure 33
1000
0000
0100
0000
0001
0000
0100
0000
1000
0000
0010
1000
0000
0001
0010
0000
,  // measure 34
0100
0000
0001
0000
0100
0000
0010
0000
1000
0000
0100
0001
0000
0100
1000
0000
,  // measure 35
1001
0000
0010
0100
0000
0010
1000
0000
0010
0100
0000
0001
0100
0000
0110
0000
,  // measure 36
0101
0000
0001
0010
0000
0100
1000
0000
0010
1000
0000
0010
0001
0000
0101
0000
,  // measure 37
0110
0000
0010
1000
0000
0100
0001
0000
0010
0100
0000
0001
1000
0000
1100
0000
,  // measure 38
0110
0000
0010
1000
0000
0100
0010
0000
0001
0100
0000
0010
1000
0000
1001
0000
,  // measure 39
0010
0000
1000
0010
0100
0001
1000
0000
0000
0000
1000
0010
1000
0001
0010
0100
,  // measure 40
0010
0000
1000
0001
0010
0100
1000
0000
0000
0000
0010
0001
0010
0001
0010
0100
,  // measure 41
1000
0000
0010
1000
0100
1000
0100
1000
0001
0000
0010
0001
0100
0001
0100
0001
,  // measure 42
1000
0000
0010
0000
0100
0000
1000
0001
0000
0010
0001
0000
0100
0010
0100
0010
,  // measure 43
1000
0001
0010
0000
0001
1000
0010
0000
,  // measure 44
1000
0000
0100
0000
0010
0000
0001
0010
0000
0010
0100
0000
0010
0100
1000
0100
,  // measure 45
0010
0100
0101
0000
0010
0100
1100
0000
,  // measure 46
0010
0000
1000
0000
0100
0000
0010
0001
0000
1000
0010
0000
0100
0010
1000
0000
,  // measure 47
0110
0001
1000
0000
0110
1000
0001
0000
,  // measure 48
0011
0000
0001
0000
1000
0000
0010
0100
0000
0001
0100
0000
0101
0000
0001
0010
,  // measure 49
0000
0100
1000
0000
1100
0000
1000
0010
0000
0100
0001
0000
0011
0000
0110
0000
,  // measure 50
2100
0010
3200
0001
,  // measure 51
2300
0100
3020
0100
,  // measure 52
0032
0100
2003
0100
,  // measure 53
3020
0001
0230
1000
,  // measure 54
0301
0000
0100
0010
1000
0000
0100
0010
1000
0010
0100
0010
1000
0100
0010
0001
,  // measure 55
0100
0010
1000
0010
0100
0000
1000
0100
0010
0001
0100
0010
1000
0010
0100
0000
,  // measure 56
1001
0000
0010
0100
0000
0010
0001
0000
0010
0100
0000
1000
0100
0000
0110
0000
,  // measure 57
1100
0000
1000
0010
0000
0100
0001
0000
0010
0001
0000
0010
1000
0000
1100
0000
,  // measure 58
0110
0000
0010
0001
0000
0100
1000
0000
0010
0100
0000
1000
0001
0000
0101
0000
,  // measure 59
0110
0000
0010
0001
0000
0100
0010
0000
1000
0100
0000
0010
0001
0000
1001
0000
,  // measure 60
0010
0000
1000
0100
0010
0001
0010
0000
0000
0000
0001
0100
0010
0100
0001
0100
,  // measure 61
0010
0000
0100
0010
1000
0001
0100
0000
0000
0000
0001
0010
0100
1000
0001
0010
,  // measure 62
0002
0000
2003
0000
,  // measure 63
3020
0000
0000
0000
0000
0000
0000
0000
0130
1000
0100
1000
0100
0010
0001
0100
,  // measure 64
0002
0000
0203
0000
,  // measure 65
0310
0000
1000
0000
0001
0000
2000
0002
0000
0000
3003
0000
0101
0000
0000
0000
,  // measure 66
1001
0010
0000
0010
,  // measure 67
1001
0100
0000
0100
,  // measure 68
1000
0100
0010
0001
0100
0010
1000
0100
0010
0001
0100
0010
1000
0100
0010
0001
,  // measure 69
1000
0100
1000
0010
0200
0000
0300
0000
0001
0100
0001
0010
0200
0000
0300
0000
,  // measure 70
0010
0000
0100
0000
0010
0000
0001
1000
0000
1000
0100
0010
0001
0000
0010
0000
,  // measure 71
1000
0010
0200
0000
0301
0010
0200
0000
,  // measure 72
0310
0000
0001
0000
1000
0000
0100
0010
0000
0100
0010
0000
1000
0100
1000
0100
,  // measure 73
0010
0000
0100
0010
1000
0000
0100
0000
0010
0000
1000
0001
0200
0000
0000
0000
,  // measure 74
0310
0000
0001
0000
0100
0000
0010
1000
0000
0010
1000
0010
0100
0000
0010
1000
,  // measure 75
0001
0100
0100
0000
1000
0100
0100
0000
,  // measure 76
1000
0000
0010
0000
0100
0000
0001
0010
0000
0100
1000
0000
0010
0000
0100
0001
,  // measure 77
0000
1000
0100
0000
0010
0000
0001
0010
0000
0100
1000
0000
0010
0000
0100
0000
,  // measure 78
0001
0000
0100
0010
0100
0000
0001
0100
0001
0100
0010
0000
1000
0000
0100
0000
,  // measure 79
0010
1000
0010
0000
0100
0001
0100
0000
0001
0010
0001
0000
1000
0100
1000
0000
,  // measure 80
0001
0000
0100
0010
1000
0000
0010
1000
0010
1000
0100
0000
0010
0001
0100
0010
,  // measure 81
0100
0000
0001
0010
0100
1000
0100
0000
0010
1000
0001
1000
0100
0010
0001
0100
,  // measure 82
0010
0000
0000
0000
1100
0000
0000
0000
0202
0303
0000
2020
3030
0000
0202
0000
,  // measure 83
0303
0000
0220
0330
2200
0000
3300
0000
2020
0000
3030
0000
0202
0000
0303
0000
,  // measure 84
1000
0000
0000
0000
1100
0000
0000
0000
0022
0033
0000
2002
3003
0000
0202
0000
,  // measure 85
0303
0000
0010
0000
0001
0000
1000
0100
0010
0001
0100
0010
1000
0100
0010
0001
,  // measure 86
0200
0000
0000
0000
,  // measure 87
0300
0000
0000
0000
;

//---------------dance-double - ----------------
#NOTES:
     dance-double:
     :
     Challenge:
     17:
     1.000,1.000,0.667,0.558,0.837,704.000,80.000,67.000,0.000,0.000,0.000,1.000,1.000,0.667,0.558,0.837,704.000,80.000,67.000,0.000,0.000,0.000:
00000000
00000000
00000000
00000000
,
00000000
00000000
00000000
00000000
,
00000000
00000000
00000000
00000000
00000000
00000000
00000000
00000000
00000000
00000000
00000000
00000000
00000000
00000000
01000000
00100000
,
01000000
00000000
00000000
00000000
10010000
00000000
00000000
00000000
00202000
00303000
00000000
00022000
00033000
00000000
00020200
00000000
,
00030300
00000000
00002020
00003030
00000022
00000000
00000033
00000000
00010010
00000000
00000000
00000000
00101000
00000000
00000000
00000000
,
00010000
00000000
00000000
00000000
01100000
00000000
00000000
00000000
00022000
00033000
00000000
00202000
00303000
00000000
00220000
00000000
,
00330000
00000000
20020000
30030000
02020000
00000000
03030000
00000000
01000000
00000000
01000000
00000000
01000000
00000000
01000000
00000000
,
10000000
00000000
00000000
00000000
00010000
00000000
00000000
00000000
02002000
03003000
00000000
02020000
03030000
00000000
00022000
00000000
,
00033000
00000000
00002200
00003300
00000022
00000000
00000033
00000000
00001010
00000000
00000000
00000000
00000101
00000000
00000000
00000000
,
00001000
00000000
00000000
00000000
00100000
00000000
00000000
00000000
00010000
00000000
00000000
01000000
00000000
00000000
10100000
00000000
,
00000000
00000000
10010000
00000000
00100000
00000000
10000000
00100000
01000000
00010000
00100000
00001000
00010000
00100000
01000000
00000000
,
10000000
00000000
01000000
00100000
01000000
00000000
00010000
00000000
00100000
00000000
00001000
00010000
00000010
00000000
00001000
00000000
,
00000010
00001000
00000100
00000000
00000100
00001000
00000001
00000000
00000010
00000000
00000001
00000010
00000001
00000010
00000100
00000000
,
00001000
00000000
00000100
00001000
00000100
00000000
00010000
00000000
00000010
00000000
00001000
00000100
00001000
00000000
00010000
00000000
,
00001000
00100000
00010000
00000000
00010000
00100000
00001000
00000000
00010000
00000000
00100000
00010000
00100000
00010000
01000000
00000000
,
00100000
00000000
10000000
01000000
10000000
00000000
00100000
00000000
01000000
00000000
00010000
01000000
00010000
00000000
00100000
00000000
,
00001000
00010000
00000100
00000000
00001000
00000010
00000100
00000000
00001000
00000000
00000010
00000001
00000010
00000100
00001000
00000000
,
00010000
00001000
00100000
00010000
01000000
00100000
10000000
00010000
01000000
00000000
00000000
00100000
00000000
00000000
01000000
00000000
,
00000000
00000000
10000000
00000000
00010000
00000000
00100000
00000000
00001000
00010000
00001000
00010000
00000010
00001000
00000010
00001000
,
00000100
00000000
00010000
00000000
00000010
00000000
00001000
00000000
00000100
00000000
00010000
00001000
00000000
00000000
00001100
00000000
,
00000001
00000000
00000010
00000000
00001000
00000000
00000010
00000000
00000100
00000000
00001000
00010000
00000000
00000000
00011000
00000000
,
00101000
00000000
00010010
00000000
00100000
00000000
00010000
01000000
,
00000000
00000000
10010000
00000000
10010000
00000000
00000000
00000000
01000000
00010000
00100000
01000000
10000000
00010000
10000000
00000000
,
01000000
00000000
00100000
00010000
00100000
00000000
00001000
00000000
00010000
00000000
00000100
00001000
00000000
00000000
00001200
00000000
,
00000000
00000000
00020300
00000000
00001000
00000000
00031000
00000000
00000010
00000000
00001000
00000001
00000100
00000000
00000010
00000000
,
00000110
00000000
00011000
00000000
01100000
00000000
01000000
00100000
,
00000000
00000000
11000000
00000000
11000000
00000000
00000000
00000000
00010000
01000000
00100000
10000000
01000000
00100000
01000000
00000000
,
00010000
00000000
00101000
00000000
00011000
00000000
00100000
00021000
,
00000000
00000000
00000010
00000000
00030010
00000000
00000000
00000000
00001000
00010000
00000100
00010000
00000100
00001000
00000001
00001000
,
00000010
00000000
00000100
00000000
00001000
00000000
00010000
00000000
00001000
00000000
00100000
00010000
00000000
10000000
01000000
00000000
,
00100000
00000000
00100000
00000000
00001000
00000000
00001000
00000000
00010000
00000000
00000000
00020200
00000000
00000000
00030300
00000000
,
01001000
00000000
00010000
00000000
00100000
00000000
10000000
00000000
00100000
00000000
01000000
00100000
00000000
00010000
00001000
00000000
,
00000100
00000000
00000010
00000000
00000001
00000000
00000000
00000000
00000010
00000100
00000010
00000100
00000001
00001000
00000001
00001000
,
00000100
00000000
00010000
00000000
01000000
00000000
00010000
00000000
00000100
00000000
00001000
00000100
00000000
00001000
00000001
00000000
,
00000010
00000000
00001000
00000000
00010000
00000000
01000000
00000000
00100000
00000000
00010000
10000000
00000000
00000000
00000000
00000000
,
11000000
00000000
10000000
01000000
00000000
01000000
00100000
00000000
00100000
00010000
00000000
00010000
00001000
00000000
00011000
00000000
,
00010100
00000000
00000100
00001000
00000000
00001000
00000001
00000000
00000001
00000010
00000000
00000010
00000100
00000000
00001100
00000000
,
00001001
00000000
00000001
00001000
00000000
00001000
00000010
00000000
00000010
00010000
00000000
00010000
00001000
00000000
00011000
00000000
,
01001000
00000000
01000000
00100000
00000000
00100000
10000000
00000000
10000000
00010000
00000000
00010000
00100000
00000000
01100000
00000000
,
10000000
00000000
01000000
10000000
00100000
00000000
01000000
00000000
00000000
00000000
00010000
00100000
00001000
00000000
00010000
00000010
,
00001000
00000000
00010000
00000100
00001000
00000000
00000100
00000000
00000000
00000000
00000010
00001000
00000010
00001000
00000010
00000100
,
00000001
00000000
00000010
00000001
00001000
00000010
00000100
00000010
00001000
00000000
00010000
00001000
00100000
00010000
10000000
00100000
,
01000000
00000000
10000000
00000000
00010000
00000000
00100000
01000000
00000000
01000000
00100000
00000000
10000000
00100000
01000000
00100000
,
10000000
00010000
00001000
00000000
00000001
00001000
00010000
00000000
,
10000000
00000000
00100000
00000000
01000000
00000000
00010000
00100000
00000000
00100000
00001000
00000000
00010000
00001000
00010000
00000010
,
00001000
00100000
00011000
00000000
00010000
00000010
00011000
00000000
,
00010000
00000000
00000100
00000000
00001000
00000000
00000001
00000010
00000000
00000100
00001000
00000000
00010000
00001000
00100000
00000000
,
01020000
00100000
00031000
00000000
00010200
00001000
00000310
00000000
,
00001000
00000000
00010000
00000000
00001000
00000000
00100000
00010000
00000000
00010000
01000000
00000000
10000000
00000000
01000000
00100000
,
00000000
00100000
00010000
00000000
00001000
00000000
00010000
00000100
00000000
00000100
00001000
00000000
00001100
00000000
00000110
00000000
,
00000002
00000000
00000023
00000000
,
00000230
00000000
00002300
00000000
,
00023000
00000000
00230000
00000000
,
02300000
00000000
23000000
00000000
,
30010000
00000000
00100000
00010000
10000000
00000000
00100000
00000000
00010000
00001000
00100000
00000000
00001000
00010000
00000010
00000000
,
00001000
00000100
00001000
00000100
00000010
00000001
00000010
00000001
00001000
00000010
00000100
00000001
00001000
00000000
00000100
00000000
,
00000101
00000000
00000001
00000100
00000000
00000100
00000010
00000000
00000010
00001000
00000000
00001000
00010000
00000000
00011000
00000000
,
01001000
00000000
01000000
00010000
00000000
00010000
10000000
00000000
10000000
00100000
00000000
00100000
01000000
00000000
01010000
00000000
,
10010000
00000000
10000000
00010000
00000000
00010000
00100000
00000000
00100000
00001000
00000000
00001000
00010000
00000000
00011000
00000000
,
00010100
00000000
00000100
00000010
00000000
00000010
00000001
00000000
00000001
00001000
00000000
00001000
00000010
00000000
00000110
00000000
,
00000001
00000000
00000100
00000001
00000010
00000000
00000100
00000000
00000000
00000000
00001000
00000010
00010000
00000000
00001000
00100000
,
00010000
00000000
00001000
01000000
00010000
00000000
01000000
00000000
00000000
00000000
00100000
00010000
00100000
00010000
00100000
01000000
,
20000000
00000000
30020000
00000000
,
00230000
00000000
00000000
00000000
00000000
00000000
00000000
00000000
10300000
00010000
01000000
00001000
00010000
00000010
00001000
00000001
,
00000200
00000000
00020300
00000000
,
00031000
00000000
00010000
00000000
00001000
00000000
00100000
00010000
00000000
00000000
00000000
00000000
01010000
00000000
00000000
00000000
,
00010000
00100000
10000000
00000000
10000000
01000000
00010000
00000000
,
00001000
00000010
00000001
00000000
00000001
00000100
00001000
00000000
,
00000010
00000001
00000100
00000010
00001000
00000100
00010000
00001000
00100000
00010000
01000000
00100000
10000000
01000000
00100000
00010000
,
10000000
01000000
10000000
01000000
00100000
00000000
00000000
00000000
00010000
01000000
00010000
01000000
00100000
00000000
00000000
00000000
,
00100000
00000000
10000000
00000000
00010000
00000000
01000000
00100000
00000000
10100000
00000000
10000000
01000000
00000000
00100000
00000000
,
00001000
00010000
00011000
00000000
00001000
00000010
00000101
00000000
,
00001000
00000000
00010000
00000000
00100000
00000000
10000000
00100000
00000000
00110000
00000000
00010000
00001000
00000100
00000010
00000000
,
00000001
00000000
00000100
00000010
00001000
00000000
00000100
00000000
00010000
00000000
00001000
00100000
00010000
00000000
00000000
00000000
,
00000010
00000000
00001000
00000000
00000001
00000000
00000100
00000010
00000000
00000100
00000010
00001000
00000100
00000000
00001000
00000000
,
00010000
01000000
10000000
01000000
00010000
00100000
01000000
00000000
,
10000000
00000000
00100000
00000000
01000000
00000000
10000000
00100000
00000000
01000000
00010000
00000000
00100000
00000000
00001000
00010000
,
00000000
00000100
00001000
00000000
00000010
00000000
00000100
00000001
00000000
00001000
00000100
00000000
00010000
00000000
00001000
00000000
,
00100000
00000000
00010000
00100000
00001000
00000000
00100000
01000000
10000000
01000000
10000000
00000000
00100000
00000000
10000000
00000000
,
00100000
10000000
01000000
00000000
00100000
00010000
01000000
00000000
00100000
00001000
00010000
00000000
00000100
00001000
00000010
00000000
,
00000100
00000000
00000001
00000100
00000010
00000000
00001000
00000100
00001000
00000100
00010000
00000000
00001000
00100000
00010000
00100000
,
00001000
00000000
00100000
00010000
10000000
00100000
01000000
00000000
10000000
01000000
00100000
00010000
10000000
00100000
01000000
00010000
,
00100000
00000000
00000000
00000000
01001000
00000000
00000000
00000000
00220000
00330000
00000000
02200000
03300000
00000000
22000000
00000000
,
33000000
00000000
02020000
03030000
00202000
00000000
00303000
00000000
00010100
00000000
00000000
00000000
00001010
00000000
00000000
00000000
,
00001001
00000000
00000000
00000000
00011000
00000000
00000000
00000000
00020020
00030030
00000000
00202000
00303000
00000000
00022000
00000000
,
00033000
00000000
10000000
00000000
01000000
00000000
00010000
00100000
00001000
00010000
00000100
00001000
00000010
00000100
00000001
00000010
,
00000200
00000000
00000000
00000000
,
00000300
00000000
00000000
00000000
;
