#TITLE:PARANOiA Revolution;
#SUBTITLE:;
#ARTIST:CLIMAX of MAXX 360;
#TITLETRANSLIT:;
#SUBTITLETRANSLIT:;
#ARTISTTRANSLIT:;
#GENRE:;
#CREDIT:;
#BANNER:PARANOiA Revolution.png;
#BACKGROUND:PARANOiA Revolution-bg.png;
#LYRICSPATH:;
#CDTITLE:./CDTitles/DanceDanceRevolution X3 VS 2ndMIX.png;
#MUSIC:PARANOiA Revolution.mp3;
#OFFSET:0.630;
#SAMPLESTART:0.690;
#SAMPLELENGTH:15.000;
#SELECTABLE:YES;
#DISPLAYBPM:180.000:360.000;
#BPMS:0.000=360.000
,264.000=180.000
,328.000=360.000
;
#STOPS:390.000=0.167
;
#BGCHANGES:;
#KEYSOUNDS:;
#ATTACKS:;

//---------------dance-single - ----------------
#NOTES:
     dance-single:
     :
     Easy:
     9:
     0.487,0.952,0.309,0.079,0.000,342.000,35.000,9.000,0.000,0.000,0.000,0.487,0.952,0.309,0.079,0.000,342.000,35.000,9.000,0.000,0.000,0.000:
0000
0000
0000
0000
,
0000
0000
0000
0000
,
0000
0000
0000
0000
,
0000
0000
0000
0000
,
0000
0000
0000
0000
,
0000
0000
0000
0000
,
0000
0000
0000
0000
,
0000
0000
0000
0000
,
0000
0000
0000
0000
,
0000
0000
0000
0000
,
0000
0100
0000
0000
,
0100
0000
0000
0100
,
0000
0001
0000
0000
,
0001
0000
0000
0001
,
0000
1000
0000
0000
,
1000
0000
0000
1000
,
0001
0000
1000
0000
,
0001
0000
1000
0000
,
1001
0000
0001
0000
,
0100
0000
1000
0000
,
0010
0000
0100
0000
,
0001
1000
0001
0000
,
0102
0000
1000
0000
,
0100
0000
0013
0000
,
0100
0000
1000
0000
,
0010
0100
0010
0000
,
1010
0000
0001
0000
,
1000
0000
0100
0000
,
0010
0000
0100
0000
,
1000
0001
1000
0000
,
2001
0000
3100
0000
,
1002
0000
0103
0000
,
1200
0000
0001
0000
,
1000
0000
0301
0000
,
0100
0010
0000
0100
,
0001
0000
1000
0001
,
0000
1000
0010
0000
,
0100
0100
0100
0000
,
0001
0100
0000
0010
,
0100
0000
1000
0100
,
0000
0010
0100
0000
,
0001
0001
0001
0000
,
0100
0001
0000
0010
,
0001
0000
1000
0001
,
0000
1000
0100
0000
,
1000
1000
1000
0000
,
0100
1000
0000
0010
,
1000
0000
0001
0100
,
0001
0000
1001
0000
,
1000
0100
0001
0100
,
1000
0000
1001
0000
,
1000
0000
0010
0000
,
0001
0000
0010
0000
,
1000
0100
1000
0000
,
2100
0000
0010
0000
,
0001
0000
3010
0000
,
0100
0000
0010
0000
,
0100
0010
0100
0010
,
1000
1000
0100
0000
,
0110
0000
0010
0000
,
0001
0001
0100
0000
,
0110
0000
0010
0010
,
1000
0001
1000
0000
,
0100
0010
0100
0000
,
0010
1000
0010
1000
,
0001
0100
0001
0100
,
0010
1000
0000
1000
0000
0100
0000
0100
,
0000
0010
0000
0010
0000
0100
0000
0100
,
0010
0001
0000
0001
0000
0100
0000
0100
,
0000
0010
0000
0010
1000
0001
1000
0001
,
1000
0100
0000
0100
0000
1000
0000
0001
,
1000
0001
0000
1000
0000
0001
0000
1000
,
0010
0100
0000
0100
0000
0001
0000
0001
,
0000
0010
0000
0010
0000
0100
0000
0100
,
1000
1000
0000
0001
0000
1000
0000
0001
,
0100
0100
0000
0010
0000
0100
0000
0010
,
1000
1000
0000
0100
0000
0010
0000
0001
,
0010
0010
0000
0001
0000
1000
0000
0001
,
1001
0010
1000
0100
,
1001
0010
0001
0100
,
0010
0100
0010
0100
0001
1000
0001
1000
,
0010
1010
0101
1001
,
0010
0000
0000
0001
,
0000
0000
0100
0000
,
0000
0010
0000
1000
,
0100
0100
0100
0000
,
0010
0000
0000
1000
,
0000
0000
0100
0000
,
0000
0110
0000
0001
,
0100
0100
0100
0000
,
0001
0000
0000
0010
,
0000
0000
0100
0000
,
0000
1000
0000
0100
,
0001
0001
0100
0000
,
1000
0000
0000
0001
,
0000
0000
0110
0000
,
0000
1001
0000
0010
,
0100
0100
0100
1000
,
0000
1100
0000
0001
,
0000
0100
0000
1000
,
0000
0010
0000
0100
,
0001
1000
0000
0102
,
0000
0010
0000
1000
,
0000
0010
0000
0100
,
0000
0013
0000
0001
,
1000
0100
0000
0011
,
0000
1010
0000
1000
,
0000
0010
0000
0001
,
0000
0100
0000
0010
,
1000
0100
0000
1020
,
0000
0100
0000
0001
,
0000
1000
0000
0100
,
0000
0130
0000
0001
,
0100
1000
0100
0001
,
0000
0110
0000
1000
,
0100
0001
0000
0001
,
0000
0100
0000
1001
,
0000
0110
0000
1000
,
0000
1010
0000
1000
,
0010
0001
0000
0010
,
0000
1100
0000
0101
,
0000
1100
0000
1000
,
0001
1000
0001
1000
,
0010
1000
0010
0100
,
0001
0100
0001
1000
,
0001
1000
0001
0010
,
1000
0010
0100
0010
,
0001
0010
0000
1010
,
0000
0011
0000
0010
,
0100
1001
0000
0100
,
0000
0000
2002
0000
,
0000
0000
0000
0000
,
0000
0000
0000
0000
,
0000
0000
0000
0000
,
0000
0000
0000
0000
,
0000
0000
0000
0000
,
0000
0000
0000
0000
,
0000
0000
0000
0000
,
0000
0000
0000
0000
,
0000
0000
0000
0000
,
3003
0000
0000
0000
,
0000
0000
0000
0010
,
0010
0010
0010
0100
,
0100
0100
0100
0010
;

//---------------dance-single - ----------------
#NOTES:
     dance-single:
     :
     Medium:
     14:
     0.700,1.000,0.291,0.106,0.000,510.000,33.000,12.000,0.000,0.000,0.000,0.700,1.000,0.291,0.106,0.000,510.000,33.000,12.000,0.000,0.000,0.000:
0000
0000
0000
0000
,
0000
0000
0000
0000
,
0000
0000
0000
0000
,
0000
0000
0000
0000
,
0000
0000
0000
0000
,
0000
0000
0000
0000
,
0000
0000
0000
0000
,
0000
0000
0000
0000
,
0000
0000
0000
0000
,
0000
0000
0000
0000
,
0000
0000
1001
0000
0000
1000
0000
0000
,
0100
0000
0000
0010
0000
0000
0011
0000
,
0000
0000
1001
0000
0000
1000
0000
0000
,
0001
0000
0000
1000
0000
0000
1100
0000
,
0000
0000
0110
0000
0000
0001
0000
0000
,
1000
0000
0000
0100
0000
0000
0110
0000
,
0010
0001
0010
0100
,
0010
1000
0010
0010
,
0001
0000
0101
0000
,
0001
0100
0010
0000
,
1000
0000
0010
1000
,
0100
0010
0001
1000
,
0001
0000
1100
0000
,
1000
0001
0010
0000
,
0001
0000
0100
0001
,
1000
0000
0010
0000
0100
0000
0010
0100
,
0010
0000
1001
0000
,
0100
1000
0010
0000
,
1000
0000
0001
0010
,
0100
0000
1000
0000
0001
0000
1000
0001
,
0010
0000
0000
0001
0100
0000
0000
1000
,
0100
0000
0000
0001
0010
0000
0000
1000
,
0010
0001
1000
0010
,
1000
0100
1000
0000
0001
0100
0001
0000
,
0100
0100
0010
0100
,
0100
0001
1000
1000
,
0010
1000
1000
0001
,
1000
1000
1100
0010
,
0001
0001
1000
0001
,
0001
0100
0010
0010
,
1000
0010
0010
0100
,
0001
0001
0011
0100
,
1000
1000
0100
0010
,
0010
0001
0100
0100
,
0010
1000
1000
0001
,
0100
0010
0100
0000
0010
0000
0100
0000
,
1000
1000
0100
0001
,
0001
0100
0010
0010
,
1001
0000
1001
0000
,
0010
0000
0100
0010
0100
0000
0010
0000
,
0100
0000
1010
0000
,
1000
0100
0010
0000
,
0001
0000
0010
0001
,
0100
0010
1000
0001
,
0010
0000
0101
0000
,
0001
1000
0010
0000
,
1000
0000
0000
0000
0100
0000
0000
1000
,
0001
0000
0100
0001
0100
0000
0010
0000
,
1000
0001
1001
0000
,
0101
0000
0000
0000
0110
0000
0000
0010
,
1000
0100
0110
0000
,
1010
0000
0000
0000
0101
0000
0000
0010
,
0001
0010
0010
0000
,
1000
0010
0010
0000
,
0001
0100
1000
0100
,
0010
0100
0010
0100
0010
0000
0000
0000
,
1002
1000
0000
0100
0000
0010
0003
0100
,
0020
1000
0000
0100
0000
1000
1030
0000
,
0200
0010
0000
0001
0000
0010
0300
0001
,
2000
0100
0000
3001
0100
0010
0100
0010
,
0200
0000
0010
0000
0000
0010
0310
0000
,
0002
1000
0000
0100
0000
0010
0013
0000
,
0200
1000
0010
0302
,
1000
0023
0100
2030
,
3001
0000
0010
0100
0010
0000
1000
0100
,
0010
0100
0001
0000
0010
0100
0001
0000
,
1000
0000
0010
1000
0100
0000
1000
0001
,
0100
1000
0010
0000
0100
0010
1000
0000
,
0001
0100
0010
1000
0001
0100
0010
1000
,
0001
0100
1000
0001
0100
0010
0001
0010
,
0100
0001
1000
0100
0001
0010
0100
1000
,
1100
0101
1100
0101
,
1000
0100
1000
0100
,
0001
0100
0001
0100
,
1000
0001
1000
0001
,
1000
0100
1000
0100
,
0010
0001
1000
0100
,
0010
0001
0010
1000
,
0010
0001
0100
0001
,
0010
1000
0001
0010
,
0100
0001
1000
0001
,
0100
1000
0010
1000
,
0100
0001
0010
0001
,
0100
1000
0010
1000
,
0100
0001
0010
1000
,
0001
0100
1000
0010
,
0100
0001
1000
1000
,
0100
0000
1001
0010
,
0000
1100
0000
1000
,
0100
0010
0001
1000
,
0100
0010
1000
0100
,
0010
0001
0010
0000
0000
0000
0010
0000
,
0000
0000
0101
0000
0000
0001
1000
0000
,
0100
0010
0001
1000
,
0001
0100
0010
1000
,
0010
0100
0010
0000
0000
0000
0010
0000
,
0000
1001
0000
0100
,
0001
0010
0100
1000
,
0010
0001
0100
0001
,
1000
0010
1000
0000
0100
0000
0100
0000
,
0000
0000
1001
0000
0000
0010
1000
0000
,
0100
0010
0100
1000
,
0010
0000
1000
0000
0001
0010
0100
0000
,
1000
0000
0001
1000
0001
1000
0010
0000
,
0100
0001
0100
0010
,
0100
0001
0100
1000
,
0010
0001
0010
1000
,
0010
0100
0010
0000
0100
0000
0001
0000
,
1000
0010
0100
0001
,
1000
0100
0010
0001
,
0100
0010
0001
0010
,
1000
0100
1000
0000
0100
0000
0010
0000
,
0001
1000
0001
1000
0001
0000
0010
0000
,
0100
1000
0010
0100
,
0010
1000
0010
1000
0010
0000
0100
0000
,
0001
0000
1000
0000
0010
0000
1000
0010
,
1000
0010
1000
0010
1000
0000
0001
0010
,
0001
0010
0001
0010
0001
0000
1000
0100
,
1000
0000
0001
0100
0001
0000
0010
0100
,
0010
0100
0001
1000
0001
0000
1001
0000
,
0000
0000
2002
0000
,
0000
0000
0000
0000
,
0000
0000
0000
0000
,
0000
0000
0000
0000
,
0000
0000
0000
0000
,
0000
0000
0000
0000
,
0000
0000
0000
0000
,
0000
0000
0000
0000
,
0000
0000
0000
0000
,
0000
0000
0000
0000
,
3003
0000
0000
0000
,
0000
0000
0000
0000
0000
0000
0001
1000
,
0001
1000
0001
1000
0001
1000
0010
0100
,
0010
0100
0010
0100
0010
0100
0001
0000
;

//---------------dance-single - ----------------
#NOTES:
     dance-single:
     :
     Hard:
     18:
     0.960,1.000,0.521,0.203,0.062,679.000,59.000,23.000,0.000,0.000,0.000,0.960,1.000,0.521,0.203,0.062,679.000,59.000,23.000,0.000,0.000,0.000:
0000
0000
0000
0000
,
0000
0000
0000
0000
,
0000
0000
0000
0000
,
0000
0000
0000
0000
,
0000
0000
0000
0000
,
0000
0000
0000
0000
,
0000
0000
0000
0000
,
0000
0000
0000
0000
,
0000
0000
0000
0000
,
0000
0000
0000
0000
,
0000
0000
0011
0000
0000
1001
0000
0000
,
1100
0000
0000
1001
0000
0000
0011
0000
,
0000
0000
1100
0000
0000
1001
0000
0000
,
0011
0000
0000
1001
0000
0000
1100
0000
,
0000
0000
0011
0000
0000
1001
0000
0000
,
1100
0000
0000
1001
0000
0000
0011
0000
,
0010
0000
0001
0100
0002
0000
1003
0010
,
2000
0000
3001
0100
0002
0000
1003
0100
,
1000
0100
1000
0010
,
1000
0100
1000
0010
,
0100
0001
0010
0001
,
0100
0001
0010
0001
,
0100
0010
1000
0001
,
0100
0010
2002
3003
,
0010
1000
0010
1000
,
0001
0000
0100
0000
0001
0100
0001
0000
,
0001
0100
0001
0000
0100
0001
0010
0100
,
1000
0100
2200
3300
,
1000
0100
1000
0000
0100
1000
0100
0010
,
0001
0010
0001
0010
,
0001
0000
1000
0100
0001
0000
0001
0100
,
0010
0000
0001
0100
1000
0000
1000
0100
,
0001
0000
0001
0100
1000
0000
1000
0100
,
0010
0000
0001
0010
1000
0000
0000
0000
,
0001
0100
0001
0100
0001
0000
1000
0100
,
1000
0100
1000
0000
0010
0100
0010
0100
,
0010
0000
1000
0001
1000
0001
1000
0000
,
0001
0100
0001
0010
0001
0000
0000
0000
,
1000
0100
1000
0010
1000
0000
0010
0100
,
0010
1000
0001
0000
1000
0001
1000
0010
,
0100
0000
0001
0010
0100
1000
0001
0000
,
1000
0100
1000
0010
1000
0000
0000
0000
,
0001
0100
0001
0100
0010
0000
0100
0010
,
1000
0010
0001
0000
0010
0100
0010
1000
,
0100
0000
0010
0001
0100
1000
0100
0000
,
1000
0100
0001
0100
1000
0000
0000
0000
,
0100
0001
0010
0100
1000
0000
1000
0010
,
0100
0010
1000
0000
0001
0100
1000
0100
,
0010
0000
1000
0100
0010
0100
0001
0100
,
0001
0100
0010
0100
1000
0010
0100
1000
,
0100
0000
1001
0010
,
1000
0101
1000
0100
,
0011
0100
0001
1010
,
0001
1000
0110
0001
,
0010
0101
1000
0010
,
0100
1001
0001
0010
,
1100
0010
1000
0101
,
0010
0100
1001
0100
,
0001
0000
0010
0000
0100
0000
1000
0100
,
1000
0010
0100
0000
,
1000
0000
0010
0000
0100
0000
0001
0010
,
0001
0010
0100
1000
,
0001
0100
0001
0000
0010
0000
0100
1000
,
0100
0000
1000
0000
0010
0100
0010
0000
,
0100
0001
1000
0000
0100
0010
0001
0100
,
0010
1000
0100
0010
0001
0100
0010
0000
,
0001
0010
1000
0000
0100
0000
0001
0000
,
1000
0100
0001
0000
0100
1000
0010
0000
,
0010
0001
1000
0100
0010
0001
0010
1000
,
0010
0001
0100
0001
0010
1000
0001
0010
,
0100
1000
0010
0001
0010
1000
0100
0001
,
0100
1000
0100
0010
0001
0100
0010
0000
,
0001
0100
1000
0010
0001
0000
1010
0000
,
0001
0010
1000
0010
0100
0000
1001
0000
,
0010
0010
0010
0010
0010
0010
0010
0010
,
0010
0010
0010
0010
0010
0010
0000
0000
,
1000
0100
1000
0100
0001
0100
0001
0100
,
0010
0001
1000
0100
0000
1000
0010
0100
,
0100
1000
0100
0010
1000
0001
0010
0100
,
0001
0100
1000
0010
0100
0001
1000
0100
,
0001
0010
1000
0100
0010
0001
0100
1000
0100
0001
0010
0100
1000
0001
0010
1000
,
0010
0001
0100
0001
0010
1000
0010
0001
0100
1000
0100
0001
0010
0000
0000
0000
,
0001
0100
1000
0100
0010
0000
0100
0001
,
0010
0001
0010
0001
,
0100
0000
0001
0010
1000
0010
0100
0000
,
0010
0001
0100
0000
0001
0000
0100
0000
,
0001
0100
1000
0100
0001
0000
1000
0001
,
0100
0001
1000
0010
,
0100
0000
0001
0100
1000
0000
0010
0000
,
0001
0011
0000
0110
,
0010
0001
0100
0010
0200
0000
0310
1000
,
0100
0010
0200
0000
0301
0000
0100
0010
,
1000
0000
0010
0100
2000
0000
3001
0100
,
1000
0000
0001
0010
1000
0000
0001
0000
,
0010
1000
0100
0010
0200
0000
0310
0001
,
0100
0010
0200
0000
1300
0000
0100
0010
,
0001
0000
0010
0100
0002
0000
1003
0100
,
0001
0000
1000
0010
0002
0003
1000
0000
,
0010
0100
0001
1000
,
0100
0010
0001
1000
,
0010
0100
0001
0010
,
0001
0000
0000
1000
0000
1000
0010
0000
,
0100
0000
0001
0100
0001
0000
0010
0000
,
0100
0000
1000
0100
1000
0000
0001
0000
,
1000
0000
0010
0100
0010
0000
0100
0000
,
0001
1000
0000
1000
0001
0000
0001
0000
,
0120
0000
2030
0000
3001
0010
0000
2000
,
0100
3010
0001
1000
,
0120
0000
0032
0000
1003
0010
0000
0002
,
0100
0013
1000
1010
,
0100
0000
0010
0001
0100
0000
0001
0000
,
1100
0000
1000
0000
0101
0000
0010
0100
,
0010
1000
0001
1000
,
0101
0000
0001
0000
1000
0100
1000
0000
,
1100
0100
0101
0001
,
1001
0011
1001
1010
,
1001
1100
1001
1000
,
0110
0101
0110
0001
,
0110
1100
0110
1000
,
0011
1001
0101
0010
,
1100
1001
1010
0100
,
1000
0001
0100
0010
1000
0000
0001
1000
,
0001
1000
0001
0010
1000
0010
0001
0010
,
0100
1000
0010
0001
0010
0100
0010
1000
,
0001
0010
0100
0000
1000
0000
0010
0000
,
0001
0000
0010
0000
1000
0000
0100
0001
,
0100
1000
0100
0010
0001
0100
0010
1000
,
0001
0010
0100
1000
0001
0010
0100
0001
,
0100
1000
0010
0100
0001
0010
1000
0010
,
0001
1000
0010
0100
0001
1000
0010
0000
,
0000
0000
2002
0000
,
0000
0000
0000
0000
,
0000
0000
0000
0000
,
0000
0000
0000
0000
,
0000
0000
0000
0000
,
0000
0000
0000
0000
,
0000
0000
0000
0000
,
0000
0000
0000
0000
,
0000
0000
0000
0000
,
0000
0000
0000
0000
,
3003
0000
0000
0000
,
0000
0000
0000
0000
0000
0000
0001
0010
,
0001
0010
1000
0010
1000
0100
1000
0100
,
1000
0010
0100
0001
1000
0100
0020
0000
,
0000
0000
0000
0030
;

//---------------dance-double - ----------------
#NOTES:
     dance-double:
     :
     Easy:
     10:
     0.426,0.635,0.212,0.097,0.000,303.000,24.000,11.000,0.000,0.000,0.000,0.426,0.635,0.212,0.097,0.000,303.000,24.000,11.000,0.000,0.000,0.000:
00000000
00000000
00000000
00000000
,
00000000
00000000
00000000
00000000
,
00000000
00000000
00000000
00000000
,
00000000
00000000
00000000
00000000
,
00000000
00000000
00000000
00000000
,
00000000
00000000
00000000
00000000
,
00000000
00000000
00000000
00000000
,
00000000
00000000
00000000
00000000
,
00000000
00000000
00000000
00000000
,
00000000
00000000
00000000
00000000
,
00000000
00000100
00000000
00000000
,
00000100
00000000
00000000
00000100
,
00000000
00010000
00000000
00000000
,
00010000
00000000
00000000
00010000
,
00000000
00100000
00000000
00000000
,
00100000
00000000
00000000
00100000
,
10000000
00000000
01000000
00000000
,
00100000
00000000
00010000
00000000
,
00011000
00000000
00001000
00000000
,
00010000
00000000
00001000
00000000
,
00000100
00000000
00001000
00000000
,
00010000
00001000
00000100
00000000
,
00000010
00000000
00000001
00000000
,
00000010
00000000
00001000
00000000
,
00000010
00000000
00000001
00000000
,
00000010
00000100
00000010
00000000
,
00000100
00000000
00001000
00000000
,
00010000
00000000
00001000
00000000
,
00011000
00000000
00001000
00000000
,
00010000
00000000
00100000
00000000
,
01100000
00000000
10010000
00000000
,
01100000
00000000
10010000
00000000
,
10000000
01000000
00010000
00000000
,
00001000
00000100
00000001
00000000
,
00000001
00000010
00000000
00000010
,
00001000
00000000
00001000
00010000
,
00000000
00010000
00100000
00000000
,
00100000
00010000
00001000
00000000
,
00001000
00010000
00000000
00010000
,
01000000
00000000
01000000
10000000
,
00000000
10000000
00100000
00000000
,
01000000
01000000
01000000
00000000
,
00100000
00010000
00000000
00010000
,
00001000
00000000
00001000
00000100
,
00000000
00000100
00000001
00000000
,
00000100
00001000
00010000
00000000
,
00010000
00001000
00000000
00001000
,
00000010
00000000
00000010
00000001
,
00001000
00000000
00000100
00000000
,
00010000
00001000
00010000
00001000
,
00010000
00000000
00001000
00000000
,
00100000
00000000
00010000
00000000
,
10000000
00000000
00100000
00000000
,
01000000
00000000
00100000
00000000
,
11000000
00000000
01010000
00000000
,
11000000
00000000
00110000
00000000
,
01000000
00000000
00010000
00000000
,
00001000
00000000
00010000
00001000
,
00010000
00000100
00001000
00000000
,
00000100
00000000
00000010
00000000
,
00000001
00000100
00000001
00000000
,
00000100
00000000
00000010
00000000
,
00001000
00000100
00001000
00000000
,
00010000
00000000
00001000
00000000
,
00010000
00001000
00010000
00000000
,
00022000
00000000
00033000
00000000
,
00200000
00010000
00000000
00010000
,
00000000
00010000
01000000
00310000
,
20000000
01000000
00000000
01000000
,
00000000
00100000
01000000
30100000
,
00020000
01000000
00000000
01030000
,
00200000
00010000
00000000
00310000
,
00001000
00010000
00001000
00010000
,
00000010
00000000
00000100
00000000
,
00000002
00000010
00000100
00000010
,
00000100
00000010
00000000
00000103
,
00002000
00000010
00000100
00003010
,
00020000
00000100
00001000
00030100
,
00001000
00001000
00001000
00001000
,
00010000
00010000
00010000
00010000
,
01100000
00000000
00011000
00000000
,
00000110
00000100
00001000
00011000
,
00100000
00000000
00000000
10000000
,
00000000
00000000
01000000
00000000
,
00000000
10000000
00000000
01000000
,
00010000
00001000
00000100
00000000
,
00000010
00000000
00000000
00000001
,
00000000
00000000
00000100
00000000
,
00000000
00000001
00000000
00000100
,
00001000
00010000
01000000
00000000
,
00100000
00000000
00000000
10000000
,
00000000
00000000
01000000
00000000
,
00000000
10000000
00000000
01000000
,
00010000
00001000
00000100
00000000
,
00000010
00000000
00000000
00000001
,
00000000
00000000
00000100
00000000
,
00000000
00000001
00000000
00000100
,
00001000
00010000
01000000
00100000
,
00000000
10000000
00000000
01000000
,
00000000
00010000
00000000
00001000
,
00000000
00010000
00000000
00100000
,
00000000
01000000
00010000
01000000
,
00000000
00100000
00000000
10000000
,
00000000
01000000
00000000
00010000
,
00000000
00001000
00000000
00000010
,
00000000
00000001
00001000
00000010
,
00000000
00001000
00000000
00000001
,
00000000
00000100
00000000
00000010
,
00000000
00001000
00000000
00000010
,
00000000
00000001
00000000
00000100
,
00000000
00000010
00000000
00010000
,
00000000
00001000
00000000
00010000
,
00000000
00100000
00000000
00010000
,
10000000
00010000
00000000
10000000
,
01000000
00010000
00000000
00001000
,
00000000
00000100
00000000
00000010
,
00000000
00001100
00000000
00000001
,
00000000
00000100
00000000
00000001
,
00000100
00001000
00000000
00010000
,
00000000
00100000
00000000
01000000
,
00000000
11000000
00000000
01010000
,
00000000
10010000
00000000
10000000
,
00100000
01000000
00000000
00010000
,
00100000
01000000
00000000
00100000
,
00001000
00010000
00000000
00000010
,
00010000
00001000
00000000
00010000
,
00000100
00001000
00000100
00000010
,
00000001
00000100
00000010
00001000
,
00000000
00000101
00000000
00001010
,
00000000
00010100
00000000
00011000
,
00000000
00000000
00022000
00000000
,
00000000
00000000
00000000
00000000
,
00000000
00000000
00000000
00000000
,
00000000
00000000
00000000
00000000
,
00000000
00000000
00000000
00000000
,
00000000
00000000
00000000
00000000
,
00000000
00000000
00000000
00000000
,
00000000
00000000
00000000
00000000
,
00000000
00000000
00000000
00000000
,
00000000
00000000
00000000
00000000
,
00033000
00000000
00000000
00000000
,
00000000
00000000
00000000
00001000
,
00001000
00010000
00010000
01000000
,
01000000
10000000
10000000
00010000
;

//---------------dance-double - ----------------
#NOTES:
     dance-double:
     :
     Medium:
     14:
     0.666,1.000,0.238,0.159,0.009,483.000,27.000,18.000,0.000,0.000,0.000,0.666,1.000,0.238,0.159,0.009,483.000,27.000,18.000,0.000,0.000,0.000:
00000000
00000000
00000000
00000000
,
00000000
00000000
00000000
00000000
,
00000000
00000000
00000000
00000000
,
00000000
00000000
00000000
00000000
,
00000000
00000000
00000000
00000000
,
00000000
00000000
00000000
00000000
,
00000000
00000000
00000000
00000000
,
00000000
00000000
00000000
00000000
,
00000000
00000000
00000000
00000000
,
00000000
00000000
00000000
00000000
,
00000000
00000000
00010000
00000000
00000000
00001000
00000000
00000000
,
00000100
00000000
00000000
00000010
00000000
00000000
00000101
00000000
,
00000000
00000000
00000010
00000000
00000000
00001000
00000000
00000000
,
00010000
00000000
00000000
01000000
00000000
00000000
01100000
00000000
,
00000000
00000000
10000000
00000000
00000000
00100000
00000000
00000000
,
00010000
00000000
00000000
00001000
00000000
00000000
00011000
00000000
,
00010000
00000010
00001000
00000010
,
00000100
00000010
00000001
00000010
,
00000100
00000000
00001001
00000000
,
00001000
00000100
00000010
00000000
,
00000001
00000000
00000100
00000000
,
00001000
00010000
00100000
01000000
,
00010000
00000000
10000000
00000000
,
01000000
00100000
00010000
00000000
,
10000000
00000000
00010000
01000000
,
10000000
00000000
01000000
00000000
00010000
00000000
10000000
00010000
,
10000000
00000000
10010000
00000000
,
10000000
01000000
00010000
00000000
,
00001000
00000000
00010000
00000100
,
00001000
00000000
00000100
00000000
00000010
00000000
00000001
00001000
,
00000001
00000000
00000000
00000001
00000010
00000000
00000000
00000010
,
00001000
00000000
00000000
00001000
00010000
00000000
00000000
00010000
,
00100000
00010000
00001000
00000100
,
00001000
00010000
00001000
00010000
00001000
00010000
00001000
00000000
,
00100000
00100000
00001000
00100000
,
00100000
00010000
00100000
00100000
,
01000000
00100000
00100000
10000000
,
00100000
00100000
00010000
00001000
,
00000010
00000010
00010000
00000010
,
00000010
00001000
00000010
00000010
,
00000100
00000010
00000010
00000001
,
00000010
00000010
00001001
00000010
,
00000100
00000100
00001000
00010000
,
00010000
00100000
10000000
10000000
,
00010000
00100000
00100000
00001000
,
00000010
00000010
00000001
00000100
,
00001000
00001000
00010000
01000000
,
01000000
10000000
00010000
00010000
,
01100000
00000000
00011000
00000000
,
00000010
00000000
00000100
00000010
00000100
00000000
00000010
00000000
,
00000100
00000000
00001001
00000000
,
00000001
00000100
00000010
00000000
,
00001000
00000000
00000000
00000000
00000100
00000000
00000000
00010000
,
00001000
00100000
00010000
10000000
,
01000000
00000000
00100000
00000000
,
00010000
10000000
01000000
00000000
,
00010000
00000000
00000000
00000000
00001000
00000000
00000000
00010000
,
00000100
00000000
00001000
00000100
00001000
00000000
00000010
00000000
,
00000100
00000010
00000110
00000000
,
00001001
00000000
00000110
00000000
,
00001000
00010000
00011000
00000000
,
00010010
00000000
00101000
00000000
,
00010100
00010000
00011000
00000000
,
00101000
00001000
00011000
00000000
,
00100000
00010000
10000000
00010000
,
01000000
00000000
00010000
10000000
00010000
00000000
00100000
00000000
,
01000000
10000000
00000000
10000000
00000000
01000000
00000000
00100000
,
00100000
00000000
00010000
00000000
00000000
00000000
00100000
00000000
00000000
00000000
00001000
00010000
00001000
00000000
00000000
00000000
,
00001000
00001000
00000000
00000100
00000000
00000010
00000000
00000001
,
00000001
00000000
00000010
00000000
00000000
00000000
00000100
00000000
00000001
00000000
00000001
00000100
00000001
00000000
00000100
00000000
,
00002000
00000000
00010000
00010000
00000000
00000100
00000100
00000000
,
00010000
00010000
00000000
00000100
00000100
00000000
00013000
00000000
,
00020000
00100000
00001000
00100000
,
00032000
00000010
00010000
00000000
,
00023000
01000000
00032000
00003200
,
00000302
00000000
00002003
00000000
00023000
00000000
00130000
00100000
,
02000000
23000000
30020000
00230000
,
00302000
00003200
00000302
00000013
,
00000001
00001000
00000100
00000010
00000100
00001000
00000001
00000100
,
00000010
00000100
00000001
00000010
00001000
00010000
00001000
00000100
,
00001000
00010000
01000000
00010000
01000000
10000000
00010000
01000000
,
00100000
01000000
00010000
10000000
01000000
00000000
10010000
00000000
,
10000000
01000000
00010000
00000000
,
00001000
00000100
00000001
00000000
,
00000001
00001000
00000100
00000000
,
00000010
00001000
00000100
00000000
,
00000001
00000100
00001000
00000000
,
00010000
01000000
10000000
00000000
,
10000000
00010000
01000000
00000000
,
00100000
00010000
01000000
00000000
,
00010000
10000000
01000000
00000000
,
00100000
00010000
01000000
00000000
,
10000000
00000000
01000000
00000000
,
00010000
00001000
00000100
00000000
,
00000001
00001000
00000100
00000000
,
00000010
00001000
00000100
00000000
,
00000001
00000000
00000100
00000000
,
00001000
00010000
01000000
00100000
,
00000000
10010000
00000000
10000000
,
00100000
00000000
00010000
00000000
00000000
00001000
00010000
00000000
,
00000100
00001000
00000010
00000100
,
00000001
00000100
00000001
00000000
00000000
00000000
00000010
00000000
,
00000000
00001001
00000000
00000010
,
00000100
00000000
00001000
00000000
00000000
00000001
00000100
00000000
,
00001000
00010000
00001000
00010000
,
00100000
01000000
00100000
00000000
00000000
00000000
01000000
00000000
,
00000000
10010000
00000000
00010000
,
00100000
00000000
00001000
00000000
00000000
00100000
00010000
00000000
,
10000000
00100000
01000000
00010000
,
00100000
00010000
00100000
00000000
00001000
00000000
00011000
00000000
,
00010000
00011000
00000000
00001000
,
00000100
00000000
00000010
00000000
00000000
00000010
00001000
00000000
,
00000010
00000000
00000100
00000000
00000001
00001000
00000001
00000000
,
00000100
00000000
00000010
00001000
00000010
00001000
00000100
00000000
,
00000010
00000001
00000100
00001000
,
00010000
00100000
01000000
00100000
,
00010000
00001000
01000000
00100000
,
10000000
00010000
10000000
00000000
01000000
00000000
00100000
00000000
,
00001000
00010000
00001000
00000100
,
00000010
00001000
00000001
00000010
,
00000100
00010000
00000010
00000100
,
00001000
00010000
00001000
00000000
00010000
00000000
00001000
00000000
,
00010000
00000000
00000010
00001000
00000100
00000000
00000010
00000000
,
00000001
00000100
00001000
00010000
,
00001000
00000000
00100000
00010000
01000000
00000000
00100000
00000000
,
10000000
00000000
01000000
00000000
00010000
00000000
00000100
00001000
,
00000100
00000000
00000010
00000001
00000010
00000000
00000001
00001000
,
00000001
00000000
00000100
00001000
00000100
00000000
00010000
00001000
,
00010000
00000000
00100000
00010000
00100000
00000000
00010000
10000000
,
00010000
10000000
00010000
10000000
00010000
00000000
10010000
00000000
,
00000000
00000000
00022000
00000000
,
00000000
00000000
00000000
00000000
,
00000000
00000000
00000000
00000000
,
00000000
00000000
00000000
00000000
,
00000000
00000000
00000000
00000000
,
00000000
00000000
00000000
00000000
,
00000000
00000000
00000000
00000000
,
00000000
00000000
00000000
00000000
,
00000000
00000000
00000000
00000000
,
00000000
00000000
00000000
00000000
,
00033000
00000000
00000000
00000000
,
00000000
00000000
00000000
00000000
00000000
00000000
00001000
00010000
,
00001000
00010000
00000010
00010000
00000010
00010000
00001000
00010000
,
00001000
00010000
00001000
00100000
00001000
00100000
00010000
00000000
;

//---------------dance-single - PARA Revo----------------
#NOTES:
     dance-single:
     PARA Revo:
     Edit:
     19:
     1.000,1.000,0.653,0.185,0.172,730.000,74.000,21.000,0.000,0.000,0.000,1.000,1.000,0.653,0.185,0.172,730.000,74.000,21.000,0.000,0.000,0.000: // measure 0
0000
0000
0000
0000
,  // measure 1
0000
0000
0000
0000
,  // measure 2
0000
0000
0000
0000
,  // measure 3
0000
0000
0000
0000
,  // measure 4
0000
0000
0000
0000
,  // measure 5
0000
0000
0000
0000
,  // measure 6
0000
0000
0000
0000
,  // measure 7
0000
0000
0000
0000
,  // measure 8
0000
0000
0000
0000
,  // measure 9
0000
0000
0000
0000
,  // measure 10
0000
0000
0011
0000
0000
0101
0000
0000
,  // measure 11
1100
0000
0000
1010
0000
0000
0110
0000
,  // measure 12
0000
0000
1010
0000
0000
1100
0000
0000
,  // measure 13
0101
0000
0000
0011
0000
0000
0110
0010
,  // measure 14
0000
0000
0101
0000
0000
0011
0000
0000
,  // measure 15
1010
0000
0000
1100
0000
0000
0110
0000
,  // measure 16
1000
0010
0001
0010
1000
0100
0001
0100
,  // measure 17
1000
0010
0001
0010
1000
0100
0001
0100
,  // measure 18
1000
0000
1100
0100
,  // measure 19
0100
0100
0010
0010
,  // measure 20
0010
0010
0001
0001
,  // measure 21
0001
0001
1000
1000
,  // measure 22
0001
0001
0110
1000
,  // measure 23
0100
0010
1001
0100
,  // measure 24
0001
1000
0110
1000
,  // measure 25
0110
0000
0001
0000
1000
0100
0010
0000
,  // measure 26
0001
0100
0001
0000
0100
0001
0010
0100
,  // measure 27
1000
0100
2200
3300
,  // measure 28
1000
0100
1000
0000
0100
1000
0100
0010
,  // measure 29
0001
0010
0001
0010
,  // measure 30
0001
1000
0000
0010
0100
0001
0000
1000
,  // measure 31
0100
0010
0000
0001
1000
0010
0000
0100
,  // measure 32
0001
0010
0001
0100
0010
1000
0100
0001
,  // measure 33
0100
1000
0010
0100
0010
1000
0100
0010
,  // measure 34
0100
0001
0100
1000
0100
0000
0010
0001
,  // measure 35
0010
1000
0010
0000
0100
1000
0100
0001
,  // measure 36
0100
0000
1000
0100
0001
0100
1000
0000
,  // measure 37
0001
0100
1000
0100
0001
0000
0001
0100
,  // measure 38
1000
0100
0001
0100
1000
0000
0001
0100
,  // measure 39
1000
0100
0001
0000
1000
0010
0001
0010
,  // measure 40
1000
0000
0001
0010
1000
0010
0001
0000
,  // measure 41
1000
0010
0001
0010
1000
0000
0100
0010
,  // measure 42
0001
0100
0001
0100
0010
0000
0100
0010
,  // measure 43
1000
0010
0001
0000
0010
0100
0010
1000
,  // measure 44
0100
0000
0010
0001
0100
1000
0100
0000
,  // measure 45
1000
0100
0001
0100
1000
0000
0100
0001
,  // measure 46
0100
0001
0010
0100
1000
0000
1000
0010
,  // measure 47
0100
0010
1000
0000
0001
0100
1000
0100
,  // measure 48
0010
0100
1000
0100
0010
0100
0001
0100
,  // measure 49
0001
0100
0010
0100
1000
0010
0100
1000
,  // measure 50
0100
0000
1000
1000
,  // measure 51
0100
0100
0010
0010
,  // measure 52
0001
0001
1000
0010
,  // measure 53
1000
0010
0100
0001
,  // measure 54
0010
0100
0001
0100
,  // measure 55
0001
0100
0010
0001
,  // measure 56
0100
1000
0100
1000
0100
0010
0100
0010
,  // measure 57
0001
1000
0001
1000
0010
0100
0010
0100
,  // measure 58
1001
0001
0010
0110
,  // measure 59
1000
0100
0010
0001
1000
0100
0001
0000
,  // measure 60
1001
0001
0100
0110
,  // measure 61
0001
0010
0100
1000
0001
0100
1000
0000
,  // measure 62
0100
0000
0001
1000
0100
0010
0000
0010
,  // measure 63
0100
0000
1000
0001
0100
0010
0000
0010
,  // measure 64
1000
0001
0100
1000
0100
0010
1000
0100
,  // measure 65
0010
0001
1000
0100
0001
0100
0010
0000
,  // measure 66
1100
0000
0001
0000
0100
0001
1000
0000
,  // measure 67
0010
0000
0100
1000
0001
0100
1000
0000
,  // measure 68
0101
0000
1000
0000
0100
1000
0001
0000
,  // measure 69
0010
0000
0100
0001
1000
0100
0001
0000
,  // measure 70
0010
0000
0010
0000
1001
0000
0001
0100
,  // measure 71
0010
1010
0101
0000
,  // measure 72
0010
0001
0001
0001
0010
0001
0001
0000
,  // measure 73
0010
1000
1000
1000
0010
1000
1000
0000
,  // measure 74
0110
0000
1000
0010
0000
1000
0010
1000
0001
0000
0100
0001
0000
0100
0001
0100
,  // measure 75
0010
0000
0100
0010
0000
1000
0010
0100
0001
0000
1000
0001
0000
0010
0001
1000
,  // measure 76
0100
0000
0010
0100
0000
0010
0001
0100
0010
0000
1000
0010
0000
0100
0001
0100
,  // measure 77
1000
0000
0100
0010
0000
1000
0010
0001
0010
0000
0100
0010
0000
1000
0001
0100
,  // measure 78
1010
1010
1100
1100
0101
0101
0011
0011
,  // measure 79
0110
1010
1001
1100
0110
0101
1001
0011
,  // measure 80
1000
0100
0001
1000
0001
1000
0010
0001
0010
1000
0001
1000
0001
0100
1000
0001
,  // measure 81
0100
1000
0001
1000
0001
0010
1000
0010
0001
1000
0001
1000
0100
0001
1000
0000
,  // measure 82
0010
0001
0100
0000
0010
0000
1000
0100
,  // measure 83
1000
0000
0100
0000
0010
0001
0100
0000
,  // measure 84
0001
0000
1000
0100
1000
0000
1000
0001
,  // measure 85
0010
0000
0100
0000
0010
0100
1000
0000
,  // measure 86
0001
0010
0100
0000
0001
0000
0100
1000
,  // measure 87
0010
0000
0100
0000
0010
1000
0100
0000
,  // measure 88
0001
0000
0100
1000
0010
0000
0100
0001
,  // measure 89
0010
0100
1000
0001
,  // measure 90
0010
0001
0100
0010
0200
0000
0310
1000
,  // measure 91
0100
0010
0200
0000
0301
0000
0100
0010
,  // measure 92
1000
0000
0010
0100
2000
0000
3001
0100
,  // measure 93
1000
0000
0001
0010
1000
0000
0001
0000
,  // measure 94
0010
1000
0100
0010
0200
0000
0310
0001
,  // measure 95
0100
0010
0200
0000
1300
0000
0100
0010
,  // measure 96
0001
0000
0010
0100
0002
0000
1003
0100
,  // measure 97
0001
0000
1000
0010
0002
0003
1000
0000
,  // measure 98
0010
0100
0001
1000
,  // measure 99
0100
0010
0001
1000
,  // measure 100
0010
0100
0001
0010
,  // measure 101
0001
0000
0000
1000
0000
1000
0010
0000
,  // measure 102
0100
0000
0001
0100
0001
0000
0010
0000
,  // measure 103
0100
0000
1000
0100
1000
0000
0001
0000
,  // measure 104
1000
0000
0010
0100
0010
0000
0100
0000
,  // measure 105
0001
1000
0000
1000
0001
0000
1020
0000
,  // measure 106
0001
0000
1030
0010
0100
0001
0000
1000
,  // measure 107
0100
0010
0001
0000
1001
0000
0201
0000
,  // measure 108
1000
0000
0301
0100
0010
1000
0000
0001
,  // measure 109
0010
0100
1000
0000
1001
0000
0200
0010
,  // measure 110
0300
2000
0100
3000
0010
0000
0002
0100
,  // measure 111
0003
0020
1000
0030
0100
0000
0020
0001
,  // measure 112
0030
0200
0010
0300
1000
0000
0100
0000
,  // measure 113
1000
0000
0001
1000
0200
0000
1300
0000
,  // measure 114
1100
0100
0101
0001
,  // measure 115
1001
0011
1001
1010
,  // measure 116
1001
1100
1001
1000
,  // measure 117
0110
0101
0110
0001
,  // measure 118
0110
1100
0110
1000
,  // measure 119
0011
1001
0101
0010
,  // measure 120
1100
1001
1010
0100
,  // measure 121
1000
0001
0100
0010
1000
0000
0001
1000
,  // measure 122
0001
1000
0001
0010
1000
0010
0001
0010
,  // measure 123
0100
1000
0010
0001
0010
0100
0010
1000
,  // measure 124
0001
0010
0100
0000
1000
0000
0010
0000
,  // measure 125
0001
0000
0010
0000
1000
0000
0100
0001
,  // measure 126
0100
1000
0100
0010
0001
0100
0010
1000
,  // measure 127
0001
0010
0100
1000
0001
0010
0100
0001
,  // measure 128
0100
1000
0010
0100
0001
0010
1000
0010
,  // measure 129
0001
1000
0010
0100
0001
1000
0010
0000
,  // measure 130
0000
0000
2002
0000
,  // measure 131
0000
0000
0000
0000
,  // measure 132
0000
0000
0000
0000
,  // measure 133
0000
0000
0000
0000
,  // measure 134
0000
0000
0000
0000
,  // measure 135
0000
0000
0000
0000
,  // measure 136
0000
0000
0000
0000
,  // measure 137
0000
0000
0000
0000
,  // measure 138
0000
0000
0000
0000
,  // measure 139
0000
0000
0000
0000
,  // measure 140
3003
0000
0000
0000
,  // measure 141
0000
0000
0000
0000
0000
0000
1000
0100
,  // measure 142
0001
0010
1000
0001
0100
1100
0010
1000
,  // measure 143
0100
0001
0100
1000
0010
0001
0020
0000
,  // measure 144
0000
0000
0000
0030
;

//---------------dance-double - ----------------
#NOTES:
     dance-double:
     :
     Hard:
     18:
     0.883,1.000,0.185,0.185,0.044,658.000,21.000,21.000,0.000,0.000,0.000,0.883,1.000,0.185,0.185,0.044,658.000,21.000,21.000,0.000,0.000,0.000:
00000000
00000000
00000000
00000000
,
00000000
00000000
00000000
00000000
,
00000000
00000000
00000000
00000000
,
00000000
00000000
00000000
00000000
,
00000000
00000000
00000000
00000000
,
00000000
00000000
00000000
00000000
,
00000000
00000000
00000000
00000000
,
00000000
00000000
00000000
00000000
,
00000000
00000000
00000000
00000000
,
00000000
00000000
00000000
00000000
,
00000000
00000000
10100000
00000000
00000000
10010000
00000000
00000000
,
11000000
00000000
00000000
01100000
00000000
00000000
00101000
00000000
,
00000000
00000000
00011000
00000000
00000000
00010100
00000000
00000000
,
00001100
00000000
00000000
00000110
00000000
00000000
00000011
00000000
,
00000000
00000000
00000101
00000000
00000000
00001001
00000000
00000000
,
00000011
00000000
00000000
00000110
00000000
00000000
00010100
00000000
,
00100000
00000000
00010000
00100000
00020000
00000000
10030000
00100000
,
20000000
00000000
30010000
01000000
00020000
00000000
10030000
00000000
,
00100000
10000000
00100000
01000000
,
00001000
01000000
00001000
01000000
,
00001000
00010000
00001000
00010000
,
00000100
00010000
00000100
00010000
,
00001000
00010000
00100000
00010000
,
00001000
00010000
00022000
00033000
,
00100000
10000000
00010000
01000000
,
00100000
00000000
10000000
00000000
00010000
01000000
00010000
01000000
,
00001000
00010000
00000100
00000000
00001000
00000001
00000010
00000001
,
00000100
00000001
00000202
00000303
,
00000001
00000100
00000010
00000000
00001000
00000100
00010000
00000000
,
00001000
00010000
00001000
00000000
00010000
00000000
01000000
00000000
,
00100000
00000000
10000000
01000000
00010000
00000000
00001000
00000010
,
00000001
00000000
00000001
00000100
00001000
00000000
00010000
00100000
,
10000000
00000000
10000000
01000000
00010000
00000000
00001000
00000010
,
00000001
00000000
00000001
00000100
00001000
00000000
00000000
00000000
,
00000010
00000000
00000100
00000010
00000100
00000000
00000001
00000000
,
00000100
00000010
00000100
00000000
00001000
00000000
00010000
00001000
,
00010000
00000000
00100000
01000000
00100000
00000000
10000000
00000000
,
01000000
00100000
01000000
00000000
10000000
00000000
00010000
00000000
,
01000000
00000000
00100000
01000000
00100000
00000000
00010000
00000000
,
00001000
00000010
00001000
00000000
00010000
00000000
00001000
00000100
,
00001000
00000000
00000100
00000001
00000100
00000000
00000010
00000000
,
00001000
00000100
00001000
00000000
00000100
00000000
00001000
00000000
,
00100000
00010000
00100000
00010000
00100000
00000000
00001000
00010000
,
00001000
00010000
00001000
00000000
00010000
00000000
00000100
00010000
,
00000100
00000000
00000010
00000001
00000010
00000001
00000010
00000000
,
00000001
00000100
00000001
00000100
00000001
00000000
00000000
00000000
,
00000100
00000010
00000100
00000010
00000100
00000000
00001000
00010000
,
00001000
00010000
00001000
00000000
00100000
00010000
00100000
00010000
,
00100000
00000000
00010000
10000000
00010000
10000000
00010000
00000000
,
10000000
01000000
00100000
00010000
10000000
00010000
01000000
00100000
,
10000000
00000000
10000000
00100000
,
10000000
00100000
01000000
00010000
,
01000000
00010000
00001000
00010000
,
00001000
00010000
00001000
00000010
,
00001000
00000010
00000100
00000001
,
00000100
00000001
00010000
00000100
,
00010000
00000100
00001000
00000010
,
00001000
00000010
00010000
00001000
,
00001000
00000000
00100000
00000000
00010000
00000000
01000000
00001000
,
01000000
00001000
00010000
00000000
,
00000100
00000000
00000010
00000000
00000001
00000000
00001000
00000010
,
00001000
00000100
00010000
00000000
,
00010000
00000000
00000100
00000000
00010000
00000000
00001000
00100000
,
00001000
00000000
01000000
00000000
00100000
00000000
10000000
01000000
,
10000000
00000000
01000000
00000000
00010000
00000000
00001000
00000100
,
00001000
00000100
00000010
00000100
00000010
00000000
00000100
00000000
,
00001001
00000000
00000100
00000010
00000000
00001000
00010000
00000000
,
01000000
00100000
00000000
10000000
00010000
00010000
00010000
00000000
,
00100000
01000000
00000000
10000000
00010000
01000000
00000000
00010000
,
00000000
00000000
00001001
00000110
,
00000001
00000010
00001000
00010000
00000010
00000100
00000010
00000000
,
00000001
00000100
00001000
00010000
00001000
01000000
00010000
00000000
,
10000000
00100000
01000000
00010000
00100000
00010000
01000000
00100000
,
00010000
00001000
00010000
00001000
00000010
00000001
00001000
00000000
,
00000001
00000100
00001000
00000100
00001000
00010000
00100000
10000000
,
01000000
00000000
00010000
00000000
01000000
00000000
10000000
00100000
,
00010000
01000000
00001000
00010000
00000000
00001000
00100000
00000000
,
01000000
00100000
00001000
00010000
00000000
00001000
01000000
00000000
,
00001000
00010000
00000010
00001000
00000010
00000100
00000001
00001000
,
00000100
00010000
00001000
00010000
00001000
00100000
00001000
01000000
,
00100000
10000000
00100000
00000000
10000000
01000000
10000000
00000000
01000000
00010000
00001000
00010000
00001000
00000100
00000001
00000000
,
00000100
00000001
00000100
00000000
00000001
00000010
00000001
00000000
00000010
00001000
00010000
00001000
00010000
00100000
10000000
00000000
,
00100000
00010000
01000000
00000000
00100000
00000000
10000000
01000000
,
10000000
00000000
01000000
00000000
00100000
00001000
01000000
00000000
,
00010000
00000000
00100000
00001000
00010000
00000000
00001000
00010000
,
00000100
00000000
00001000
00000000
00000010
00000100
00000010
00000000
,
00001000
00000010
00000100
00000000
00000001
00000000
00001000
00000100
,
00001000
00000000
00000010
00000000
00000100
00000010
00000100
00000000
,
00000010
00000000
00010000
00001000
00010000
00000000
00001000
00010000
,
00001000
00100000
00010000
01000000
,
00010000
00000000
01000000
00000000
10000000
00100000
00010000
00000000
,
00001000
00000000
00000100
00000000
00000001
00000010
00001000
00000000
,
00010000
01000000
10000000
00000000
01000000
00010000
00001000
00000000
,
00010000
00000000
01000000
00000000
10000000
00100000
00010000
00000000
,
00001000
00000000
00000100
00000000
00000001
00000010
00001000
00000000
,
00010000
00000000
01000000
00000000
10000000
00100000
00010000
00000000
,
00001000
00000100
00000001
00000000
00000100
00001000
00010000
00000000
,
00010000
00100000
10000000
01000000
00020000
00030000
10000000
00000000
,
01000000
00100000
00010000
01000000
,
00100000
10000000
01000000
00010000
,
00001000
00000010
00000001
00000100
,
00000010
00000000
00000000
00001000
00000000
00001000
00000010
00000000
,
00001000
00000100
00000010
00000001
,
00000100
00001000
00010000
01000000
,
10000000
00100000
00010000
00001000
,
00000010
00000001
00000000
00000100
00000010
00000000
00000010
00000000
,
00001000
00000000
00010000
00001000
00020000
00000000
00130000
00000000
,
00010000
00000000
00001000
00010000
00002000
00000000
00003100
00000000
,
00001000
00000000
00010000
00001000
00020000
00000000
01030000
00000000
,
00010000
00000000
00001000
00010000
00001000
00000000
00001000
00000020
,
00000000
00000031
00000200
00000000
00001300
00000000
00010000
00200000
,
00000000
10300000
02000000
00000000
03010000
00000000
00000010
00000200
,
00000000
00000301
00000020
00000000
00001030
00000000
00010000
00000000
,
00100000
00000000
10000000
00010000
02000000
00000000
03100000
00000000
,
00100000
00000000
01000000
00000000
00010000
00000000
10000000
01000000
,
10000000
01000000
10000000
01000000
00100000
00000000
00001000
00000000
,
00100000
00000000
00001000
00000000
00000100
00000000
00000010
00001000
,
00000010
00001000
00000010
00001000
00000100
00000000
00000010
00000000
,
00000001
00000000
00000010
00000000
00000001
00000000
00000100
00000010
,
00000100
00000010
00000100
00000010
00001000
00000000
00000100
00000000
,
00010000
00000000
00001000
00000000
00100000
00000000
00010000
01000000
,
00010000
01000000
00010000
01000000
00100000
00000000
01000000
00100000
,
10000000
00010000
00100000
01000000
00100000
00010000
10000000
01000000
,
00100000
00001000
00010000
00000010
00001000
00000100
00001000
00000001
,
00001000
00000010
00000100
00000000
00000001
00000000
00000010
00000000
,
00001000
00000000
00010000
00000000
00000100
00000000
00000010
00000001
,
00000010
00000001
00001000
00000001
00000100
00000010
00000100
00000010
,
00010000
00001000
00010000
00001000
00100000
00010000
00100000
01000000
,
10000000
01000000
10000000
00100000
01000000
00010000
01000000
00100000
,
10000000
01000000
00100000
00001000
00010000
00000010
00010000
00000000
,
00000000
00000000
00022000
00000000
,
00000000
00000000
00000000
00000000
,
00000000
00000000
00000000
00000000
,
00000000
00000000
00000000
00000000
,
00000000
00000000
00000000
00000000
,
00000000
00000000
00000000
00000000
,
00000000
00000000
00000000
00000000
,
00000000
00000000
00000000
00000000
,
00000000
00000000
00000000
00000000
,
00000000
00000000
00000000
00000000
,
00033000
00000000
00000000
00000000
,
00000000
00000000
00000000
00000000
00000000
00000000
00000001
00000010
,
00000001
00000100
00000010
00001000
00000100
00010000
00001000
00100000
,
00010000
01000000
00100000
10000000
01000000
00100000
00020000
00000000
,
00000000
00000000
00000000
00030000
;

//---------------dance-double - ----------------
#NOTES:
     dance-double:
     :
     Challenge:
     19:
     1.000,1.000,0.565,0.150,0.172,735.000,64.000,17.000,0.000,0.000,0.000,1.000,1.000,0.565,0.150,0.172,735.000,64.000,17.000,0.000,0.000,0.000:
00000000
00000000
00000000
00000000
,
00000000
00000000
00000000
00000000
,
00000000
00000000
00000000
00000000
,
00000000
00000000
00000000
00000000
,
00000000
00000000
00000000
00000000
,
00000000
00000000
00000000
00000000
,
00000000
00000000
00000000
00000000
,
00000000
00000000
00000000
00000000
,
00000000
00000000
00000000
00000000
,
00000000
00000000
00000000
00000000
,
00000000
00000000
10100000
00000000
00000000
11000000
00000000
00000000
,
01010000
00000000
00000000
01001000
00000000
00000000
00011000
00000000
,
00000000
00000000
00001010
00000000
00000000
00000011
00000000
00000000
,
00000101
00000000
00000000
00001100
00000000
00000000
00001000
00010000
,
00000000
00000000
01100000
00000000
00000000
10100000
00000000
00000000
,
01010000
00000000
00000000
00011000
00000000
00000000
00001010
00000000
,
00000100
00000001
00000010
00000001
00001000
00000100
00001000
00000010
,
00010000
00001000
01000000
00010000
00100000
00010000
01000000
00100000
,
10000000
00000000
10010000
00100000
,
01000000
00010000
10000000
00100000
,
00011000
00001000
00000010
00000100
,
00010000
00000000
00001000
00000000
00000100
00000000
00000010
00000100
,
00000001
00001000
00001001
00000010
,
00001000
01000000
00100000
10000000
,
10010000
01000000
00010000
00001000
,
00000010
00000000
00000100
00000000
00000001
00000100
00000001
00000100
,
00001000
00010000
00011000
00100000
,
01000000
00000000
00010000
00000000
10000000
01000000
10000000
01000000
,
00010000
00001000
00011000
00000100
,
00000001
00000000
00001000
00000000
00000010
00000000
00000100
00000001
,
00000010
00000000
00000000
00001000
00010000
00000000
00000000
01000000
,
10000000
00000000
00000000
00100000
00010000
00000000
00000000
00000100
,
00010000
00001000
00010000
00000010
00010000
00001000
00100000
00001000
,
00010000
00001000
01000000
00001000
00010000
00000100
00010000
00001000
,
00010000
00100000
01000000
00100000
00010000
00000000
10000000
01000000
,
00100000
01000000
10000000
00000000
01000000
00100000
00010000
00100000
,
01000000
00000000
00100000
00010000
00001000
00010000
00100000
00000000
,
00010000
00001000
00000100
00001000
00010000
00000000
00001000
00000010
,
00000001
00000010
00001000
00010000
00001000
00000000
00000100
00000010
,
00000001
00000010
00000100
00000000
00000010
00000100
00001000
00000100
,
00000010
00000000
00010000
00001000
00000100
00001000
00010000
00000000
,
00100000
01000000
10000000
01000000
00100000
00000000
00010000
00100000
,
10000000
00100000
00010000
00001000
00010000
00000000
00001000
00010000
,
00001000
00000100
00000001
00000000
00000100
00000001
00000100
00001000
,
00010000
00000000
00001000
00010000
00001000
00010000
00100000
00000000
,
10000000
00010000
10000000
01000000
00010000
00000000
01000000
00100000
,
01000000
10000000
00100000
00010000
00001000
00000000
00010000
00001000
,
00000100
00000001
00000010
00000000
00000100
00000010
00000100
00001000
,
00000001
00000010
00000100
00001000
00000010
00000100
00001000
00010000
,
00000100
00001000
00010000
00100000
00001000
00010000
00100000
01000000
,
10000000
00000000
01100000
00010000
,
00100000
10000000
00010000
00001000
,
00000100
00000001
00001000
00010000
,
01000000
00000000
10000000
00000000
00010000
00000000
00001000
00000010
,
00000100
00000000
00000000
00001000
00010000
00000000
00001000
00000000
,
01000000
00010000
00100000
10000000
,
01000000
00000000
00010000
10000000
01000000
00000000
00100000
00010000
,
00100000
00010000
01000000
00001000
01000000
00001000
00010000
00000100
,
00000010
00000100
00000110
00000000
,
00001001
00000000
00000100
00000000
00000001
00000000
00000010
00001000
,
00010000
00011000
00110000
00000000
,
10010000
00000000
01000000
00000000
10000000
00000000
00100000
00010000
,
00001000
00000000
00011000
00000000
00101000
00000000
00010000
01000000
,
00001000
00000000
00011000
00000000
00010100
00000000
00001000
00010000
,
00000100
00001000
00000010
00000001
00000010
00000100
00000001
00000010
,
00000100
00001000
00000100
00010000
00001000
00100000
00001000
00000000
,
00011000
00000000
01000000
00000000
,
10010000
00000000
00000000
00000000
01000000
01000000
01000000
00000000
,
00011000
00000000
00100000
00000000
00010000
00010000
00010000
00000000
,
00010000
00000000
01000000
00000000
00010000
00010000
00010000
00000000
,
00010000
00000000
00001000
00000000
00000100
00000100
00000100
00000000
,
00000100
00000000
00001000
00000000
00001000
00001000
00001000
00000000
,
00011000
00000000
10010000
00000000
00100000
00100000
00100000
00000000
,
10010000
00000000
00000000
00100000
00100000
00000000
11000000
00000000
,
01100000
00000000
10000000
01000000
00000000
00100000
00010000
10000000
01000000
00000000
01000000
00100000
00000000
00100000
00001000
00010000
,
00001000
00000000
00010000
00000100
00000000
00001000
00000001
00000100
00000010
00000000
00000010
00000100
00000000
00000001
00001000
00000100
,
00010000
00000000
00001000
00100000
00000000
01000000
00100000
00010000
10000000
00000000
01000000
00100000
00000000
00010000
00001000
00010000
,
00000100
00000000
00001000
00000001
00000000
00000100
00000001
00000010
00000100
00000000
00010000
00001000
00000000
00100000
01000000
00000000
,
10100000
00010000
00001000
00010000
01100000
10000000
01000000
00010000
,
00011000
00010000
00001000
00000010
00001001
00000100
00001000
00000100
,
00000001
00000100
00000001
00000010
00001000
00000100
00010000
00000100
00010000
00001000
00100000
00010000
01000000
10000000
01000000
00100000
,
10000000
01000000
00010000
00001000
00010000
00000100
00001000
00000001
00000010
00000100
00001000
00000010
00000100
00000001
00001000
00000000
,
00000001
00000100
00001000
00010000
01000000
00000000
10000000
01000000
,
00010000
00001000
00000100
00000000
00000002
00000000
00000100
00000000
,
00001003
00000000
00000001
00000010
00001000
00010000
00100000
00000000
,
10000000
00100000
00010000
00001000
00000010
00000000
00000001
00000100
,
00000010
00001000
00010000
01000000
10000000
00000000
00010000
00100000
,
10000000
01000000
00010000
00000000
00002000
00000000
00010000
00000000
,
00003010
00000000
00000001
00000100
00001000
00010000
00100000
00000000
,
10000000
00010000
10000000
01000000
00010000
00000000
00011000
00000000
,
00001000
00000100
00000001
00000010
00001000
00000000
00010000
01000000
,
10000000
00100000
00010000
00000000
00001000
00000000
00000110
00000000
,
00001001
00000000
00000010
00000001
00000010
00000100
00001000
00000000
,
00000100
00001000
00010000
00100000
01000000
00000000
01100000
00000000
,
00100000
10000000
01000000
00010000
00001000
00000000
00000010
00000001
,
00000100
00001000
00010000
00000000
00001000
00000000
00010000
00000000
,
00001000
00000000
00001000
00000010
00000001
00000010
00001000
00010000
,
01000000
10000000
01000000
00010000
00001000
00000000
00020000
00000000
,
00001000
00100000
00001000
00032000
,
00010000
00000000
00000010
00000000
00010000
00000000
00013000
01000000
,
00100000
00000000
00100000
01000000
00010000
00000000
00001000
00000010
,
00000100
00000000
00000100
00000010
00001000
00000000
00020000
00000000
,
00001000
00100000
00100000
00032000
,
00010000
00000000
00000010
00000000
00000010
00000000
00013000
00100000
,
01000000
00000000
00001000
00010000
00100000
00000000
00001000
00000100
,
00000010
00000000
00001000
00000100
00000001
00000000
00002000
00000000
,
00000100
00000001
00000010
00023000
,
01000000
00000000
10000000
00000000
00100000
00000000
00031000
00000100
,
00000010
00000000
00000001
00000100
00001000
00000000
00010000
00100000
,
01000000
00000000
10000000
01000000
00010000
00000000
00100000
00000000
,
00001000
00021000
00030100
00000020
,
00010030
00001200
00010300
00011000
,
00010000
00001000
00000100
00000000
00001000
00010000
00100000
00000000
,
01100000
00000000
00001000
00010000
00100000
10000000
00010000
00000000
,
10010000
00000000
11000000
00000000
00110000
00000000
10000000
00010000
,
01000000
00001000
00010000
00000000
00000100
00001000
00000010
00000000
,
00000100
00000000
00001001
00000000
00001000
00000100
00000010
00000000
,
00000001
00000010
00000100
00001000
00000100
00010000
00001000
00000000
,
00011000
00000000
00101000
00000000
00100000
01000000
10000000
00010000
,
00100000
00000000
00011000
00000000
00001000
00000100
00000010
00000000
,
00000110
00000000
00001001
00000000
00000001
00000010
00000100
00010000
,
00001000
00100000
00010000
00000000
00011000
00000000
00001000
00100000
,
01000000
00100000
00010000
10000000
00010000
00100000
00001000
00000100
,
00000001
00000100
00000010
00001000
00000001
00000100
00001000
00000001
,
00000010
00001000
00010000
01000000
10000000
01000000
00100000
10000000
,
01000000
00100000
00001000
00010000
01000000
10000000
01000000
01000000
,
00100000
00001000
00010000
00000010
00000001
00001000
00000100
00000100
,
00000010
00001000
00000001
00000100
00001000
00010000
00001000
00001000
,
00010000
00100000
01000000
01000000
00010000
10000000
00100000
00100000
,
00010000
00001000
00000100
00000100
00000001
00001000
00000220
00000000
,
00000000
00000330
00011000
00000000
02200000
00000000
00000000
00000000
,
00000000
00000000
00000000
00000000
,
00000000
00000000
00000000
00000000
,
00000000
00000000
00000000
00000000
,
00000000
00000000
00000000
00000000
,
00000000
00000000
00000000
00000000
,
00000000
00000000
00000000
00000000
,
00000000
00000000
00000000
00000000
,
00000000
00000000
00000000
00000000
,
00000000
00000000
00000000
00000000
,
00000000
00000000
00000000
00000000
,
00000000
00000000
00000000
00000000
03300000
00000000
10000000
01000000
,
00010000
00001000
00000010
00000001
00000100
00001000
00010000
00100000
,
10000000
00000000
01000000
00000000
00010000
00000000
00001000
00000000
00010000
00001000
00010000
00000000
00022000
00000000
00000000
00000000
,
00000000
00000000
00000000
00033000
;

//---------------dance-single - ----------------
#NOTES:
     dance-single:
     :
     Challenge:
     19:
     1.000,1.000,0.795,0.185,0.212,753.000,90.000,21.000,0.000,0.000,0.000,1.000,1.000,0.795,0.185,0.212,753.000,90.000,21.000,0.000,0.000,0.000:
0000
0000
0000
0000
,
0000
0000
0000
0000
,
0000
0000
0000
0000
,
0000
0000
0000
0000
,
0000
0000
0000
0000
,
0000
0000
0000
0000
,
0000
0000
0000
0000
,
0000
0000
0000
0000
,
0000
0000
0000
0000
,
0000
0000
0000
0000
,
0000
0000
1100
0000
0000
1010
0000
0000
,
0011
0000
0000
0101
0000
0000
0110
0000
,
0000
0000
0101
0000
0000
0011
0000
0000
,
1010
0000
0000
1100
0000
0000
0110
0100
,
0000
0000
1010
0000
0000
1100
0000
0000
,
0101
0000
0000
0011
0000
0000
0110
0000
,
0010
0001
1000
0100
0010
0001
0100
0010
,
1000
0001
0100
0010
1000
0100
0010
0001
,
0100
0000
0102
1000
,
0010
1000
0100
0010
,
1003
0001
0010
1000
,
0100
0000
0001
0000
1000
0001
0100
0001
,
0100
0010
2010
0001
,
0010
0100
0001
0010
,
3100
0001
1000
0100
,
0010
0000
0100
0000
1000
0001
0010
0001
,
0010
0001
1200
0010
,
0001
1000
0010
1000
,
0301
0010
0100
1000
,
0001
0000
0100
0000
0010
1000
0100
1000
,
0001
0000
0000
0011
0001
0000
0000
1010
,
1000
0000
0000
0011
0001
0000
0000
0100
,
0010
0001
0010
0100
0010
1000
0010
0100
,
0010
0001
0010
0100
0010
1000
0010
0001
,
0010
1000
0001
0100
1000
0000
0001
0010
,
1000
0001
0100
0000
0001
0010
1000
0010
,
0001
0000
1000
0100
0001
0100
1000
0000
,
0010
1000
0100
0010
0001
0000
0100
0001
,
0010
1000
0001
0100
1000
0000
0001
0010
,
1000
0010
0001
0000
1000
0100
0010
0001
,
0010
0000
0001
0100
1000
0001
0010
0000
,
1000
0100
0001
0100
1000
0000
0001
0100
,
1000
0100
0010
0100
0100
0000
0100
0010
,
0001
0100
0100
0000
0001
1000
0010
0100
,
0100
0000
0001
1000
0010
0100
0100
0000
,
1000
0100
0001
0100
1000
0000
0001
0010
,
1000
0010
0100
0100
0010
0000
1000
0001
,
0100
0100
0010
0000
0001
0010
0100
0100
,
0010
0001
1000
0001
0010
1000
0100
0100
,
0010
0001
1000
0010
1000
0001
0100
0100
,
0010
0000
0102
1000
,
0103
0010
2001
0010
,
3100
0010
0021
0100
,
1030
0000
0100
0000
0001
0000
0010
0001
,
0010
0000
0000
2000
0010
0000
0001
0000
,
0100
0001
0010
0100
,
3010
1000
0001
0010
0100
1000
0001
0100
,
0001
0010
1000
0010
0001
0100
1000
0100
,
0010
1010
0101
0000
,
1001
0000
0100
1000
0001
0000
0100
0001
,
0010
0110
1100
0000
,
1001
0000
0100
0010
0001
0000
1000
0010
,
0100
0000
0101
0000
1001
0000
0100
1000
,
0010
0000
1010
0000
1001
0000
0100
0010
,
1000
0001
0010
1000
0001
0100
0010
0001
,
1000
0000
0001
0000
1000
0000
0001
0000
1000
0000
0001
1000
0001
0000
1000
0000
,
1001
0000
0001
0000
0100
0001
1000
0000
,
0010
0000
0100
1000
0001
0100
1000
0000
,
0101
0000
1000
0000
0100
1000
0001
0000
,
0010
0000
0100
0001
1000
0100
0001
0000
,
0010
0000
0010
0000
1001
0000
0001
0100
,
0010
1010
0101
0000
,
0010
0001
0001
0001
0010
0001
0001
0000
,
0010
1000
1000
1000
0010
1000
1000
0000
,
0110
0000
1000
0010
0000
1000
0010
1000
0001
0000
0100
0001
0000
0100
0001
0100
,
0010
0000
0100
0010
0000
1000
0010
0100
0001
0000
1000
0001
0000
0010
0001
1000
,
0100
0000
0010
0100
0000
0010
0001
0100
0010
0000
1000
0010
0000
0100
0001
0100
,
1000
0000
0100
0010
0000
1000
0010
0001
0010
0000
0100
0010
0000
1000
0001
0100
,
1010
1010
1100
1100
0101
0101
0011
0011
,
0110
1010
1001
1100
0110
0101
1001
0011
,
1000
0100
0001
1000
0001
1000
0010
0001
0010
1000
0001
1000
0001
0100
1000
0001
,
0100
1000
0001
1000
0001
0010
1000
0010
0001
1000
0001
1000
0100
0001
1000
0000
,
0100
1000
0010
0001
0010
0000
1000
0100
,
0001
0100
1000
0000
0001
0000
1010
0000
,
0101
0000
1000
0100
0001
0010
1000
0000
,
0001
0100
1000
0010
0001
0000
1000
0001
,
1000
0100
0001
0010
0010
0000
0001
0010
,
1000
0100
0001
0000
0010
0000
1100
0000
,
0011
0000
1000
0100
0001
0100
0100
0000
,
1000
0010
0001
0010
0010
0000
0001
0100
,
1000
0001
0010
0100
0100
0000
0010
0001
,
1000
0100
0100
0000
1100
0000
0011
0000
,
1000
0000
0001
0100
0100
1000
0001
0000
,
0010
0100
0100
0001
0010
0000
0100
1000
,
1000
0010
0100
0010
0010
0000
0001
1000
,
0100
0010
0010
0000
0011
0000
1100
0000
,
1001
0000
1000
0100
0010
0001
0100
0100
,
0001
1000
0001
0100
0100
0000
1001
0000
,
1000
0100
0010
0101
,
1000
0100
0010
0000
1000
0000
0011
0000
,
0001
0100
0010
0000
1000
0000
0110
0000
,
0001
0000
0110
0000
1000
0100
0001
0000
,
0100
1001
0010
1000
,
0001
0100
0010
0000
1001
0000
0100
0000
,
1000
0100
0001
0000
0100
0001
0010
0000
,
0001
0100
0010
1000
0100
1000
0100
0000
,
0010
0102
0013
1000
,
0001
2010
3001
1000
,
0100
1020
0031
1000
,
0010
0100
0001
0000
1000
0001
0010
0000
,
0100
0120
1030
0102
,
0013
2001
3100
0012
,
1003
0000
0110
0000
0000
2001
0100
0000
,
3010
0000
1000
0100
0010
0001
0100
0000
,
0110
0110
1000
0001
,
0100
0000
0001
0010
0100
1000
1000
0000
,
0010
0000
0001
0000
0010
0001
1000
0000
,
1000
0010
0100
0001
0100
0001
0010
0000
,
0011
1001
0001
0100
,
0010
0000
1000
0100
0010
0001
0001
0000
,
0001
1000
0101
1010
,
1000
1000
0010
0001
0001
0000
0001
1000
,
0010
0001
1000
0001
1000
0100
0001
0010
,
0100
0010
0001
1000
0001
0001
0010
1000
,
0001
0100
0001
0010
1000
0001
0100
0010
,
0001
0000
0100
0000
1000
0000
1000
0000
0001
0000
1000
0000
0010
0100
0010
0000
,
0100
0000
0010
0000
0100
0000
0010
0000
0100
0000
0010
0000
1000
0001
1000
0000
,
0001
0000
1000
0000
0001
0000
1000
0000
0001
0000
1000
0000
0010
1000
0010
0000
,
1000
0000
0010
0000
0100
0001
0100
0000
0001
0000
1000
0000
0010
0001
0010
0000
,
0001
0000
0010
0000
0100
1000
0100
0000
0010
0000
0001
0000
2002
0000
0000
0000
,
0000
0000
0000
3003
2002
0000
0000
0000
,
0000
0000
0000
0000
,
0000
0000
0000
0000
,
0000
0000
0000
0000
,
0000
0000
0000
0000
,
0000
0000
0000
0000
,
0000
0000
0000
0000
,
0000
0000
0000
0000
,
0000
0000
0000
0000
,
0000
0000
0000
0000
,
0000
0000
0000
0000
,
0000
0000
0000
0000
3003
0000
0001
0100
,
1000
0010
1000
0001
0100
0010
0100
0100
,
0100
0000
0001
0000
1000
0000
0001
1000
0001
1000
0001
0000
2002
0000
0000
0000
,
0000
0000
0000
3003
;

//---------------dance-double - ----------------
#NOTES:
     dance-double:
     :
     Edit:
     19:
     0.971,1.000,0.335,0.088,0.168,722.000,38.000,10.000,0.000,0.000,0.000,0.971,1.000,0.335,0.088,0.168,722.000,38.000,10.000,0.000,0.000,0.000:
00000000
00000000
00000000
00000000
,
00000000
00000000
00000000
00000000
,
00000000
00000000
00000000
00000000
,
00000000
00000000
00000000
00000000
,
00000000
00000000
00000000
00000000
,
00000000
00000000
00000000
00000000
,
00000000
00000000
00000000
00000000
,
00000000
00000000
00000000
00000000
,
00000000
00000000
00000000
00000000
,
00000000
00000000
00000000
00000000
,
00000000
00000000
10100000
00000000
00000000
10010000
00000000
00000000
,
11000000
00000000
00000000
01100000
00000000
00000000
00101000
00000000
,
00000000
00000000
00011000
00000000
00000000
00010100
00000000
00000000
,
00001100
00000000
00000000
00000110
00000000
00000000
00000011
00000001
,
00000000
00000000
00000101
00000000
00000000
00001001
00000000
00000000
,
00000011
00000000
00000000
00000110
00000000
00000000
00010100
00000000
,
00010000
00000100
00000010
00000000
00000100
00000010
00000001
00000000
,
00000010
00000001
00000100
00000000
00000001
00000100
00000010
00001000
,
00100000
10000000
00100000
01000000
,
00001000
01000000
00001000
01000000
,
00001000
00010000
00001000
00010000
,
00000100
00010000
00000100
00010000
,
00001000
00010000
00100000
00010000
,
00001000
00010000
00022000
00033000
,
00100000
10000000
00010000
01000000
,
00100000
00000000
10000000
00000000
00010000
01000000
00010000
01000000
,
00010000
01000000
00010000
00000000
01000000
00100000
10000000
00100000
,
01000000
00010000
02000000
03000000
,
00010000
00100000
00001000
00010000
,
00001000
00000010
00000001
00000100
,
00000001
00001000
00000000
00001000
00000100
00000010
00000000
00000010
,
00001000
00010000
00000000
00010000
01000000
10000000
00000000
00100000
,
10000000
01000000
00100000
00010000
01000000
00100000
10000000
01000000
,
00010000
00001000
00000010
00000001
00000100
00001000
00000100
00000001
,
00001000
00000010
00000001
00000010
00001000
00000000
00010000
00100000
,
10000000
00100000
00010000
00000000
00001000
00000100
00000001
00000100
,
00001000
00000000
00010000
01000000
10000000
01000000
00010000
00000000
,
00001000
00000010
00000001
00000010
00001000
00000000
00010000
00001000
,
00010000
01000000
10000000
01000000
00010000
00000000
00001000
00000010
,
00000001
00000100
00001000
00000000
00010000
00100000
10000000
01000000
,
00010000
00000000
00001000
00000100
00000001
00000010
00001000
00000000
,
00010000
00100000
10000000
01000000
00010000
00000000
01000000
00100000
,
00010000
00001000
00000100
00000010
00000001
00000000
00000100
00000010
,
00001000
00000100
00010000
00000000
00001000
00000100
00000010
00001000
,
00000100
00000000
00010000
00001000
00000010
00000001
00000100
00000000
,
00001000
00010000
00100000
10000000
01000000
00000000
01000000
10000000
,
01000000
10000000
00100000
00010000
00001000
00000000
00000100
00000001
,
00000010
00001000
00010000
00000000
00100000
00010000
00001000
00000100
,
00000001
00000100
00000001
00000100
00001000
00010000
01000000
10000000
,
00100000
00010000
00001000
01000000
00100000
00010000
00001000
01000000
,
00100000
00000000
00001000
00000001
,
00001000
00000010
00010000
00001000
,
00100000
00010000
01000000
00001000
,
00010000
00000010
00000100
00001000
,
00010000
01000000
10000000
00100000
,
10000000
01000000
00010000
00001000
,
00010000
00000010
00010000
00000010
00001000
00000100
00001000
00000100
,
00000010
00000001
00000010
00000001
00001000
00000010
00001000
00000010
,
00000110
00000001
00000100
00001000
,
00010000
00001000
00100000
00010000
01000000
00100000
10000000
00000000
,
11000000
10000000
01000000
00010000
,
00001000
00010000
00000010
00001000
00000100
00000010
00000001
00001000
,
00010000
00000000
00000100
00000000
00010000
00000000
00001000
00100000
,
00001000
00000000
01000000
00000000
00100000
00000000
10000000
01000000
,
10000000
00000000
01000000
00000000
00010000
00000000
00001000
00000100
,
00001000
00000100
00000010
00000100
00000010
00000000
00000100
00000000
,
00011000
00000000
01000000
00000000
,
10010000
00000000
00000000
00000000
01000000
01000000
01000000
00000000
,
00011000
00000000
00100000
00000000
00010000
00010000
00010000
00000000
,
00010000
00000000
01000000
00000000
00010000
00010000
00010000
00000000
,
00010000
00000000
00001000
00000000
00000100
00000100
00000100
00000000
,
00000100
00000000
00001000
00000000
00001000
00001000
00001000
00000000
,
00011000
00000000
10010000
00000000
00100000
00100000
00100000
00000000
,
10010000
00000000
00000000
00100000
00100000
00000000
11000000
00000000
,
01100000
00000000
10000000
01000000
00000000
00100000
00010000
10000000
01000000
00000000
01000000
00100000
00000000
00100000
00001000
00010000
,
00001000
00000000
00010000
00000100
00000000
00001000
00000001
00000100
00000010
00000000
00000010
00000100
00000000
00000001
00001000
00000100
,
00010000
00000000
00001000
00100000
00000000
01000000
00100000
00010000
10000000
00000000
01000000
00100000
00000000
00010000
00001000
00010000
,
00000100
00000000
00001000
00000001
00000000
00000100
00000001
00000010
00000100
00000000
00010000
00001000
00000000
01000000
00100000
00000000
,
10100000
00010000
00001000
00010000
01100000
10000000
01000000
00010000
,
00011000
00010000
00001000
00000010
00001001
00000100
00001000
00000100
,
00000001
00000100
00000001
00000010
00001000
00000100
00010000
00000100
00010000
00001000
00100000
00010000
01000000
10000000
01000000
00100000
,
10000000
01000000
00010000
00001000
00010000
00000100
00001000
00000001
00000010
00000100
00001000
00000010
00000100
00000001
00001000
00000000
,
00001000
00010000
01000000
00000000
00100000
00000000
00010000
10000000
,
01000000
00000000
00100000
00000000
01000000
10000000
00100000
00000000
,
01000000
00000000
00001000
00100000
00001000
00000000
00010000
00001000
,
00000100
00000000
00001000
00000000
00000100
00000001
00000010
00000000
,
00000001
00000010
00000100
00000000
00000001
00000000
00000100
00001000
,
00000010
00000000
00000100
00000000
00000001
00000010
00000100
00000000
,
00000010
00000000
00010000
00001000
00010000
00000000
00010000
00001000
,
01000000
00100000
00010000
01000000
,
00010000
00000000
01000000
00000000
10000000
00100000
00010000
00000000
,
00001000
00000000
00000100
00000000
00000001
00000010
00001000
00000000
,
00010000
01000000
10000000
00000000
01000000
00010000
00001000
00000000
,
00010000
00000000
01000000
00000000
10000000
00100000
00010000
00000000
,
00001000
00000000
00000100
00000000
00000001
00000010
00001000
00000000
,
00010000
00000000
01000000
00000000
10000000
00100000
00010000
00000000
,
00001000
00000100
00000001
00000000
00000100
00001000
00010000
00000000
,
00010000
00100000
10000000
01000000
00020000
00030000
00011000
00000000
,
01000000
00000000
10000000
00000000
00100000
01000000
00100000
00000000
,
00010000
00000000
00001000
00010000
00001000
00000000
00000010
00000100
,
00000010
00000000
00000001
00000000
00000100
00000010
00000100
00000000
,
00000001
00000000
00001000
00000000
00000100
00000000
00000010
00000100
,
00000010
00000000
00001000
00000000
00010000
00100000
00010000
00000000
,
00001000
00000000
00010000
01000000
00010000
00000000
01000000
10000000
,
01000000
00000000
00100000
00000000
00010000
01000000
00010000
00000000
,
10000000
01000000
00010000
10200000
,
00010000
00000000
00310000
00001000
00000100
00000001
00000000
00000100
,
00001000
00100000
00010000
00000000
10010000
00000000
02010000
00000000
,
10000000
00000000
03010000
00100000
01000000
00010000
00000000
00001000
,
00010000
00001000
00000100
00000000
00001001
00000000
00000100
00000010
,
00001000
00000100
00000000
00010000
00001000
00000000
00100000
01000000
,
10000000
00100000
00000000
01000000
00010000
00000000
00100000
00001000
,
00010000
00000100
00001000
00000000
00000011
00000000
00000100
00000000
,
00010000
00000000
00001000
01000000
00100000
00000000
00000100
00000000
,
00001000
00000000
00010000
00000000
00100000
10000000
00010000
00000000
,
01000000
00000000
00001000
00000000
00100000
00010000
01000000
00000000
,
00100000
00000000
10000000
01000000
10000000
00000000
00010000
00000000
,
00100000
00001000
00100000
00001000
00100000
00001000
00010000
00000000
,
00000100
00000000
00000010
00000000
00000001
00001000
00000010
00000000
,
00000100
00000000
00000001
00000000
00001000
00000100
00010000
00000000
,
00100000
00000000
00010000
00001000
01000000
00000000
00100000
00000000
,
10000000
00010000
01000000
00010000
10000000
00000000
00100000
01000000
,
10000000
00010000
01000000
10000000
01000000
00100000
00010000
00100000
,
01000000
00001000
00010000
00000100
00000010
00001000
00000010
00000001
,
00001000
00000010
00000100
00000000
00000001
00000000
00001000
00000000
,
00000010
00000000
00000100
00000000
00001000
00000000
00010000
00001000
,
00010000
00001000
00010000
01000000
10000000
00100000
10000000
01000000
,
00010000
00001000
00100000
00001000
00010000
00000100
00010000
00001000
,
00000100
00000001
00000010
00000001
00000100
00001000
00010000
00100000
,
10000000
01000000
10000000
00010000
01000000
00010000
00100000
00000000
,
00000000
00000000
00022000
00000000
,
00000000
00000000
00000000
00000000
,
00000000
00000000
00000000
00000000
,
00000000
00000000
00000000
00000000
,
00000000
00000000
00000000
00000000
,
00000000
00000000
00000000
00000000
,
00000000
00000000
00000000
00000000
,
00000000
00000000
00000000
00000000
,
00000000
00000000
00000000
00000000
,
00000000
00000000
00000000
00000000
,
00000000
00000000
00000000
00000000
,
00000000
00000000
00000000
00000000
00033000
00000000
00000001
00000100
,
00001000
00010000
00100000
10000000
00010000
10000000
01000000
00010000
,
00001000
00000010
00000001
00001000
00000001
00000100
00000220
00000000
,
00000000
00000000
00000000
00000330
;

//---------------dance-single - ----------------
#NOTES:
     dance-single:
     :
     Beginner:
     6:
     0.270,0.381,0.044,0.009,0.000,208.000,5.000,1.000,0.000,0.000,0.000,0.270,0.381,0.044,0.009,0.000,208.000,5.000,1.000,0.000,0.000,0.000:
0000
0000
0000
0000
,
0000
0000
0000
0000
,
0000
0000
0000
0000
,
0000
0000
0000
0000
,
0000
0000
0000
0000
,
0000
0000
0000
0000
,
0000
0000
0000
0000
,
0000
0000
0000
0000
,
0000
0000
0000
0000
,
0000
0000
0000
0000
,
0000
0001
0000
0000
,
0001
0000
0000
0000
,
0000
1000
0000
0000
,
1000
0000
0000
0000
,
0000
0100
0000
0000
,
0100
0000
0000
0000
,
0010
0000
0010
0000
,
0010
0000
0010
0000
,
0001
0000
0100
0000
,
0001
0000
0100
0000
,
1000
0000
0100
0000
,
1000
0000
0100
0000
,
0010
0000
0100
0000
,
0010
0000
0100
0000
,
0001
0000
1000
0000
,
0001
0000
1000
0000
,
0100
0000
0010
0000
,
0001
0000
0010
0000
,
1000
0000
0001
0000
,
0100
0000
0001
0000
,
1000
0000
1000
0000
,
0001
0000
0001
0000
,
0010
0000
0010
0000
,
0010
0000
0010
0000
,
0100
0000
0000
1000
,
0000
0000
0010
0000
,
0000
1000
0000
0000
,
0100
0000
0100
0000
,
0010
0000
0000
0001
,
0000
0000
0100
0000
,
0000
0001
0000
0000
,
1000
0000
1000
0000
,
0001
0000
0000
0100
,
0000
0000
0010
0000
,
0000
0100
0000
0000
,
0001
0000
1000
0000
,
0010
0000
0000
1000
,
0000
0000
0100
0000
,
0010
0000
0010
0000
,
0010
0000
0010
0000
,
0001
0000
1000
0000
,
0100
0000
1000
0000
,
0001
0000
0100
0000
,
1000
0000
0010
0000
,
0100
0000
0100
0000
,
0001
0000
0001
0000
,
1000
0000
1000
0000
,
0010
0000
0010
0000
,
0100
0000
0010
0000
,
0100
0000
0000
0000
,
0001
0000
1000
0000
,
0001
0000
0000
0000
,
1000
0000
0100
0000
,
0001
0000
0100
0000
,
0001
0000
0001
0000
,
1000
0000
1000
0000
,
0100
0000
0000
0000
,
0010
0000
0000
0000
,
0100
0000
0000
0000
,
1000
0000
0000
0000
,
0100
0000
0100
0000
,
0100
0000
0000
0000
,
0010
0000
0010
0000
,
0010
0000
0000
0000
,
0100
0000
0010
0000
,
0100
0000
0000
0000
,
0001
0000
0001
0000
,
1000
0000
0000
0000
,
0100
0000
0100
0000
,
0001
0000
0001
0000
,
0010
0000
0010
0000
,
1000
1000
1000
1000
,
0001
0000
0000
0001
,
0000
0000
0000
0000
,
0000
1000
0000
0000
,
1000
0000
1000
0000
,
0010
0000
0000
0010
,
0000
0000
0000
0000
,
0000
0100
0000
0000
,
0100
0000
0100
0000
,
0001
0000
0000
0001
,
0000
0000
0000
0000
,
0000
1000
0000
0000
,
1000
0000
1000
0000
,
0010
0000
0000
0010
,
0000
0000
0000
0000
,
0000
0001
0000
0000
,
1000
0000
1001
0000
,
0000
0100
0000
0001
,
0000
0100
0000
1000
,
0000
0001
0000
0010
,
0000
0001
0000
0100
,
0000
1000
0000
0001
,
0000
1000
0000
0100
,
0000
0010
0000
0010
,
0000
0010
0000
1000
,
0000
0001
0000
1000
,
0000
0100
0000
0010
,
0000
0001
0000
1000
,
0000
0001
0000
0100
,
0000
0001
0000
1000
,
0000
0100
0000
0001
,
0000
1000
0000
1000
,
0000
1000
0000
0001
,
0000
0100
0000
0001
,
0000
0010
0000
0110
,
0000
0000
0000
0001
,
0000
0001
0000
0100
,
0000
0010
0000
1000
,
0000
0001
0000
1001
,
0000
0000
0000
1000
,
0000
1000
0000
0100
,
0000
0100
0000
0001
,
0000
0001
0000
1000
,
0000
1000
0000
0010
,
0000
0010
0000
0001
,
0000
1000
0000
0010
,
0000
0100
0000
0001
,
0000
0100
0000
1000
,
0000
0100
0000
0001
,
0000
0000
1001
0000
,
0000
0000
0000
0000
,
0000
0000
0000
0000
,
0000
0000
0000
0000
,
0000
0000
0000
0000
,
0000
0000
0000
0000
,
0000
0000
0000
0000
,
0000
0000
0000
0000
,
0000
0000
0000
0000
,
0000
0000
0000
0000
,
0000
0000
0000
0000
,
0000
0000
0000
0020
,
0000
0000
0000
0000
,
0000
0030
0000
1001
;

//---------------dance-couple - ----------------
#NOTES:
     dance-couple:
     :
     Hard:
     18:
     0.961,1.000,0.530,0.203,0.062,679.000,60.000,23.000,0.000,0.000,0.000,0.961,1.000,0.530,0.203,0.062,679.000,60.000,23.000,0.000,0.000,0.000:
00000000
00000000
00000000
00000000
,
00000000
00000000
00000000
00000000
,
00000000
00000000
00000000
00000000
,
00000000
00000000
00000000
00000000
,
00000000
00000000
00000000
00000000
,
00000000
00000000
00000000
00000000
,
00000000
00000000
00000000
00000000
,
00000000
00000000
00000000
00000000
,
00000000
00000000
00000000
00000000
,
00000000
00000000
00000000
00000000
,
00000000
00000000
00111010
00000000
00000000
10011001
00000000
00000000
,
11000101
00000000
00000000
10011001
00000000
00000000
00111010
00000000
,
00000000
00000000
11000101
00000000
00000000
10011001
00000000
00000000
,
00111010
00000000
00000000
10011001
00000000
00000000
11000101
00000000
,
00000000
00000000
00111010
00000000
00000000
10011001
00000000
00000000
,
11000101
00000000
00000000
10011001
00000000
00000000
00111010
00000000
,
00100010
00000000
00011000
01000100
00022000
00000000
10033001
00100010
,
20000002
00000000
30011003
01000100
00022000
00000000
10033001
01000100
,
10000001
01000100
10000001
00100010
,
10000001
01000100
10000001
00100010
,
01000100
00011000
00100010
00011000
,
01000100
00011000
00100010
00011000
,
01000100
00100010
10000001
00011000
,
01000100
00100010
20022002
30033003
,
00100010
10000001
00100010
10000001
,
00011000
00000000
01000100
00000000
00011000
01000100
00011000
00000000
,
00011000
01000100
00011000
00000000
01000100
00011000
00100010
01000100
,
10000001
01000100
22000202
33000303
,
10000001
01000100
10000001
00000000
01000100
10000001
01000100
00100010
,
00011000
00100010
00011000
00100010
,
00011000
00000000
10000001
01000100
00011000
00000000
00011000
01000100
,
00100010
00000000
00011000
01000100
10000001
00000000
10000001
01000100
,
00011000
00000000
00011000
01000100
10000001
00000000
10000001
01000100
,
00100010
00000000
00011000
00100010
10000001
00000000
00000000
00000000
,
00011000
01000100
00011000
01000100
00011000
00000000
10000001
01000100
,
10000001
01000100
10000001
00000000
00100010
01000100
00100010
01000100
,
00100010
00000000
10000001
00011000
10000001
00011000
10000001
00000000
,
00011000
01000100
00011000
00100010
00011000
00000000
00000000
00000000
,
10000001
01000100
10000001
00100010
10000001
00000000
00100010
01000100
,
00100010
10000001
00011000
00000000
10000001
00011000
10000001
00100010
,
01000100
00000000
00011000
00100010
01000100
10000001
00011000
00000000
,
10000001
01000100
10000001
00100010
10000001
00000000
00000000
00000000
,
00011000
01000100
00011000
01000100
00100010
00000000
01000100
00100010
,
10000001
00100010
00011000
00000000
00100010
01000100
00100010
10000001
,
01000100
00000000
00100010
00011000
01000100
10000001
01000100
00000000
,
10000001
01000100
00011000
01000100
10000001
00000000
00000000
00000000
,
01000100
00011000
00100010
01000100
10000001
00000000
10000001
00100010
,
01000100
00100010
10000001
00000000
00011000
01000100
10000001
01000100
,
00100010
00000000
10000001
01000100
00100010
01000100
00011000
01000100
,
00011000
01000100
00100010
01000100
10000001
00100010
01000100
10000001
,
01000100
00000000
10011001
00100010
,
10000001
01011100
10000001
01000100
,
00111010
01000100
00011000
10100011
,
00011000
10000001
01100110
00011000
,
00100010
01011100
10000001
00100010
,
01000100
10011001
00011000
00100010
,
11000101
00100010
10000001
01011100
,
00100010
01000100
10011001
01000100
,
00011000
00000000
00100010
00000000
01000100
00000000
10000001
01000100
,
10000001
00100010
01000100
00000000
,
10000001
00000000
00100010
00000000
01000100
00000000
00011000
00100010
,
00011000
00100010
01000100
10000001
,
00011000
01000100
00011000
00000000
00100010
00000000
01000100
10000001
,
01000100
00000000
10000001
00000000
00100010
01000100
00100010
00000000
,
01000100
00011000
10000001
00000000
01000100
00100010
00011000
01000100
,
00100010
10000001
01000100
00100010
00011000
01000100
00100010
00000000
,
00011000
00100010
10000001
00000000
01000100
00000000
00011000
00000000
,
10000001
01000100
00011000
00000000
01000100
10000001
00100010
00000000
,
00100010
00011000
10000001
01000100
00100010
00011000
00100010
10000001
,
00100010
00011000
01000100
00011000
00100010
10000001
00011000
00100010
,
01000100
10000001
00100010
00011000
00100010
10000001
01000100
00011000
,
01000100
10000001
01000100
00100010
00011000
01000100
00100010
00000000
,
00011000
01000100
10000001
00100010
00011000
00000000
10100011
00000000
,
00011000
00100010
10000001
00100010
01000100
00000000
10011001
00000000
,
00100010
00100010
00100010
00100010
00100010
00100010
00100010
00100010
,
00100010
00100010
00100010
00100010
00100010
00100010
00000000
00000000
,
10000001
01000100
10000001
01000100
00011000
01000100
00011000
01000100
,
00100010
00011000
10000001
01000100
00000000
10000001
00100010
01000100
,
01000100
10000001
01000100
00100010
10000001
00011000
00100010
01000100
,
00011000
01000100
10000001
00100010
01000100
00011000
10000001
01000100
,
00011000
00100010
10000001
01000100
00100010
00011000
01000100
10000001
01000100
00011000
00100010
01000100
10000001
00011000
00100010
10000001
,
00100010
00011000
01000100
00011000
00100010
10000001
00100010
00011000
01000100
10000001
01000100
00011000
00100010
00000000
00000000
00000000
,
00011000
01000100
10000001
01000100
00100010
00000000
01000100
00011000
,
00100010
00011000
00100010
00011000
,
01000100
00000000
00011000
00100010
10000001
00100010
01000100
00000000
,
00100010
00011000
01000100
00000000
00011000
00000000
01000100
00000000
,
00011000
01000100
10000001
01000100
00011000
00000000
10000001
00011000
,
01000100
00011000
10000001
00100010
,
01000100
00000000
00011000
01000100
10000001
00000000
00100010
00000000
,
00011000
00111010
00000000
01100110
,
00100010
00011000
01000100
00100010
02000200
00000000
03100310
10000001
,
01000100
00100010
02000200
00000000
03011300
00000000
01000100
00100010
,
10000001
00000000
00100010
01000100
20000002
00000000
30011003
01000100
,
10000001
00000000
00011000
00100010
10000001
00000000
00011000
00000000
,
00100010
10000001
01000100
00100010
02000200
00000000
03100310
00011000
,
01000100
00100010
02000200
00000000
13000301
00000000
01000100
00100010
,
00011000
00000000
00100010
01000100
00022000
00000000
10033001
01000100
,
00011000
00000000
10011001
00100010
00022000
00033000
10000001
00000000
,
00100010
01000100
00011000
10000001
,
01000100
00100010
00011000
10000001
,
00100010
01000100
00011000
00100010
,
00011000
00000000
00000000
10000001
00000000
10000001
00100010
00000000
,
01000100
00000000
00011000
01000100
00011000
00000000
00100010
00000000
,
01000100
00000000
10000001
01000100
10000001
00000000
00011000
00000000
,
10000001
00000000
00100010
01000100
00100010
00000000
01000100
00000000
,
00011000
10000001
00000000
10000001
00011000
00000000
00011000
00000000
,
01200120
00000000
20300032
00000000
30011003
00100010
00000000
20000002
,
01000100
30100013
00011000
10000001
,
01200120
00000000
00322030
00000000
10033001
00100010
00000000
00022000
,
01000100
00133010
10000001
10100011
,
01000100
00000000
00100010
00011000
01000100
00000000
00011000
00000000
,
11000101
00000000
10000001
00000000
01011100
00000000
00100010
01000100
,
00100010
10000001
00011000
10000001
,
01011100
00000000
00011000
00000000
10000001
01000100
10000001
00000000
,
11000101
01000100
01011100
00011000
,
10011001
00111010
10011001
10100011
,
10011001
11000101
10011001
10000001
,
01100110
01011100
01100110
00011000
,
01100110
11000101
01100110
10000001
,
00111010
10011001
01011100
00100010
,
11000101
10011001
10100011
01000100
,
10000001
00011000
01000100
00100010
10000001
00000000
00011000
10000001
,
00011000
10000001
00011000
00100010
10000001
00100010
00011000
00100010
,
01000100
10000001
00100010
00011000
00100010
01000100
00100010
10000001
,
00011000
00100010
01000100
00000000
10000001
00000000
00100010
00000000
,
00011000
00000000
00100010
00000000
10000001
00000000
01000100
00011000
,
01000100
10000001
01000100
00100010
00011000
01000100
00100010
10000001
,
00011000
00100010
01000100
10000001
00011000
00100010
01000100
00011000
,
01000100
10000001
00100010
01000100
00011000
00100010
10000001
00100010
,
00011000
10000001
00100010
01000100
00011000
10000001
00100010
00000000
,
00000000
00000000
20022002
00000000
,
00000000
00000000
00000000
00000000
,
00000000
00000000
00000000
00000000
,
00000000
00000000
00000000
00000000
,
00000000
00000000
00000000
00000000
,
00000000
00000000
00000000
00000000
,
00000000
00000000
00000000
00000000
,
00000000
00000000
00000000
00000000
,
00000000
00000000
00000000
00000000
,
00000000
00000000
00000000
00000000
,
30033003
00000000
00000000
00000000
,
00000000
00000000
00000000
00000000
00000000
00000000
00011000
00100010
,
00011000
00100010
10000001
00100010
10000001
01000100
10000001
01000100
,
10000001
00100010
01000100
00011000
10000001
01000100
00200020
00000000
,
00000000
00000000
00000000
00300030
;
