#VERSION:0.81;
#TITLE:PARANOiA (kskst mix);
#SUBTITLE:;
#ARTIST:180;
#TITLETRANSLIT:;
#SUBTITLETRANSLIT:;
#ARTISTTRANSLIT:;
#GENRE:;
#ORIGIN:;
#CREDIT:;
#BANNER:PARANOiA (kskst mix)-jacket.png;
#BACKGROUND:PARANOiA (kskst mix)-bg.png;
#PREVIEWVID:;
#JACKET:PARANOiA (kskst mix)-jacket.png;
#CDIMAGE:;
#DISCIMAGE:PARANOiA (kskst mix).png;
#LYRICSPATH:;
#CDTITLE:./CDTITLES/DanceDanceRevolution X3 VS 2ndMIX.png;
#MUSIC:PARANOiA (kskst mix).mp3;
#OFFSET:-0.138;
#SAMPLESTART:24.080;
#SAMPLELENGTH:15.000;
#SELECTABLE:YES;
#BPMS:0.000=190.010;
#STOPS:;
#DELAYS:;
#WARPS:;
#TIMESIGNATURES:0.000=4=4;
#TICKCOUNTS:0.000=4;
#COMBOS:0.000=1;
#SPEEDS:0.000=1.000=0.000=0;
#SCROLLS:0.000=1.000;
#FAKES:;
#LABELS:0.000=Song Start;
#BGCHANGES:;
#KEYSOUNDS:;
#ATTACKS:
;

//---------------dance-single - ----------------
#NOTEDATA:;
#CHARTNAME:;
#STEPSTYPE:dance-single;
#DESCRIPTION:;
#CHARTSTYLE:;
#DIFFICULTY:Hard;
#METER:17;
#RADARVALUES:1.000,1.000,0.573,0.546,0.537,671.000,63.000,60.000,0.000,0.000,0.000,0.000,0.000,1.000,1.000,0.573,0.546,0.537,671.000,63.000,60.000,0.000,0.000,0.000,0.000,0.000;
#CREDIT:;
#OFFSET:-0.138;
#BPMS:0.000=190.010
;
#STOPS:;
#DELAYS:;
#WARPS:;
#TIMESIGNATURES:0.000=4=4
;
#TICKCOUNTS:0.000=4
;
#COMBOS:0.000=1
;
#SPEEDS:0.000=1.000=0.000=0
;
#SCROLLS:0.000=1.000
;
#FAKES:;
#LABELS:0.000=Song Start
;
#NOTES:
0000
0000
0000
0000
,
0000
0000
0000
0000
,
0000
0000
0000
0000
,
0000
0000
0000
0000
,
0000
0000
0000
0000
,
0000
0000
0000
0000
,
0000
0000
0000
0000
,
1100
0000
0010
0001
0001
0000
1000
0000
,
0100
0000
0001
1000
1000
0000
0010
0000
,
0100
1100
0101
1100
,
0010
0000
0000
0000
1000
0100
1000
0100
1000
0000
0000
0000
0110
0000
0000
0000
,
1001
0000
0100
0000
0010
1000
0010
1000
0100
0000
1000
0000
0001
0100
0001
0100
,
0010
0000
1000
0001
0010
0000
0100
0000
1000
0000
0010
0000
0100
0000
0100
0000
,
0010
0000
1000
0000
0001
0010
0001
0010
0100
0000
1000
0000
0010
1000
0010
1000
,
0001
0000
0100
0010
1000
0000
0001
0000
0100
0000
0010
0100
0010
0000
1000
0000
,
1001
0000
0000
1000
0001
0000
0010
0100
1000
0000
0000
0001
1000
0000
0100
0010
,
0001
0000
0000
0000
0101
0000
0000
0000
1010
0000
0000
0000
0110
0000
1000
0100
,
1000
0000
0000
0001
0100
0000
0010
0000
0110
0000
0001
0100
0001
0000
0010
0000
,
2200
0000
0000
0000
3300
0000
0010
0010
,
1010
0001
0100
0010
1000
0100
0010
0001
,
0100
0010
1000
0100
1000
0001
1000
0100
,
0010
0100
2000
0010
3002
0010
2003
0010
,
3002
0010
2003
0010
3002
0013
1000
0001
,
0200
0302
2003
3020
0130
0001
0100
0010
,
1000
1100
0010
0001
0100
0001
1000
0100
,
0100
0000
2000
0100
3002
0100
2003
3100
,
0110
0000
0000
0000
0001
0010
0100
1000
0001
0000
0010
0000
1000
0000
0010
0000
,
0101
0000
0010
0000
0001
0000
0101
0000
1000
0000
0100
0000
0010
0000
0001
1000
,
0010
0000
0100
0000
0100
0000
0010
0000
0010
0000
0100
0000
0001
1000
0100
0000
,
0010
0000
1100
0000
0010
0000
0101
0000
0010
0000
1000
0000
0001
0000
0010
0001
,
0100
0000
0001
0000
0001
0000
1000
0000
1000
0000
0100
0000
0010
0001
1000
0000
,
1010
0000
1010
0000
0000
0000
0000
0000
0011
0000
0011
0000
1000
0100
0010
0001
,
0100
0000
1000
0000
1000
0000
0100
0000
0010
0000
1000
0001
0100
0001
1000
0000
,
1000
0010
1000
0000
0001
0100
0001
0000
1000
0100
1000
0000
0001
0010
0001
0000
,
0100
0000
0110
0000
1000
0100
0010
0001
0100
0010
0100
0001
0010
0100
1000
0100
,
0001
0001
0100
0001
0000
0010
0100
0000
,
1000
0100
0000
0011
0001
0100
0010
0010
,
1000
0000
1000
0000
0100
0000
1000
0000
0000
0000
0010
0000
0100
0010
0100
0000
,
0001
0000
0100
0000
0000
0000
1010
0000
0010
1000
0100
0000
0001
0000
0100
0000
,
1000
1000
0001
1000
0000
0100
0010
1000
,
1000
0000
0100
0000
0000
0000
0110
0000
0000
0000
1001
0000
0001
0000
0010
0001
,
0100
0000
0100
0000
0010
0000
0100
0000
0000
0000
1000
0000
0100
0010
0100
0000
,
0011
0000
1010
0000
0011
0000
0010
0010
,
1000
0000
0010
0000
0100
0001
0100
0001
0100
0000
0010
1000
0010
1000
0010
0000
,
0100
0001
0100
0000
0010
0000
1000
0001
0010
0000
0100
0000
1000
0100
0010
0000
,
0100
0000
0010
0000
0001
0010
0001
0010
0001
0000
1000
0001
1000
0001
0100
0000
,
0001
1000
0001
0000
0100
0000
0001
1000
0010
0000
0100
0000
0010
0100
0001
0100
,
0001
0000
0010
0000
0001
0010
0100
1000
0100
0000
0010
0000
0001
0100
0010
0000
,
1000
0100
1000
0000
0010
0000
0100
0001
0010
0000
0010
0001
0100
0010
0100
0000
,
0010
0000
1000
0010
1000
0001
0100
0010
0100
0001
0010
0001
1000
0001
1000
0010
,
0200
0000
0300
0000
0200
0000
0300
0000
0200
0000
0300
0000
0200
0300
0200
0000
,
0310
0000
0000
0000
0001
0010
1000
0000
,
0000
0000
0001
0100
1000
0100
0001
0000
,
1000
0000
0010
0000
1000
0000
0010
0000
0001
0000
0010
0000
1000
0000
0001
1000
,
0001
2000
3200
0302
0203
2300
3020
0230
,
0301
0010
0001
0010
1000
0010
1000
0010
,
0001
0000
1000
0001
1000
0000
0100
0000
0100
0000
1000
0001
1000
0001
1000
0010
,
0100
0001
0010
0001
0100
1000
0100
0010
,
1000
0002
0023
2030
3020
0230
2300
3020
,
0130
0001
1000
0100
0001
0100
1000
0001
,
0101
0000
1100
0000
0220
0330
0220
0330
,
0010
0000
1000
0000
0100
0000
0010
0001
0100
0000
0010
0000
1000
0000
0001
1000
,
0100
0020
0032
2003
3020
0230
0302
2003
,
3001
0000
0010
0000
0001
0000
0100
0010
1000
0000
0100
0000
0010
0000
0001
1000
,
0100
0010
0001
1100
0010
0100
0011
0100
,
0010
0000
1020
1030
0100
0000
0021
0031
,
0100
0000
2000
0000
3200
0000
0302
0000
0023
0000
0230
0000
0320
0000
0031
1000
,
0001
0000
1100
0000
0001
0100
0001
0010
,
1001
1000
1100
0100
0101
0001
0011
0010
,
0110
0000
0100
0000
0010
0000
1000
0001
1000
0000
0100
0000
0010
0000
0100
1000
,
0100
0010
0001
0101
1000
0010
1010
0000
,
0001
0000
0100
0000
1000
0000
0100
0010
0100
0000
0001
0000
1000
0000
0010
0100
,
0001
0010
0001
0011
0100
1000
1100
0000
,
0001
0000
1000
0000
0010
0000
1000
0001
0100
0000
0001
0000
0210
0000
0010
0000
,
0310
0000
0001
1001
1000
0100
0110
0000
,
1000
0000
0010
0000
0100
0000
0001
1000
0001
0000
0010
0000
0100
0000
0010
0001
,
0100
0010
1000
1100
0010
0001
0011
0000
,
1200
0010
0300
0000
0201
0010
0300
0000
,
1200
0310
0201
0310
1200
0310
0201
0310
,
1000
0000
0100
0000
0001
0000
0100
0000
1000
0000
0100
0000
0010
0001
0100
0010
,
0100
0000
0010
0000
0100
0000
0010
1000
0100
0000
0010
0001
0100
0000
0010
0000
,
1000
0100
1000
0100
0010
0001
0010
0001
1000
0010
1000
0010
0100
0001
0100
0001
,
1000
0010
1000
0001
0100
0001
1000
0010
1000
0100
1000
0001
0100
0001
0010
0100
,
1000
0100
0010
0001
0100
0010
1000
0010
0100
0001
1000
0010
0100
0001
0010
0100
,
1000
0000
0000
0011
0000
0000
0110
0000
,
1001
0000
0000
0000
;

//---------------dance-double - ----------------
#NOTEDATA:;
#CHARTNAME:;
#STEPSTYPE:dance-double;
#DESCRIPTION:;
#CHARTSTYLE:;
#DIFFICULTY:Hard;
#METER:17;
#RADARVALUES:1.000,1.000,0.555,0.491,0.505,661.000,61.000,54.000,0.000,0.000,0.000,0.000,0.000,1.000,1.000,0.555,0.491,0.505,661.000,61.000,54.000,0.000,0.000,0.000,0.000,0.000;
#CREDIT:;
#OFFSET:-0.138;
#BPMS:0.000=190.010
;
#STOPS:;
#DELAYS:;
#WARPS:;
#TIMESIGNATURES:0.000=4=4
;
#TICKCOUNTS:0.000=4
;
#COMBOS:0.000=1
;
#SPEEDS:0.000=1.000=0.000=0
;
#SCROLLS:0.000=1.000
;
#FAKES:;
#LABELS:0.000=Song Start
;
#NOTES:
00000000
00000000
00000000
00000000
,
00000000
00000000
00000000
00000000
,
00000000
00000000
00000000
00000000
,
00000000
00000000
00000000
00000000
,
00000000
00000000
00000000
00000000
,
00000000
00000000
00000000
00000000
,
00000000
00000000
00000000
00000000
,
00010100
00000000
00001000
00000100
00000100
00000000
00000010
00000000
,
00000001
00000000
00000100
00000010
00000010
00000000
00001000
00000000
,
00000010
00001100
00011000
00110000
,
01000000
00000000
00000000
00000000
10000000
00010000
10000000
00010000
10000000
00000000
00000000
00000000
01000000
00000000
00000000
00000000
,
10010000
00000000
01000000
00000000
00100000
10000000
00100000
10000000
00010000
00000000
00100000
00000000
00001000
00100000
00001000
00100000
,
00010000
00000000
01000000
00010000
00100000
00000000
00001000
00000000
00010000
00000000
00001000
00000000
00000100
00000000
00000001
00000000
,
00000010
00000000
00000100
00000000
00001000
00000100
00001000
00000100
00000010
00000000
00000001
00000000
00000100
00000010
00000100
00000010
,
00001000
00000000
00000010
00001000
00000100
00000000
00010000
00000000
00001000
00000000
00010000
00001000
00010000
00000000
00001000
00000000
,
00011000
00000000
00000000
00001000
01000000
00000000
00100000
10000000
01000000
00000000
00000000
10000000
00010000
00000000
00100000
00010000
,
01000000
00000000
00000000
00000000
01100000
00000000
00000000
00000000
11000000
00000000
00000000
00000000
00110000
00000000
00001000
00010000
,
00001000
00000000
00000000
00010000
00000100
00000000
00000010
00000000
00000001
00000000
00001000
00000010
00001000
00000000
00000001
00000000
,
00002002
00000000
00000000
00000000
00003003
00000000
00000100
00000100
,
00001001
00000010
00000001
00000100
00000001
00001000
00000100
00000001
,
00000100
00000010
00000001
00000100
00000010
00000100
00001000
00010000
,
00011000
00000000
00002000
00013000
01000000
00010000
00020000
00031000
,
00000100
00001000
00002000
00013000
00100000
00010000
00020000
00031000
,
00000020
00000032
00000203
00002300
00013000
00100000
10000000
00100000
,
01000000
01100000
00010000
10000000
01000000
00100000
00010000
10000000
,
10010000
00000000
20000000
31000000
00020000
01030000
20000000
31000000
,
01100000
00000000
00000000
00000000
00010000
00100000
00001000
00010000
00000100
00000000
00000100
00000000
00000010
00000000
00000100
00000000
,
00000011
00000000
00000100
00000000
00001000
00000000
00001010
00000000
00000100
00000000
00000001
00000000
00000100
00000000
00000010
00000100
,
00000001
00000000
00001000
00000000
00000010
00000000
00000100
00000000
00001000
00000000
00010000
00000000
00001000
00000000
00100000
00001000
,
00010000
00000000
00011000
00000000
01000000
00000000
00110000
00000000
00010000
00000000
01000000
00000000
00100000
00000000
10000000
00010000
,
01000000
00000000
00010000
00000000
00010000
00000000
10000000
00000000
10000000
00000000
01000000
00000000
00100000
00001000
00010000
00000000
,
00010100
00000000
00010100
00000000
00000000
00000000
00000000
00000000
01001000
00000000
01001000
00000000
00010000
00100000
00001000
00010000
,
00000100
00000000
00000010
00000000
00000001
00000000
00000100
00000000
00000010
00000000
00001000
00000010
00001000
00000010
00000100
00000000
,
00000001
00000100
00000001
00000000
00001000
00000100
00001000
00000000
00000100
00010000
00000100
00000000
00010000
00001000
00010000
00000000
,
00001000
00000000
00100000
00000000
01000000
10000000
01000000
10000000
00100000
01000000
00010000
01000000
00010000
00100000
00001000
00010000
,
00001000
00001000
00010000
00001000
00000000
00100000
01000000
00000000
,
00010000
00001000
00000000
00000110
00000100
00001000
00000001
00000001
,
00000010
00000000
00000010
00000000
00000100
00000000
00000010
00000000
00000000
00000000
00000001
00000000
00000100
00000010
00000100
00000000
,
00000001
00000000
00000100
00000000
00001000
00000000
00010000
00000000
01000000
00100000
01000000
00000000
00010000
00000000
10000000
00000000
,
00100000
00100000
01000000
00100000
00000000
10000000
01000000
01000000
,
00100000
00000000
00010000
00000000
00000000
00000000
00101000
00000000
00000000
00000000
01010000
00000000
00100000
00000000
10000000
00010000
,
01000000
00000000
01000000
00000000
00010000
00000000
00100000
00000000
00000000
00000000
00001000
00000000
00010000
00001000
00010000
00000000
,
00010100
00000000
00001010
00000000
00000101
00000000
00000010
00000010
,
00000001
00000000
00000100
00000000
00000010
00001000
00000010
00001000
00000100
00000000
00000010
00000001
00000010
00000001
00000100
00000000
,
00000001
00001000
00000001
00000000
00000100
00000000
00000010
00001000
00000100
00000000
00010000
00000000
00000100
00010000
00001000
00000000
,
00100000
00000000
00010000
00000000
01000000
00010000
01000000
00010000
00100000
00000000
00010000
10000000
00010000
10000000
01000000
00000000
,
10000000
00010000
10000000
00000000
00100000
00000000
01000000
00010000
00100000
00000000
00010000
00000000
10000000
01000000
10000000
01000000
,
00100000
00000000
01000000
00000000
00100000
00001000
00010000
00001000
00010000
00000000
00000100
00000000
00010000
00000100
00001000
00000000
,
00000010
00001000
00000010
00000000
00000100
00000000
00000001
00000100
00000010
00000000
00001000
00000100
00000010
00000100
00000010
00000000
,
00000001
00000000
00000100
00000001
00000100
00000010
00001000
00000010
00001000
00000100
00010000
00000100
00010000
00001000
00010000
00001000
,
00200000
00300000
00200000
00300000
00200000
00300000
00100000
00100000
,
10010000
00000000
00000000
00000000
10000000
01000000
00010000
00000000
,
00000000
00000000
00001000
00000010
00000001
00000010
00001000
00000000
,
00010000
00000000
00000100
00000000
00000010
00000000
00000100
00000000
00001000
00000000
00000100
00000000
00000010
00000000
00000001
00001000
,
00000001
00000200
00002300
00023000
00230000
02300000
03020000
20030000
,
31000000
00100000
01000000
00010000
01000000
10000000
01000000
00100000
,
00010000
00000000
10000000
00010000
10000000
00000000
01000000
00000000
00100000
00000000
00001000
00010000
00001000
00010000
00001000
00010000
,
00000100
00000010
00000100
00001000
00000010
00000001
00000010
00000100
,
00000001
00000020
00002030
00023000
00230000
20300000
32000000
03020000
,
00031000
00100000
00010000
01000000
00001000
00100000
00010000
01000000
,
01010000
00000000
00101000
00000000
00020200
00030300
00002020
00003030
,
00000101
00000000
00000001
00000000
00000100
00000000
00000010
00001000
00000100
00000000
00000010
00000000
00000001
00000000
00000100
00000001
,
00000010
00000002
00002003
00003200
00020300
00032000
02003000
03200000
,
10300000
00000000
01000000
00000000
00100000
00000000
00010000
01000000
00100000
00000000
10000000
00000000
01000000
00000000
00100000
00010000
,
01000000
00010000
10000000
10010000
00100000
00001000
00101000
00000000
,
00011000
00000000
00011000
00010000
00000010
00000000
00011000
00001000
,
01000000
00000000
00020000
00000000
20030000
00000000
32000000
00000000
03020000
00000000
00032000
00000000
00003200
00000000
00000301
00001000
,
00000001
00000000
00000001
00000100
00000010
00001000
00000010
00000100
,
00000110
00000010
00001010
00001000
00001100
00000100
00010100
00010000
,
00011000
00000000
00000000
00000000
00100000
00000000
00001000
00010000
00001000
00000000
00100000
00000000
00010000
00000000
01000000
00000000
,
00010000
00100000
01000000
11000000
00100000
00010000
00101000
00000000
,
00011000
00000000
00000000
00000000
00000010
00000000
00001000
00000100
00001000
00000000
00000010
00000000
00000001
00000000
00001000
00000000
,
00000100
00000010
00001000
00001100
00000010
00000001
00000011
00000000
,
00000101
00000000
00000000
00000000
00000010
00000000
00001000
00000100
00010000
00000000
00001000
00000000
00100000
00000000
00100000
00000000
,
00100000
00010000
01000000
01010000
00100000
10000000
10100000
00000000
,
01000000
00000000
00000000
00000000
00100000
00000000
00001000
00010000
00001000
00000000
01000000
00000000
00100000
00000000
10000000
00000000
,
00010000
01000000
00001000
00011000
00000100
00000010
00000110
00000000
,
00000011
00000100
00000000
00000000
00000110
00001000
00000000
00000000
,
00001100
00020000
00030020
00000032
00000023
00002030
00003200
00020300
,
00031000
00000000
00100000
00000000
00010000
00000000
01000000
00000000
00010000
00000000
10000000
00000000
00100000
10000000
01000000
00100000
,
01000000
00000000
00100000
00000000
00010000
00000000
01000000
00010000
01000000
00000000
00100000
10000000
01000000
00000000
00100000
00000000
,
00010000
00100000
00001000
00000000
00010000
00001000
00100000
00000000
00001000
00010000
00000100
00000000
00001000
00000010
00000100
00000000
,
00000010
00000100
00000010
00000100
00000001
00001000
00000001
00001000
00000100
00000010
00000001
00001000
00000100
00001000
00000100
00010000
,
00000100
00010000
00001000
00100000
00001000
00100000
00010000
01000000
00100000
01000000
00010000
10000000
00100000
10000000
01000000
00100000
,
00010000
00000000
00000000
01100000
00000000
00000000
00011000
00000000
,
00000110
00000000
00000000
00000000
;

//---------------dance-single - ----------------
#NOTEDATA:;
#CHARTNAME:;
#STEPSTYPE:dance-single;
#DESCRIPTION:;
#CHARTSTYLE:;
#DIFFICULTY:Beginner;
#METER:4;
#RADARVALUES:0.211,0.232,0.064,0.027,0.000,152.000,7.000,3.000,0.000,0.000,0.000,0.000,0.000,0.211,0.232,0.064,0.027,0.000,152.000,7.000,3.000,0.000,0.000,0.000,0.000,0.000;
#CREDIT:;
#OFFSET:-0.138;
#BPMS:0.000=190.010
;
#STOPS:;
#DELAYS:;
#WARPS:;
#TIMESIGNATURES:0.000=4=4
;
#TICKCOUNTS:0.000=4
;
#COMBOS:0.000=1
;
#SPEEDS:0.000=1.000=0.000=0
;
#SCROLLS:0.000=1.000
;
#FAKES:;
#LABELS:0.000=Song Start
;
#NOTES:
0000
0000
0000
0000
,
0000
0000
0000
0000
,
0000
0000
0000
0000
,
0000
0000
0000
0000
,
0000
0000
0000
0000
,
0000
0000
0000
0000
,
0000
0000
0000
0000
,
0010
0000
0000
0000
,
0100
0000
0000
0000
,
0001
0000
0000
0000
,
1000
0000
0000
0000
,
0100
0000
0100
0000
,
0001
0000
0000
0000
,
0010
0000
0010
0000
,
1000
0000
0000
0000
,
0010
0000
0010
0000
,
0100
0000
0100
0000
,
0001
0000
1000
0000
,
1001
0000
0000
0000
,
0001
0000
0001
0000
,
0100
0000
0100
0000
,
1000
0000
1000
0000
,
1000
0000
0000
0000
,
0100
0000
0100
0000
,
1000
0000
1000
0000
,
0001
0000
0001
0000
,
0001
0000
0000
0000
,
0010
0000
0010
0000
,
1000
0000
1000
0000
,
0001
0000
0001
0000
,
0100
0000
0010
0000
,
0100
0000
0100
0000
,
0001
0000
1000
0000
,
0100
0100
0100
0100
,
0020
0000
0000
0030
,
1000
0000
0000
0000
,
0100
0000
0000
0000
,
0001
0000
0000
0000
,
0100
0000
0000
0000
,
0010
0000
0000
0000
,
1000
0000
0000
0000
,
0010
0000
0000
0000
,
0001
0001
0001
0001
,
0100
0000
0000
0000
,
0001
0000
0000
0000
,
0010
0000
0000
0000
,
1000
0000
0000
0000
,
0100
0000
0100
0000
,
0010
0000
0010
0000
,
0001
0000
0001
0000
,
0010
0010
0010
0000
,
0100
0000
0100
0100
,
0000
0001
0001
0001
,
1000
0000
1000
0000
,
1000
1000
1000
0000
,
0010
0000
0010
0000
,
0010
0010
0010
0000
,
0001
0000
0001
0000
,
0001
0001
0001
0000
,
0100
0000
0100
0000
,
0010
0010
0010
0000
,
1000
0000
1000
0000
,
0100
0000
0010
0000
,
0001
0000
0001
0000
,
0100
0000
0010
0000
,
1000
0000
0001
0000
,
0100
0100
0100
0000
,
0001
0000
1000
0000
,
2002
0000
0000
3003
,
1000
0000
0100
0000
,
0010
0000
0001
0001
,
0001
0000
0010
0000
,
1000
0000
0100
0000
,
0001
0000
1000
0000
,
0010
0000
1000
1000
,
1000
0000
0100
0000
,
0001
0000
0100
0000
,
1001
0000
1001
0000
,
0001
1000
1001
0000
,
0100
0000
0010
0000
,
1000
0000
0001
0000
,
0100
0100
0100
0000
,
0001
0001
0001
0000
,
1000
1000
1000
0000
,
1001
0000
0000
0000
,
1001
0000
0000
0000
;

//---------------dance-single - ----------------
#NOTEDATA:;
#CHARTNAME:;
#STEPSTYPE:dance-single;
#DESCRIPTION:;
#CHARTSTYLE:;
#DIFFICULTY:Easy;
#METER:9;
#RADARVALUES:0.489,0.619,0.328,0.228,0.000,315.000,36.000,25.000,0.000,0.000,0.000,0.000,0.000,0.489,0.619,0.328,0.228,0.000,315.000,36.000,25.000,0.000,0.000,0.000,0.000,0.000;
#CREDIT:;
#OFFSET:-0.138;
#BPMS:0.000=190.010
;
#STOPS:;
#DELAYS:;
#WARPS:;
#TIMESIGNATURES:0.000=4=4
;
#TICKCOUNTS:0.000=4
;
#COMBOS:0.000=1
;
#SPEEDS:0.000=1.000=0.000=0
;
#SCROLLS:0.000=1.000
;
#FAKES:;
#LABELS:0.000=Song Start
;
#NOTES:
0000
0000
0000
0000
,
0000
0000
0000
0000
,
0000
0000
0000
0000
,
0000
0000
0000
0000
,
0000
0000
0000
0000
,
0000
0000
0000
0000
,
0000
0000
0000
0000
,
0100
0010
1000
0010
,
0100
0001
0010
0001
,
0100
1000
1000
1000
,
0100
0020
0130
0010
,
1001
0010
0100
0001
,
1000
0010
0100
1000
,
0001
0100
0010
1000
,
0001
0010
0100
0010
,
1001
1001
0101
0101
,
0011
0011
0110
0110
,
1100
0000
1001
0000
1000
0100
0010
0000
,
2002
0000
3003
0000
,
0100
0001
1000
0010
,
0100
1000
0100
0010
,
0001
1000
1000
0001
,
0001
1000
1000
0001
,
0100
1001
1000
0010
,
0100
0010
0100
0000
0001
0000
0010
0000
,
0100
1010
0100
0011
,
0100
0000
0010
0010
0100
0000
0000
0000
,
2000
3100
0010
0001
,
0200
0301
0010
1000
,
0200
0310
0001
1000
,
0020
0130
0001
0010
,
0100
0100
0000
0000
0010
0010
0000
0000
,
1001
0000
0010
0001
,
1000
0001
1000
0001
1000
0000
0010
0000
,
0220
0000
0000
0330
,
0001
0000
0000
0100
0000
0000
0010
0000
,
0000
1000
0000
0010
0000
0100
0100
0000
,
0001
0000
0000
1000
0000
0000
0100
0000
,
0100
0000
0000
0010
0000
0000
0010
0000
,
1000
0000
0000
0100
0000
0000
0010
0000
,
0000
0001
0000
0100
0000
0010
0010
0000
,
0100
0000
0000
0001
0000
0000
1000
0000
,
0010
0000
0010
0000
0100
0000
0001
1000
,
0001
0000
0000
0100
0000
0000
0010
0000
,
1000
0000
0000
0100
0000
0000
0010
0000
,
0100
0000
0000
0001
0000
0000
1000
0000
,
0010
0000
0000
0001
0000
1000
0001
0000
,
0100
0000
0000
0010
0000
0000
1000
0000
,
0001
0000
0000
1000
0000
0010
0100
0000
,
0010
0000
0000
0100
0000
0000
0010
0000
,
0100
0000
0100
0000
0100
0000
0100
0010
,
0100
0000
0001
1000
,
0000
1000
0001
1001
,
1000
0010
0000
0100
0000
0010
0000
1000
,
0000
0001
0000
1000
0100
0010
0001
0000
,
1000
0010
0000
0100
0000
0001
0000
1000
,
0000
0110
0000
0001
0000
0110
0000
1000
,
0001
1000
0000
0001
0000
0010
0000
1000
,
0000
0010
0000
0001
0100
0010
1000
0000
,
0001
0100
0000
1000
0000
0100
0000
0001
,
0010
0010
0002
2003
,
3001
0001
0000
1000
0000
0001
0000
0001
,
0000
1000
0000
0001
0010
0100
1000
0000
,
0010
0010
0000
0100
0000
0001
0000
1000
,
0000
0010
0000
1000
0010
0100
0001
0000
,
1000
1001
0001
0110
,
0010
0001
0100
1000
,
0010
0100
0010
1000
,
0002
0023
0230
2300
,
3010
0001
0100
1000
,
0010
0100
1001
1010
,
1000
0100
0001
0010
,
1000
0100
0011
1001
,
0001
0010
1000
0100
,
0001
0100
0011
1100
,
1000
0010
0001
0100
,
1000
0010
0101
1010
,
1000
1000
0000
0000
0001
0001
0000
0000
,
1100
0101
0011
1010
,
1000
0100
1000
0000
0001
0100
0001
0000
,
1000
0100
0001
0100
1000
0000
0010
0000
,
2000
3020
0230
0302
,
2003
3200
0320
0032
,
2003
0000
3002
0000
1003
0100
0010
0001
,
0100
0000
0000
0110
0000
0000
1001
0000
,
0100
0000
0000
0000
;

//---------------dance-single - ----------------
#NOTEDATA:;
#CHARTNAME:;
#STEPSTYPE:dance-single;
#DESCRIPTION:;
#CHARTSTYLE:;
#DIFFICULTY:Medium;
#METER:13;
#RADARVALUES:0.705,0.696,0.328,0.118,0.000,493.000,36.000,13.000,0.000,0.000,0.000,0.000,0.000,0.705,0.696,0.328,0.118,0.000,493.000,36.000,13.000,0.000,0.000,0.000,0.000,0.000;
#CREDIT:;
#OFFSET:-0.138;
#BPMS:0.000=190.010
;
#STOPS:;
#DELAYS:;
#WARPS:;
#TIMESIGNATURES:0.000=4=4
;
#TICKCOUNTS:0.000=4
;
#COMBOS:0.000=1
;
#SPEEDS:0.000=1.000=0.000=0
;
#SCROLLS:0.000=1.000
;
#FAKES:;
#LABELS:0.000=Song Start
;
#NOTES:
0000
0000
0000
0000
,
0000
0000
0000
0000
,
0000
0000
0000
0000
,
0000
0000
0000
0000
,
0000
0000
0000
0000
,
0000
0000
0000
0000
,
0000
0000
0000
0000
,
1001
0000
0010
0001
0100
0000
0001
0000
,
0010
0000
0001
0100
1000
0000
0100
0000
,
0020
1000
0001
1030
,
0010
0000
0100
0100
0100
0000
0110
0000
,
1001
0000
0100
1000
0001
0000
0001
1000
,
0100
0001
0100
0010
0001
0000
0001
0100
,
0010
0000
0010
1000
0100
0000
0100
1000
,
0001
0010
0100
0010
0001
0000
0100
0001
,
1001
0000
1000
0100
0001
0000
0001
0010
,
1000
1010
1001
0101
,
0001
1000
0010
0100
0001
0010
0100
0000
,
2002
0000
0000
0000
3003
0000
0100
0100
,
0001
1000
0010
1000
0001
1000
0100
0010
,
0001
0100
0001
0010
0001
1000
0001
0010
,
0100
0000
0001
0100
1000
0000
0001
0100
,
1000
0100
0001
0100
1000
0000
0001
1000
,
0001
0010
1000
0100
0001
0000
0001
0100
,
1000
0010
0000
0010
1000
0001
0100
0010
,
0100
0000
1000
0100
0001
0100
1000
0100
,
0001
0000
1000
0001
1001
0000
1001
0000
,
0001
0010
0100
0010
0001
0000
0100
1000
,
0100
0001
0010
0001
1000
0000
0001
0010
,
0100
1000
0100
0001
0100
0000
1000
0100
,
0010
0001
0100
0010
1000
0010
0100
0000
,
0001
1001
0000
0000
0100
0110
0000
0000
,
1000
0100
0001
0010
0100
0010
0001
0000
,
0001
1000
0100
0010
0001
1000
0100
0000
,
0110
0100
1000
0100
0010
0001
0100
0010
,
1000
1000
0010
1000
0000
0010
1000
0000
,
0001
0010
0000
1001
0000
0010
0100
0000
,
0001
0001
0010
0001
0000
0100
0010
0000
,
1000
0010
0000
0110
0000
0001
1000
0000
,
0001
0001
1000
0001
0000
0010
0100
0000
,
1000
0001
0000
0101
0000
0001
1000
0100
,
0010
0010
0100
0010
0000
0001
0010
0000
,
1001
0000
0110
0000
1001
0000
0010
0100
,
0010
1000
1000
0010
0000
0110
0100
0000
,
0010
0100
0000
1001
0100
0010
0001
0000
,
0100
0001
0001
0100
0000
0011
0001
0000
,
0100
0010
0000
1010
0100
0001
1000
0010
,
1000
0100
0100
1000
0000
1010
0100
0000
,
1000
0001
0000
0011
0001
0100
0010
1000
,
0100
0010
0010
0100
0000
0011
0100
0000
,
0010
0000
0001
0000
0100
0000
1000
0010
,
0100
0000
1200
0301
,
0000
1020
0001
1030
,
0001
0100
0001
0100
1000
0100
1000
0100
,
0001
1000
0010
0001
0010
1000
0100
0001
,
0100
0010
0100
0010
0001
0010
0001
0010
,
0001
0100
0100
0010
1000
0100
0100
0000
,
1000
0001
1000
0001
0010
0100
0010
0100
,
1000
0001
0010
1000
0001
0100
1000
0001
,
1000
0010
1000
0010
0001
0010
0001
0010
,
0100
0000
0100
0000
2200
3300
0202
0303
,
0100
0001
0100
0001
1000
0010
1000
0010
,
1000
0001
0010
1000
0010
0001
0100
1000
,
0100
0010
0100
0010
1000
0001
1000
0001
,
0010
0100
1000
0001
0100
0010
1000
0100
,
0010
0000
0001
0001
0100
0000
1000
1000
,
0100
0001
0100
1000
0010
0001
0010
1000
,
1000
0000
0011
0000
1000
0010
1000
0100
,
1000
1000
0100
0100
0010
0010
0001
0001
,
0100
0020
0000
1000
0000
0100
0000
0001
,
0000
1030
0001
0100
0010
1000
0100
0000
,
1000
0020
0000
0001
0000
1000
0000
0001
,
0000
0130
0001
0010
0100
1000
0001
0000
,
1000
0200
0000
0001
0000
1000
0000
0010
,
0000
1300
0010
0001
0010
1000
0100
0000
,
0001
0200
0000
1000
0000
0001
0000
0010
,
0000
1300
0010
0001
1000
0100
0010
0000
,
0001
0101
0000
0000
1000
1100
0000
0000
,
0001
0100
1000
0100
0001
0100
1000
0100
,
0001
0010
1000
0010
0001
0010
0100
0010
,
0001
0100
1000
0010
0001
0100
1000
0100
,
0001
0001
0100
0100
0010
0010
1000
1000
,
0001
0010
0010
0010
0001
0100
1000
0100
,
0001
1000
0100
0010
0001
0001
0010
0100
,
1000
0000
0000
1100
0000
0000
0110
0000
,
1001
0000
0000
0000
;

//---------------dance-double - ----------------
#NOTEDATA:;
#CHARTNAME:;
#STEPSTYPE:dance-double;
#DESCRIPTION:;
#CHARTSTYLE:;
#DIFFICULTY:Easy;
#METER:9;
#RADARVALUES:0.488,0.580,0.364,0.173,0.000,316.000,40.000,19.000,0.000,0.000,0.000,0.000,0.000,0.488,0.580,0.364,0.173,0.000,316.000,40.000,19.000,0.000,0.000,0.000,0.000,0.000;
#CREDIT:;
#OFFSET:-0.138;
#BPMS:0.000=190.010
;
#STOPS:;
#DELAYS:;
#WARPS:;
#TIMESIGNATURES:0.000=4=4
;
#TICKCOUNTS:0.000=4
;
#COMBOS:0.000=1
;
#SPEEDS:0.000=1.000=0.000=0
;
#SCROLLS:0.000=1.000
;
#FAKES:;
#LABELS:0.000=Song Start
;
#NOTES:
00000000
00000000
00000000
00000000
,
00000000
00000000
00000000
00000000
,
00000000
00000000
00000000
00000000
,
00000000
00000000
00000000
00000000
,
00000000
00000000
00000000
00000000
,
00000000
00000000
00000000
00000000
,
00000000
00000000
00000000
00000000
,
00000010
00001000
00000001
00000100
,
00000010
00001000
00000100
00010000
,
00001000
00100000
00100000
00100000
,
01000000
00200000
01300000
01100000
,
10010000
01000000
00100000
10000000
,
00010000
01000000
00010000
00100000
,
00001000
00000100
00000010
00001000
,
00000001
00000100
00000010
00000100
,
00001001
00000100
00001010
00001000
,
00011000
00010000
00110000
01000000
,
10100000
10010000
01000000
00100000
,
20020000
00000000
30030000
00000000
,
01000000
00010000
10000000
00100000
,
01000000
00010000
00100000
01000000
,
00010000
00001000
00001000
00010000
,
00010000
00001000
00001000
00010000
,
00001000
00000100
00000010
00001000
,
00000001
00000100
00000001
00000000
00001000
00000000
00000010
00000000
,
00001000
00000101
00000010
00001100
,
00010000
00000000
00001000
00010000
00001000
00000000
00011000
00000000
,
01000000
00100000
01000000
00010000
,
01000000
00100000
10000000
01000000
,
00010000
00001000
00010000
00001000
,
00000100
00000010
00001000
00000100
,
00000010
00000010
00000000
00000000
00000001
00000001
00000000
00000000
,
00001001
00000000
00000100
00000001
,
00001000
00000010
00001000
00000000
00000100
00000000
00001000
00000000
,
00020200
00000000
00000000
00030300
,
00001000
00000000
00000000
00010000
00000000
00000000
01000000
00000000
,
00000000
00100000
00000000
01000000
00000000
10000000
01000000
00000000
,
00010000
00000000
00000000
00001000
00000000
00000000
01000000
00000000
,
00100000
00000000
00000000
00100000
00000000
00000000
00101000
00000000
,
00010000
00000000
00000000
00001000
00000000
00000000
00000100
00000000
,
00000000
00000010
00000000
00000100
00000000
00000001
00000100
00000000
,
00001000
00000000
00000000
00010000
00000000
00000010
00000100
00000000
,
00000001
00000000
00000010
00000000
00001000
00000000
00010000
00001000
,
00010000
00000000
00000000
00000010
00000000
00000000
00000100
00000000
,
00001000
00000000
00000000
00010000
00000000
00000000
00100000
00000000
,
10000000
00000000
00000000
01000000
00000000
00000000
00010000
00000000
,
00001000
00000000
00000000
00010000
00000000
01000000
00100000
00000000
,
01000000
00000000
00000000
00010000
00000000
00000000
00001000
00000000
,
00000010
00000000
00000000
00000001
00000000
00000100
00000010
00000000
,
00000100
00000000
00000000
00000001
00000000
00000000
00000100
00000000
,
00001000
00000000
00001000
00000000
00001000
00000000
00001000
00010000
,
00001000
00000000
00010000
00001000
,
00000000
00010000
01000000
10000000
,
01000000
01000000
00000000
00100000
00000000
01000000
00000000
00100000
,
00000000
00010000
00000000
10000000
00000000
01000000
00010000
00001000
,
00010000
00000100
00000000
00000010
00000000
00000001
00000000
00000010
,
00000000
00001001
00000000
00000100
00000000
00011000
00000000
00000100
,
00001000
00000100
00000000
00010000
00000000
00001000
00000000
00100000
,
00000000
00001000
00000000
01000000
00000000
00100000
10000000
00010000
,
01000000
01000000
00000000
00100000
00000000
10000000
00000000
01000000
,
00100000
00100000
01100000
10010000
,
00100000
00100000
00000000
00010000
00000000
00001000
00000000
00000100
,
00000000
00000010
00000000
00000001
00000100
00000010
00001000
00000001
,
00000100
00000100
00000000
00000010
00000000
00001000
00000000
00010000
,
00000000
01000000
00000000
00100000
10000000
01000000
00100000
00010000
,
01000000
00110000
00001000
01010000
,
00100000
00000000
10000000
00000000
01000000
00000000
00010000
00001000
,
00000010
00000100
00001000
00001001
,
00000020
00002030
00023000
00230000
,
01300000
10000000
00100000
10010000
,
01000000
00100000
00101000
00011000
,
00000100
00001000
00000010
00001001
,
00000100
00000010
00010010
00011000
,
01000000
10010000
00100000
01000000
,
01001000
00011000
00000010
00001000
,
00000100
00001001
00000010
00000100
,
00010100
00011000
00001100
00000011
,
00000001
00000001
00000000
00000000
00001000
00001000
00000000
00000000
,
00010000
01000000
10000000
01000000
,
00010000
00000000
10000000
00100000
00010000
00000000
10000000
01000000
,
00010000
00000000
00100000
00000000
01000000
00010000
00001000
00000000
,
00000020
00000032
00000203
00002300
,
00023000
00230000
20300000
32000000
,
03020000
00000000
00032000
00000000
00003010
00000001
00000100
00000000
,
00000110
00000000
00000000
00011000
00000000
00000000
01100000
00000000
,
10010000
00000000
00000000
00000000
;

//---------------dance-double - ----------------
#NOTEDATA:;
#CHARTNAME:;
#STEPSTYPE:dance-double;
#DESCRIPTION:;
#CHARTSTYLE:;
#DIFFICULTY:Medium;
#METER:13;
#RADARVALUES:0.701,0.658,0.373,0.137,0.005,483.000,41.000,15.000,0.000,0.000,0.000,0.000,0.000,0.701,0.658,0.373,0.137,0.005,483.000,41.000,15.000,0.000,0.000,0.000,0.000,0.000;
#CREDIT:;
#OFFSET:-0.138;
#BPMS:0.000=190.010
;
#STOPS:;
#DELAYS:;
#WARPS:;
#TIMESIGNATURES:0.000=4=4
;
#TICKCOUNTS:0.000=4
;
#COMBOS:0.000=1
;
#SPEEDS:0.000=1.000=0.000=0
;
#SCROLLS:0.000=1.000
;
#FAKES:;
#LABELS:0.000=Song Start
;
#NOTES:
00000000
00000000
00000000
00000000
,
00000000
00000000
00000000
00000000
,
00000000
00000000
00000000
00000000
,
00000000
00000000
00000000
00000000
,
00000000
00000000
00000000
00000000
,
00000000
00000000
00000000
00000000
,
00000000
00000000
00000000
00000000
,
00011000
00000000
01000000
00100000
10000000
00000000
00010000
00000000
,
10000000
00000000
01000000
00100000
00001000
00000000
00010000
00000000
,
00000200
00010000
00001000
00010300
,
00000100
00000000
00000010
00000001
00000100
00000000
00000110
00000000
,
00001001
00000000
00000001
00000100
00001000
00000000
00010000
00001000
,
00000100
00000010
00001000
00000000
00001000
00000010
00000100
00000000
,
00001000
00000000
00100000
00010000
01000000
00000000
00100000
10000000
,
01000000
00010000
01000000
00000000
10000000
00100000
00010000
00001000
,
00001000
00000000
00100000
00000000
01100000
00000000
00010000
00001000
,
00000100
00000010
00000110
00001001
,
00000001
00000100
00000010
00001000
00000100
00000010
00001000
00010000
,
00022000
00000000
00000000
00000000
00033000
00000000
00100000
00100000
,
00010000
01000000
00001000
01000000
00010000
01000000
00001000
01000000
,
00010000
00100000
00001000
00100000
00010000
00100000
00001000
00100000
,
00010000
00000000
10000000
01000000
00010000
00000000
01000000
10000000
,
01000000
00010000
00001000
00000100
00000001
00000000
00001000
00000100
,
00010000
00000010
00001000
00000010
00010000
00000010
00001000
00000010
,
00010000
00000100
00001000
00000100
00010000
00000100
00001000
00000100
,
00000010
00000000
00000001
00000100
00001000
00000000
00000100
00000001
,
00000100
00001000
00010000
00001000
00011000
00000000
00011000
00000000
,
00001000
01000000
00100000
01000000
00001000
01000000
00010000
01000000
,
00100000
00010000
00100000
01000000
00100000
10000000
00100000
00010000
,
00001000
00010000
00000100
00000010
00000100
00001000
00000100
00010000
,
00000100
00001000
00000010
00000001
00000010
00000100
00000010
00001000
,
00000100
00000100
00000000
00000000
00010000
00010000
00000000
00000000
,
00000010
00001000
00000010
00000001
00000010
00000100
00001000
00010000
,
00001000
00000000
00101000
00000000
00010000
01000000
00100000
10000000
,
01000000
01000000
00010000
00001000
00000100
00000010
00000001
00000000
,
00000010
00000010
00000100
00000010
00000000
00000100
00000001
00000000
,
00001000
00000100
00000000
00001001
00000000
00000100
00000010
00000000
,
00001000
00001000
00000100
00010000
00000000
00001000
00010000
00000000
,
01000000
00100000
00000000
01100000
00000000
00010000
10000000
00000000
,
00010000
00010000
01000000
00010000
00000000
00100000
00001000
00000000
,
00010000
00001000
00000000
00010100
00000000
00001000
00000001
00000010
,
00000100
00000100
00000010
00000100
00000000
00001000
00000001
00000000
,
00001100
00000000
00000011
00000000
00001001
00000000
00000100
00000010
,
00000100
00001000
00001000
00010000
00000000
00001000
00001000
00000000
,
00100000
01000000
00000000
10010000
00000000
10000000
01000000
00000000
,
00100000
00001000
00001000
00010000
00000000
00000100
00001000
00000000
,
00000010
00000100
00000000
00000001
00000010
00001000
00000001
00000100
,
00001000
00000010
00000010
00000100
00000000
00000001
00000100
00000000
,
00001000
00010000
00000000
01001000
00000000
00100000
00010000
00000000
,
10000000
00100000
00100000
01000000
00000000
00100000
01000000
00000000
,
10000000
00000000
00010000
00000000
00001000
00000000
00010000
01000000
,
10000000
00000000
00120000
01030000
,
00000000
00020010
00001000
00030100
,
00001000
00000100
00001000
00000100
00000001
00000100
00000001
00000100
,
00001000
00000001
00000100
00001000
00010000
01000000
10000000
00000000
,
00010000
01000000
00010000
01000000
10000000
01000000
10000000
01000000
,
00010000
20000000
30010000
00100000
00001000
00020000
00030100
00000000
,
00000010
00000001
00000010
00000001
00000010
00001000
00000010
00001000
,
00000010
00000001
00000010
00001000
00010000
00100000
10000000
00000000
,
00100000
00010000
00100000
00010000
00100000
10000000
00100000
10000000
,
01000000
00010000
00011000
00000110
,
00000001
00000010
00000001
00000010
00001000
00000010
00001000
00000010
,
00000001
00000100
00000010
00001000
00000100
00010000
00001000
00100000
,
00010000
01000000
00010000
01000000
10000000
01000000
10000000
01000000
,
00100000
01000000
00010000
00100000
00001000
00010000
00000100
00001000
,
00000010
00000000
00001000
00001000
00000100
00000000
00000001
00000001
,
00000100
00001000
00000010
00000001
00000010
00000100
00001000
00010000
,
00001000
00000000
00011000
00000000
00100000
01000000
00100000
00000000
,
10000000
01000000
00100000
01000000
00010000
01000000
00001000
01000000
,
10000000
01000000
00000000
01200000
00000000
00310000
00000000
00102000
,
00000000
00013000
00000100
00000010
00000100
00001000
00000010
00000000
,
00001000
00000001
00000000
00000120
00000000
00001030
00000000
00002100
,
00000000
00003001
00000100
00001000
00010000
00001000
00010000
00000000
,
00001000
01000000
00000000
01200000
00000000
10300000
00000000
21000000
,
00000000
30100000
01000000
00010000
00100000
10000000
00100000
00000000
,
00001000
00010000
00000000
00012000
00000000
00003010
00000000
00000012
,
00000000
00000103
00000000
00000010
00000100
00000010
00000100
00000000
,
00000001
00000001
00000000
00000000
00001000
00001000
00000000
00000000
,
00000001
00001000
00000010
00000001
00000010
00001000
00000001
00000100
,
00001000
00010000
01000000
10000000
00010000
10000000
00100000
00010000
,
00001000
00100000
00010000
10000000
01000000
00010000
00001000
00010000
,
00000100
00000011
00001100
00000101
,
00001010
00011000
00110000
00011000
,
00001000
00000000
00010000
00000000
00100000
00000000
01000000
00000000
00010000
00000000
00100000
00000000
01000000
00000000
10000000
00010000
,
10000000
00000000
00000000
11000000
00000000
00000000
00110000
00000000
,
10010000
00000000
00000000
00000000
;

//---------------dance-single - ----------------
#NOTEDATA:;
#CHARTNAME:;
#STEPSTYPE:dance-single;
#DESCRIPTION:;
#CHARTSTYLE:;
#DIFFICULTY:Challenge;
#METER:19;
#RADARVALUES:1.000,1.000,0.910,0.446,0.869,753.000,100.000,49.000,0.000,0.000,0.000,0.000,0.000,1.000,1.000,0.910,0.446,0.869,753.000,100.000,49.000,0.000,0.000,0.000,0.000,0.000;
#CREDIT:;
#OFFSET:-0.138;
#BPMS:0.000=190.010
;
#STOPS:;
#DELAYS:;
#WARPS:;
#TIMESIGNATURES:0.000=4=4
;
#TICKCOUNTS:0.000=4
;
#COMBOS:0.000=1
;
#SPEEDS:0.000=1.000=0.000=0
;
#SCROLLS:0.000=1.000
;
#FAKES:;
#LABELS:0.000=Song Start
;
#NOTES:
// measure 0
0000
0000
0000
0000
,  // measure 1
0000
0000
0000
0000
,  // measure 2
0000
0000
0000
0000
,  // measure 3
0000
0000
0000
0000
,  // measure 4
0000
0000
0000
0000
,  // measure 5
0000
0000
0000
0000
,  // measure 6
0000
0000
0000
0000
,  // measure 7
0001
0000
0100
0000
1000
0000
0010
0100
0001
0000
0000
0000
1000
0000
0010
0000
,  // measure 8
0100
0000
0001
0000
1000
0000
0100
0010
0001
0000
0000
0000
0010
0000
1000
0000
,  // measure 9
0011
1010
1100
0101
,  // measure 10
0001
0000
0010
0000
0001
0100
1000
0100
0010
0000
0000
0000
0110
0000
0000
0000
,  // measure 11
0001
0000
0100
0000
0010
1000
0100
0010
0100
0000
1000
0000
0010
0001
0100
0010
,  // measure 12
0100
0000
1000
0001
0010
0000
0100
0001
1000
0000
0010
0001
0100
0000
0010
0000
,  // measure 13
0100
0000
1000
0000
0100
1000
0010
0100
0010
0000
0001
0000
0100
0001
0010
0100
,  // measure 14
0010
0000
1000
0100
0001
0000
1000
0010
0001
0000
0010
0100
1000
0100
0010
0000
,  // measure 15
0001
1000
0000
1000
0001
0000
0010
0100
1000
0001
0000
0001
1000
0000
0100
0010
,  // measure 16
0110
0000
0000
0000
1010
0000
0000
0000
0101
0000
0000
0000
0011
0000
0001
0100
,  // measure 17
0010
1000
0000
1000
0100
0000
0010
0000
1000
0000
0001
0100
0001
1000
0010
0100
,  // measure 18
0020
0000
0000
0000
0000
0000
1000
1030
,  // measure 19
0101
0000
0101
0000
1010
0000
1010
0000
0001
0000
0100
0000
1000
0010
0200
0000
,  // measure 20
0310
2000
3010
0100
0001
0100
1000
0100
,  // measure 21
0010
0000
1100
0000
0001
0100
0001
0000
1000
0000
0101
0000
0001
0100
0001
0000
,  // measure 22
0010
0000
1010
0000
0100
0010
0100
0000
0001
0000
1001
0000
0100
1000
0100
0000
,  // measure 23
0011
0000
0010
0000
1010
0000
1000
0100
0010
0000
0001
0000
0100
0000
0010
1000
,  // measure 24
0100
1001
0010
1000
0001
1000
0100
0001
,  // measure 25
0010
0001
0100
0000
1000
0100
1000
0000
0010
0000
0200
0000
0010
0000
0310
1000
,  // measure 26
0001
0000
0000
0000
0001
0010
0100
1000
0200
0300
0200
0300
0200
0300
0200
0300
,  // measure 27
0101
0000
0001
0000
1100
0000
0100
0000
0010
0000
0001
0000
1000
0010
0100
1000
,  // measure 28
0010
0000
0101
0000
0100
0000
1010
0000
0010
0000
0100
0010
0001
1000
0100
0000
,  // measure 29
0010
0000
0101
0000
0010
0000
1100
0000
0010
0000
0001
0000
0010
0100
1000
0001
,  // measure 30
0100
0000
1001
0000
0001
0000
1001
0000
0010
0000
0100
1000
0010
1000
0001
0000
,  // measure 31
1010
0000
0101
0000
0000
0000
0000
0000
1100
0000
0001
0100
1000
0100
0010
0001
,  // measure 32
0100
0000
1000
0100
1000
0000
0001
0100
0001
1000
0100
1000
0001
0100
0001
0000
,  // measure 33
0001
1000
0001
0010
0100
0010
0001
1000
0100
0010
0001
0100
0010
1000
0100
0001
,  // measure 34
0100
0000
0001
0010
0001
0100
0010
1000
0100
0010
0100
1000
0010
0100
0001
0100
,  // measure 35
1000
1010
0001
0101
0000
0010
0100
0000
,  // measure 36
1000
0100
0000
1010
1000
0200
0010
0310
,  // measure 37
0001
0000
1000
0000
0100
0000
1000
0000
0000
0000
0010
0000
1000
0010
1000
0001
,  // measure 38
0100
0000
0010
0000
0000
0000
1010
0000
0010
1000
0100
0010
0001
0000
0100
0000
,  // measure 39
1100
0000
1100
0000
0001
0000
1001
0000
0000
0000
0100
0000
0010
0200
1000
0000
,  // measure 40
1300
0000
1001
0000
0000
0000
1100
0000
0000
0000
0011
0000
0100
0010
0100
0010
,  // measure 41
0001
0000
0100
0000
0010
0000
1010
0000
0000
0000
1001
0000
0100
0010
1000
0000
,  // measure 42
0011
0000
0110
0000
1100
0000
1001
0010
,  // measure 43
1000
0000
0010
0000
0100
0001
1000
0100
1000
0000
0001
0010
1000
0010
0001
0000
,  // measure 44
0010
0001
0010
0000
0100
1000
0100
1000
0001
0000
0010
0000
0001
0100
0001
0000
,  // measure 45
0010
0000
1000
0000
0010
1000
0001
1000
0100
0000
0001
0010
1000
0010
0001
0000
,  // measure 46
0100
0010
0100
0000
0001
1000
0001
1000
0010
0000
0100
0000
0010
1000
0100
0000
,  // measure 47
0001
0010
0100
1000
0001
0010
0100
0001
0100
0010
0001
1000
0100
0010
0001
0100
,  // measure 48
0010
0100
1000
0001
0010
0100
1000
0001
0010
1000
0010
0001
0100
0010
0100
0001
,  // measure 49
0010
0100
0001
0010
0001
1000
0100
0010
0100
1000
0010
1000
0001
1000
0001
0010
,  // measure 50
0200
0000
0002
0300
2000
0003
0010
3010
,  // measure 51
0001
0000
0000
0000
0011
1010
1001
0000
,  // measure 52
0000
0000
1001
0100
0110
0010
1001
0000
,  // measure 53
1010
0000
1010
0000
0100
0000
0001
0000
0010
0000
1000
0000
0001
0000
1000
0100
,  // measure 54
0001
0200
2300
3002
0023
2030
3200
0301
,  // measure 55
0011
0011
0100
1000
0100
0010
1000
0010
,  // measure 56
0001
0000
1000
0001
0010
0000
0100
0010
1000
0000
0001
0100
1000
0100
0010
0001
,  // measure 57
0010
0000
1000
0000
0100
0000
0001
0000
0010
0000
0100
0000
1000
0000
0001
0100
,  // measure 58
0010
0200
0320
0032
2003
3200
0320
1030
,  // measure 59
0101
0101
0010
1000
0100
0001
0010
0100
,  // measure 60
0202
0000
0303
0000
2200
0000
3300
0000
0220
0000
0000
0330
2002
0000
0000
3003
,  // measure 61
0010
0100
1000
0000
0100
0000
0010
0001
0100
0000
0010
0000
0100
0010
1000
0100
,  // measure 62
1000
0020
2030
3002
0023
0230
2300
3001
,  // measure 63
0100
0010
1000
0000
0100
0000
0001
1000
0200
0000
0010
0000
0310
0000
0001
1000
,  // measure 64
0100
0010
1000
0101
0010
0100
1010
0100
,  // measure 65
0010
0000
1010
1010
0110
0000
0011
0011
,  // measure 66
0110
0000
0002
0000
0203
0000
2300
0000
3020
0000
0230
0000
0320
0000
1030
0010
,  // measure 67
0100
0000
1000
0000
1100
0000
0100
0000
0001
0000
0100
0000
0001
1000
0010
0000
,  // measure 68
1001
0000
0001
0000
0101
0000
0100
0000
0100
1000
0100
1000
0001
0100
0010
1000
,  // measure 69
0100
0000
1000
0000
0100
0000
0001
0100
0010
0000
1000
0000
0001
0000
0010
0100
,  // measure 70
1000
0001
0100
0110
0001
1000
1100
0000
,  // measure 71
0011
0000
0100
0000
1000
0000
0100
0010
0001
0000
1000
0000
0010
0000
0100
0010
,  // measure 72
1000
0001
0100
1010
0100
0010
0101
0000
,  // measure 73
1000
0000
0100
0000
0001
0000
0010
0001
0100
0000
1000
0000
0100
0002
0010
0000
,  // measure 74
0013
0000
1001
1001
1100
0110
0110
0000
,  // measure 75
0001
1000
0010
0000
0100
0000
0001
1000
0100
0000
0010
0000
0100
0001
0010
0001
,  // measure 76
0100
0000
0010
0000
1000
0000
1100
0000
0010
0001
0100
0010
1000
0001
0010
0000
,  // measure 77
0201
0010
0300
0000
1200
0010
0300
0000
,  // measure 78
0011
0011
0101
0101
1010
1010
1100
1100
,  // measure 79
0001
0010
0100
0000
0010
0100
1000
0000
0100
1000
0001
0000
1000
0001
0010
0000
,  // measure 80
1000
0100
0001
0100
1000
0010
0100
0001
0010
1000
0010
0001
0100
0010
1000
0001
,  // measure 81
0100
1000
0100
0001
0010
0001
0100
1000
0100
0001
0010
1000
0010
0001
0100
0010
,  // measure 82
1000
0010
0001
0010
1000
0100
0010
0001
0100
1000
0100
0001
0010
0100
1000
0001
,  // measure 83
0010
1000
0010
0001
0100
0001
0010
1000
0010
0001
0100
1000
0100
0001
0110
0010
,  // measure 84
0101
0000
0000
0110
0000
0000
1100
0000
,  // measure 85
1001
0000
0000
0000
;

//---------------dance-double - ----------------
#NOTEDATA:;
#CHARTNAME:;
#STEPSTYPE:dance-double;
#DESCRIPTION:;
#CHARTSTYLE:;
#DIFFICULTY:Challenge;
#METER:19;
#RADARVALUES:1.000,1.000,0.719,0.519,0.787,735.000,79.000,57.000,0.000,0.000,0.000,0.000,0.000,1.000,1.000,0.719,0.519,0.787,735.000,79.000,57.000,0.000,0.000,0.000,0.000,0.000;
#CREDIT:;
#OFFSET:-0.138;
#BPMS:0.000=190.010
;
#STOPS:;
#DELAYS:;
#WARPS:;
#TIMESIGNATURES:0.000=4=4
;
#TICKCOUNTS:0.000=4
;
#COMBOS:0.000=1
;
#SPEEDS:0.000=1.000=0.000=0
;
#SCROLLS:0.000=1.000
;
#FAKES:;
#LABELS:0.000=Song Start
;
#NOTES:
00000000
00000000
00000000
00000000
,
00000000
00000000
00000000
00000000
,
00000000
00000000
00000000
00000000
,
00000000
00000000
00000000
00000000
,
00000000
00000000
00000000
00000000
,
00000000
00000000
00000000
00000000
,
00000000
00000000
00000000
00000000
,
00010000
10000000
00100000
01000000
00001000
00000000
00010000
00000100
,
00001000
00000001
00000010
00001000
00010000
00000000
00100000
00010000
,
01000000
01100000
00011000
00000110
,
00000100
00000000
00000010
00000000
00000100
00000010
00000100
00000010
00000100
00000000
00000000
00000000
00011000
00000000
00000000
00000000
,
00110000
00000000
00010000
00000000
00100000
10000000
01000000
00100000
00010000
00000000
01000000
00000000
10000000
01000000
00010000
10000000
,
00100000
00000000
10000000
00010000
00100000
00000000
01000000
00000000
00010000
00000000
00200000
00000000
00001000
00000000
00301000
00000000
,
00011000
00000000
00001000
00000000
00010000
00000010
00000100
00000010
00001000
00000000
00000001
00000000
00000100
00000010
00001000
00000100
,
00000010
00000000
00000001
00000020
00000100
00000000
00000130
00000000
00001000
00000000
00000001
00000200
00001000
00000000
00001300
00000000
,
00000101
00000000
00000000
00000010
00001000
00000000
00000100
00010000
00001000
00000000
00000000
00100000
00010000
00000000
01000000
00100000
,
10000000
00000000
00000000
00000000
01010000
00000000
00000000
00000000
00011000
00000000
00000000
00000000
00001010
00000000
00000010
00001000
,
00000100
00000000
00000000
00010000
00001000
00000000
01000000
00000000
10010000
00000000
10000000
01000000
00100000
00000000
00010000
02000000
,
00200000
00000000
00000000
00000000
03300000
00000000
00010000
00010000
,
10000000
00010000
01000000
01010000
00010000
00100000
00001000
00000100
,
00000010
00000001
00000010
00001000
00000010
00000001
00000010
00000100
,
00000010
00001000
00010000
01000000
00001000
00000100
00001000
00010000
,
01000000
00010000
00001000
00000010
00001000
00010000
00100000
10000000
,
01010000
00001000
00010000
00001100
00000100
00000001
00000010
00001000
,
00010000
00000000
00011000
00000000
00001000
00000000
00100000
00000000
10000000
00000000
00100000
00000000
00010000
00000000
01000000
00010000
,
00100000
00000000
10000000
00000000
00010000
00000000
00100000
00000000
00001000
00200000
00010000
00000000
00320000
00000000
01000000
00000000
,
01030000
00000000
00000000
00000000
00010000
00100000
00001000
00010000
00000200
00000300
00000200
00000300
00000200
00000300
00000200
00000300
,
00001000
00000000
00001100
00000000
00010000
00000000
00011000
00000000
01000000
00000000
00010000
00000000
01000000
00001000
00100000
00010000
,
01000000
00000000
00110000
00000000
01000000
00000000
10100000
00000000
00010000
00000000
00001000
00100000
00010000
00100000
00001000
00000000
,
00010000
00000000
00010010
00000000
00000010
00000000
00001010
00000000
00000100
00000000
00000001
00000000
00000010
00000100
00001000
00000100
,
00000010
00000000
00001100
00000000
00001000
00000000
00101000
00000000
00010000
00000000
10000000
01000000
00010000
00100000
01000000
00000000
,
01100000
00000000
01100000
00000000
00000000
00000000
00000000
00000000
01010000
00000000
00010000
00000000
00100000
00001000
00010000
00001000
,
00000100
00000000
00000010
00001000
00000100
00000000
00000010
00000001
00000100
00000000
00000010
00001000
00000001
00000100
00000010
00000000
,
00000001
00001000
00000001
00000010
00000100
00000010
00000001
00001000
00000010
00000100
00010000
00001000
00100000
00010000
10000000
01000000
,
00100000
00000000
01010000
00000000
10000000
00100000
01000000
00010000
00100000
00001000
00010000
00000100
00001000
00000010
00000100
00000001
,
00000010
00001100
00001000
00001010
00000000
00001000
00100000
00000000
,
00010000
00000000
01000000
00000000
00000000
00000000
00110000
00000000
01000000
00010000
00002000
00000000
00100000
00000000
00103000
00000000
,
00010000
00000000
10000000
00000000
00010000
00000000
00110000
00000000
00000000
00000000
00010000
00000000
00001000
00200000
01000000
00000000
,
01300000
00000000
00010000
00000000
00000000
00000000
00000010
00001000
00000100
00000010
00000001
00000000
00000010
00000000
00001000
00000000
,
00001010
00000000
00001000
00000000
00010000
00000000
00011000
00000000
00000000
00000000
01000000
00000000
00100000
20000000
00010000
00000000
,
30010000
00000000
01100000
00000000
00000000
00000000
00011000
00000000
00000000
00000000
00000110
00000000
00001000
00000000
00100000
02000000
,
00010000
00000000
03010000
00000000
00000100
00000000
00010100
00000000
00000000
00000000
00011000
00000000
00010000
00100000
10000000
00000000
,
01100000
00000000
00110000
00000000
00001100
00000000
00000110
00000100
,
00001000
00000000
00010000
00000000
00001000
00010000
00100000
01000000
10000000
00000000
00100000
00010000
01000000
00100000
01000000
00000000
,
10000000
01000000
00010000
00000000
00100000
00001000
00010000
00000010
00000100
00000000
00001000
00000000
00010000
00000100
00010000
00000100
,
00001000
00000000
00000010
00000000
00000100
00000001
00001000
00000001
00000010
00000000
00001000
00000100
00000001
00000100
00001000
00000000
,
00000010
00010000
00001000
00000000
01000000
00001000
00010000
00001000
01000000
00000000
00100000
01000000
00010000
10000000
01000000
00000000
,
00010000
10000000
01000000
00100000
00010000
10000000
00100000
01000000
00010000
10000000
01000000
00100000
01000000
10000000
00010000
00100000
,
00001000
00010000
00000010
00001000
00000100
00000010
00000001
00000100
00001000
00000100
00001000
00000010
00000100
00000001
00001000
00000100
,
00010000
00001000
00010000
00100000
10000000
00010000
10000000
01000000
00100000
00010000
00100000
01000000
10000000
00010000
01000000
00100000
,
00020000
00000000
00030000
00000000
00020000
00000000
00030000
00000000
00020000
00000000
00030000
00000000
00020000
00030000
00020000
00030000
,
00011000
00000000
00000000
00000000
00000010
00001010
00001001
00000000
,
00000000
00000000
00011000
00010010
00001010
00001000
00100000
00000000
,
00010000
00000000
01000000
00000000
00100000
00000000
10000000
00000000
00010000
00000000
00100000
00000000
01000000
00000000
00010000
01000000
,
00002000
00023000
02030000
03002000
00023000
00030020
00000032
00002003
,
00003100
00000000
00010000
00000000
00001000
00000000
01000000
00000000
00010000
00000000
10000000
00000000
00010000
00000000
00100000
00010000
,
01000000
00000000
10000000
01000000
10000000
00000000
00010000
01000000
00010000
00000000
01000000
00001000
00010000
00001000
00010000
00000010
,
00001000
00000000
00000010
00000000
00010000
00000000
00001000
00000000
00000001
00000000
00000100
00000000
00000010
00000000
00000001
00000100
,
00001000
00020000
00230000
02300000
03002000
00023000
20030000
32000000
,
03010000
00000000
10000000
00000000
00100000
00000000
00010000
00000000
01000000
00000000
10000000
00000000
00010000
01000000
00100000
00000000
,
01010000
00000000
00101000
00000000
00020200
00030300
00002020
00003030
,
00001000
00010000
00001000
00000000
00010000
00000000
00100000
10000000
00100000
00000000
01000000
00000000
10000000
01000000
00100000
00010000
,
00100000
02000000
03200000
00320000
00032000
00003200
00000320
00001030
,
00010000
02000000
00100000
00000000
03100000
00000000
10000000
02000000
00100000
00000000
00100000
00000000
03100000
10000000
00010000
10000000
,
01000000
00100000
00010000
00011000
00001000
00000110
00000110
00000100
,
00000001
00000000
00001010
00001010
00001001
00000000
00000011
00000011
,
00001001
00000000
00000020
00000000
00020030
00000000
00230000
00000000
20300000
00000000
30200000
00000000
00320000
00000000
00030010
00001000
,
00000100
00000000
00000001
00000000
00000010
00000000
00000100
00000000
00001000
00000000
00010000
00000000
00100000
01000000
10000000
00000000
,
10010000
00010000
01010000
01000000
01001000
00001000
00011000
00010000
,
00010010
00000000
00000010
00000000
00001000
00000000
00000001
00000100
00001000
00000000
00010000
00000000
00001000
00000000
00000100
00000010
,
00000001
00000100
00010000
00011000
00100000
01000000
11000000
00000000
,
01100000
00000000
00100000
00000000
10000000
00000000
01000000
00100000
10000000
00000000
00010000
00000000
01000000
00000000
00010000
00100000
,
00001000
00010000
00000100
00010100
00010000
00001000
00101000
00000000
,
00010000
00000000
01000000
00000000
10000000
00000000
00100000
00010000
10000000
00000000
00100000
00000000
00001000
00020000
00000010
00000000
,
00030010
00000000
00000001
00000100
00001000
00000010
00000001
00000000
,
00000100
00002000
00010000
00000000
00013000
00000000
00100000
00020000
01000000
00000000
01030000
00000000
10000000
02000000
00100000
00000000
,
03100000
00000000
10010000
00000000
01000000
00000000
11000000
00000000
00100000
00010000
01000000
00100000
10000000
00010000
00100000
01000000
,
10000000
10010000
00000000
00000000
00010000
00101000
00000000
00000000
,
10000000
01000000
00100000
00010000
00001000
00000100
00000010
00000001
,
00000010
00001000
00000010
00001000
00000100
00010000
00000100
00010000
00001000
00100000
00001000
00100000
00010000
01000000
00010000
00000000
,
10000000
00100000
00010000
00001000
00000100
00001000
00010000
00100000
00010000
00001000
00000100
00000001
00001000
00000010
00000100
00000010
,
00001000
00000001
00000100
00001000
00010000
00001000
00100000
01000000
10000000
00100000
00010000
00001000
00000010
00000001
00001000
00001000
,
00000001
00000010
00001000
00010000
01000000
00010000
00001000
00000010
00001000
00010000
01000000
10000000
00010000
00100000
01000000
00100000
,
00010000
10000000
01000000
00010000
00001000
00010000
00000010
00000100
00000001
00000010
00001000
00010000
00100000
10000000
00010000
00010000
,
11000000
00000000
00000000
00101000
00000000
00000000
00010100
00000000
,
00001001
00000000
00000000
00000000
;
