#TITLE:OUTER LIMITS;
#SUBTITLE:;
#ARTIST:L.E.D. -G;
#TITLETRANSLIT:;
#SUBTITLETRANSLIT:;
#ARTISTTRANSLIT:;
#GENRE:Hardcore;
#CREDIT:;
#BANNER:OUTER LIMITS.png;
#BACKGROUND:OUTER LIMITS-bg.png;
#LYRICSPATH:;
#CDTITLE:./CDTITLES/DanceDanceRevolution SuperNOVA.png;
#MUSIC:OUTER LIMITS.mp3;
#OFFSET:-11.259;
#SAMPLESTART:23.870;
#SAMPLELENGTH:15.000;
#SELECTABLE:YES;
#DISPLAYBPM:86.000:343.000;
#BPMS:0.000=85.500
,15.000=342.000
,384.000=85.500
,388.000=342.000
;
#STOPS:15.000=1.930
;
#BGCHANGES:;
#KEYSOUNDS:;
#ATTACKS:;

//---------------dance-single - ----------------
#NOTES:
     dance-single:
     :
     Easy:
     8:
     0.363,0.428,0.100,0.747,0.000,204.000,12.000,90.000,0.000,0.000,0.000,0.363,0.428,0.100,0.747,0.000,204.000,12.000,90.000,0.000,0.000,0.000:
0000
0000
0000
0000
,
0000
0000
0000
0000
,
2000
0000
0002
3000
,
0203
0000
0310
0000
,
1000
0000
0001
0000
,
2000
0000
3001
0000
,
0010
0000
0100
0000
,
0020
0000
0130
0000
,
1000
0000
0100
0000
,
0020
0000
0031
0000
,
2000
0000
3200
0000
,
0320
0000
0031
0000
,
1000
0000
0002
0000
,
1003
0000
1000
0000
,
1000
0000
0020
0000
,
1030
0000
1000
0000
,
1000
0000
0200
0000
,
1300
0000
1000
0000
,
2000
0000
3200
0000
,
0320
0000
0032
0000
,
2003
0000
3001
0000
,
0200
0000
0301
0000
,
0020
0000
0031
0000
,
0002
0000
1003
0000
,
0020
0000
1030
0000
,
0200
0000
1300
0000
,
0002
0000
0023
0000
,
0230
0000
2300
0000
,
3001
0000
0010
0000
,
0100
0000
2000
0000
,
3100
0000
0010
0000
,
0001
0000
2000
0000
,
3001
0000
0010
0000
,
0100
0000
2000
0000
,
3001
0000
0220
0000
,
0330
0000
1000
0000
,
0002
0000
0203
0000
,
0300
0001
0100
0000
,
0020
0000
2030
0000
,
3010
0000
1000
0000
,
0200
0000
0320
0000
,
0031
0000
1000
0000
,
1000
0000
1000
0000
,
2002
0000
3003
0000
,
2000
0000
0000
3200
,
0000
0000
2300
0000
,
0000
0000
0000
0000
,
0000
0000
0000
0000
,
3020
0000
0000
0230
,
0000
0000
0302
0000
,
0000
0000
0000
0000
,
0003
0000
0000
0000
,
2000
0000
0000
0100
,
0000
0000
3100
0000
,
0002
0000
0000
0100
,
0000
0000
0103
0000
,
0020
0000
0000
0100
,
0000
0000
0130
0000
,
0200
0000
0000
0010
,
0000
0000
0310
0000
,
0100
0000
0020
1000
,
0000
0000
1030
0000
,
0100
0000
2000
0001
,
0000
0000
3001
0000
,
0100
0000
0200
0001
,
0000
0000
0301
0000
,
1000
0000
0020
0000
,
1000
0000
1030
0000
,
1010
0000
0200
0000
,
0001
0000
0301
0000
,
0101
0000
2000
0000
,
3002
0000
1003
0000
,
1001
0000
0200
0000
,
0001
0000
0301
0000
,
1000
1000
2000
0000
,
3002
0000
0003
0000
,
0101
0000
0200
0000
,
0001
0000
0301
0000
,
1010
0000
0020
0000
,
2030
0000
3001
0000
,
1001
0000
0200
0000
,
0001
0000
0301
0000
,
2000
0000
3200
0000
,
0320
0000
0032
0000
,
2003
0000
0000
0000
,
0000
0000
0000
0000
,
3001
0000
0002
0000
,
0000
0000
0000
0000
,
0203
0000
0000
0000
,
0000
0000
0000
0000
,
0310
0000
0020
0000
,
0000
0000
0000
0000
,
2030
0000
0000
0000
,
0000
0000
0000
0000
,
3001
0000
0000
0000
,
0001
0000
0000
0000
,
2002
0000
3003
0000
,
1001
0000
0000
1000
,
0000
0000
0001
0000
,
0100
0010
0000
1000
,
0000
0000
0001
0000
,
0200
0300
0000
0010
,
0000
0000
1000
0000
,
0020
0000
0030
1000
,
0000
0000
0001
0000
,
1001
0000
0000
1000
,
0000
0000
0001
0000
,
0010
0100
0000
1000
,
0000
0000
0001
0000
,
2000
0000
3000
0010
,
0000
0000
0100
0000
,
0002
0000
0023
0000
,
0230
0000
1300
0000
,
0001
0000
0000
0200
,
0000
0300
0001
0000
,
0010
0000
0000
0002
,
0000
0003
0100
0000
,
0010
0000
0000
2000
,
0000
3000
0010
0000
,
0100
0000
0000
0002
,
0000
0003
1000
0000
,
2000
0000
0000
3200
,
0000
0000
2300
0000
,
0000
0000
0000
0000
,
0000
0000
0000
0000
,
3020
0000
0000
0230
,
0000
0000
0302
0000
,
0000
0000
0000
0000
,
0000
0000
0003
0000
,
1001
0000
0000
0000
;

//---------------dance-single - ----------------
#NOTES:
     dance-single:
     :
     Medium:
     11:
     0.517,0.643,0.183,0.855,0.000,311.000,22.000,103.000,0.000,0.000,0.000,0.517,0.643,0.183,0.855,0.000,311.000,22.000,103.000,0.000,0.000,0.000:
0000
0000
0000
0000
,
0000
0000
0000
0000
,
2000
0000
0001
0000
0001
0000
3001
0100
,
0020
1000
0130
0000
,
0001
0100
0001
0000
,
0010
0001
0010
0000
,
0100
1000
0100
0000
,
1000
0001
1000
0000
,
0010
1000
0010
0000
,
0100
0010
0100
0000
,
2000
0001
3002
1000
,
2003
0001
3001
0000
,
1001
0000
0020
0000
,
1030
0100
0010
0000
,
0001
0010
0200
0000
,
1300
0100
0010
0000
,
1001
0000
0200
0000
,
1300
0100
0010
0000
,
2001
0001
3002
1000
,
2003
0001
3002
0000
,
1003
0000
0001
1000
,
0000
0001
0010
0100
,
2000
0000
3000
1000
,
0000
0001
0010
0100
,
2000
0000
3000
1000
,
0000
1000
0100
0010
,
0001
0010
0002
0000
,
0023
0000
0130
1000
,
0200
0000
0300
1000
,
0020
0000
1030
0000
,
0010
0100
0000
0001
,
0000
1000
0000
0000
0001
0000
0000
0000
,
0010
0100
0000
1000
,
0000
0001
0000
0000
1000
0000
0000
0000
,
0010
0100
0001
0010
,
0100
1000
0001
0000
,
0020
0000
0030
0001
,
0200
0000
0301
1000
,
0100
0010
0000
0001
,
0000
1000
0000
0000
0001
0000
0010
0000
,
0100
0010
0000
0001
,
0000
1000
0000
0000
0001
0000
0000
0000
,
1000
0010
0100
0001
,
0100
0010
1000
0001
,
2000
0000
3000
0002
,
0000
0003
2002
0000
,
0000
0000
0000
0000
,
0000
0000
0000
3003
,
2200
0000
3300
0022
,
0000
0033
0220
0000
,
0000
0000
0000
0330
,
1000
0100
0010
0001
,
2000
0000
0000
0001
,
0000
3002
0000
1003
,
0200
0000
0000
1000
,
0000
2300
0000
3001
,
0020
0000
0000
0001
,
0000
0032
0000
1003
,
0200
0000
0000
1000
,
0000
2300
0000
3001
,
0010
0000
0020
0001
,
0000
0001
0030
0001
,
0100
0000
0200
0001
,
0000
0001
0300
0001
,
0100
0000
0020
1000
,
0000
1000
0030
1000
,
0000
0000
2000
0000
,
3020
0030
1000
0100
,
0010
0001
0200
0000
,
0001
0001
0301
0000
,
1001
0000
0020
0000
,
1000
1000
1030
0000
,
1001
0001
2000
0000
,
0100
0100
3100
0000
,
1000
1000
2000
0000
,
3001
0001
0002
0003
,
0200
0000
0000
0000
0320
0000
0030
0200
,
0000
0001
0301
0000
,
1001
0000
0000
0000
0002
0000
0003
0200
,
0001
0001
0301
0000
,
1001
0000
0000
0000
2000
0000
3000
0020
,
1000
1000
1030
0000
,
2000
0001
3002
1000
,
2003
0001
3002
0000
,
2003
0000
3200
0000
,
0320
0000
0032
0000
,
0013
0000
1200
0000
,
2300
0000
3020
0000
,
0130
0000
1002
0000
,
0023
0000
0230
0000
,
1300
0000
1002
0000
,
2003
0000
3001
0000
,
0210
0000
0302
0000
,
0023
0000
0230
0000
,
1300
0000
0001
0000
,
1000
0000
0000
0000
,
2002
0000
3003
0000
,
1000
0001
2000
0001
,
3000
0010
0010
0000
,
0100
0100
2000
0000
,
3001
0001
0000
0000
,
1000
1000
0000
0020
,
0000
0130
0100
0000
,
0002
0000
0203
0000
,
0301
0001
0001
0000
,
1000
0001
2000
0001
,
3000
0010
0010
0000
,
0100
0100
0002
1003
,
0000
0000
0100
0000
,
0020
0000
0030
0001
,
0000
1000
0000
0000
0001
0000
0000
0000
,
2000
0000
3200
0000
,
0320
0000
0031
0000
,
1000
0100
0020
0001
,
0030
1000
0100
0000
,
0010
0001
2000
3001
,
0000
0000
0100
0000
,
0020
0000
0030
0100
,
0000
1000
0000
0000
0100
0000
0000
0000
,
2000
0000
3020
0000
,
0230
0000
0301
0000
,
0020
0000
0000
0230
,
0000
0000
2300
0000
,
0000
0000
0000
3000
,
0001
0010
0100
1000
,
0022
0000
0033
2200
,
0000
3300
0202
0000
,
0000
0000
0303
0000
,
0101
0000
1010
0000
,
1001
0000
0000
0000
;

//---------------dance-single - ----------------
#NOTES:
     dance-single:
     :
     Hard:
     15:
     0.688,0.910,0.307,0.332,0.000,503.000,37.000,40.000,0.000,0.000,0.000,0.688,0.910,0.307,0.332,0.000,503.000,37.000,40.000,0.000,0.000,0.000:
0000
0000
0000
0000
,
0000
0000
0000
0000
,
0002
0000
0023
0000
0230
0001
1300
0100
,
0020
0001
1030
0001
0010
0100
1000
0000
,
0001
0000
0010
0000
0100
0000
1000
0100
,
1000
0100
1000
0000
0001
0010
0001
0000
,
1000
0000
0100
0000
0010
0000
0001
0010
,
0001
0010
0001
0000
1000
0100
1000
0000
,
0001
0000
0010
0000
0100
0000
1000
0100
,
1000
0100
1000
0000
0001
0010
0001
0100
,
0010
0100
0010
0000
1000
0100
1000
0000
,
0001
0000
1000
0001
1000
0000
0000
0000
,
0001
0000
0010
0000
0100
0000
1000
0100
,
1000
0100
1000
0000
0001
0010
0001
0000
,
1000
0000
0100
0000
0010
0000
0001
0010
,
0001
0010
0001
0000
1000
0100
1000
0000
,
0001
0000
0010
0000
0100
0000
1000
0100
,
1000
0100
1000
0000
0001
0010
0001
0000
,
1100
0000
0101
0000
,
0011
0000
0110
0000
,
1001
0000
1000
0001
,
1000
0100
1000
0000
0000
0100
1000
0000
,
0001
0000
0100
0010
,
1000
0100
0010
0001
,
1000
0100
1000
0000
0000
0100
1000
0000
,
0001
0010
0100
1000
,
0010
0100
0010
0000
,
0100
0010
0100
0000
0010
0000
0000
0000
,
1001
0000
0001
1000
,
0001
0100
0001
0000
0000
0100
0001
0000
,
1000
0000
0100
0010
,
0001
0010
0100
1000
,
0001
0100
0001
0000
0000
0100
0001
0000
,
1000
0100
0010
0001
,
0010
0100
0010
0000
,
0100
0010
0100
0000
0010
0000
0000
0000
,
1001
0000
1000
0001
,
1000
0100
1000
0000
0000
0100
1000
0000
,
0001
0000
0100
0010
,
1000
0100
0010
0001
,
1000
0100
1000
0000
0000
0100
1000
0000
,
0001
0010
0100
1000
,
0010
0100
0010
0000
,
0100
0010
0100
0000
0010
0000
0000
0000
,
2002
0000
3003
0202
,
0000
0303
2020
0000
,
3030
0000
1000
0010
1000
0000
0010
0000
,
1000
0010
1000
0000
0010
0000
1000
0000
,
2200
0000
3300
0022
,
0000
0033
0220
0000
,
0000
0000
0000
0330
,
0010
0100
0010
0000
0100
0000
0010
0000
,
1000
0100
0010
0001
,
1000
0100
1000
0000
0000
0100
1000
0000
,
0001
0010
0100
1000
,
0001
0010
0001
0000
0000
0010
0001
0000
,
1000
0100
0010
0001
,
0100
0010
0100
0000
0000
0010
0100
0000
,
0001
0010
0100
1000
,
0001
1000
0001
0000
0000
1000
0001
0000
,
1000
0100
0010
0001
,
1000
0100
1000
0000
0000
0100
1000
0000
,
0001
0010
0100
1000
,
0001
0010
0001
0000
0000
0010
0001
0000
,
1000
0100
0010
0001
,
0100
0010
0100
0000
0000
0010
0100
0000
,
0110
0000
1001
0000
,
0001
1000
0000
1001
,
0001
0010
0100
1000
,
0001
0010
0001
0010
0001
0000
0000
0000
,
1001
0000
1000
0001
,
1000
0100
1000
0100
1000
0000
0001
0000
,
1000
0100
0010
0001
,
1000
0001
1000
0001
1000
0000
0000
0000
,
0010
0010
0100
0100
,
0010
0100
0010
0100
0010
0000
0100
0000
,
0110
0000
0000
0000
0101
0000
0000
0100
,
0001
0000
0001
0100
0001
0000
0000
0000
,
1001
0000
0000
0000
1000
0000
0100
1000
,
0100
1000
0100
1000
0100
0000
1000
0000
,
1001
0000
0000
0000
0001
0000
0010
0001
,
0010
0000
0001
0010
0001
0000
0000
0000
,
0110
0000
0000
0000
0010
0000
0100
0010
,
0100
0010
0100
0010
0100
0000
0010
0000
,
2000
0000
0200
3300
,
1000
0100
1000
0000
0100
0000
1000
0000
,
0002
0000
0200
0303
,
0001
0000
0100
0000
0001
0100
0001
0100
,
0002
0000
2000
3003
,
1000
0100
0010
0001
,
2000
0000
0002
3000
,
0003
0010
0100
1000
,
0200
0000
0002
0303
,
0001
0100
0001
0000
0100
0000
0001
0000
,
0100
0000
0011
0000
,
1100
0000
0110
0000
,
2002
0000
3003
0000
,
0001
0010
0001
0000
0000
0000
0010
0000
,
0100
0000
0010
0100
0010
0000
0000
0000
,
0100
0000
1000
0100
1000
0000
0100
0000
,
1000
0001
1000
0000
0001
0000
0000
0000
,
0010
0001
0010
0000
0000
0000
0100
0000
,
0010
0000
0100
0010
0100
0000
0000
0000
,
0010
0000
0001
0010
0001
0000
0010
0000
,
0001
1000
0001
0000
1000
0000
0000
0000
,
0001
0010
0001
0000
0000
0000
0010
0000
,
0100
0000
0010
0100
0010
0000
0000
0000
,
0100
0000
1000
0100
1000
0000
0100
0000
,
1000
0001
1000
0000
0001
0000
0000
0000
,
0010
0001
0010
0000
0000
0000
0100
0000
,
0010
0000
0100
0010
0100
0000
0000
0000
,
1100
0000
0101
0000
,
0011
0000
0110
0000
,
1000
0010
1000
0000
0000
0000
0010
0000
,
0100
0000
0010
0100
0010
0000
0000
0000
,
0100
0000
0001
0100
0001
0000
0100
0000
,
0001
1000
0001
0000
1000
0000
0000
0000
,
0010
1000
0010
0000
0000
0000
0100
0000
,
0010
0000
0100
0010
0100
0000
0000
0000
,
0010
0000
1000
0010
1000
0000
0010
0000
,
1000
0001
1000
0000
0001
0000
0000
0000
,
2002
0000
3003
0202
,
0000
0303
2020
0000
,
3030
0000
1000
0010
1000
0000
0010
0000
,
1000
0010
1000
0000
0010
0000
1000
0000
,
2200
0000
3300
0022
,
0000
0033
0220
0000
,
0000
0000
0000
0330
,
0010
0100
0010
0000
0100
0000
0010
0000
,
1001
0000
0000
0000
;

//---------------dance-double - ----------------
#NOTES:
     dance-double:
     :
     Easy:
     8:
     0.363,0.428,0.100,0.747,0.000,204.000,12.000,90.000,0.000,0.000,0.000,0.363,0.428,0.100,0.747,0.000,204.000,12.000,90.000,0.000,0.000,0.000:
00000000
00000000
00000000
00000000
,
00000000
00000000
00000000
00000000
,
02000000
00000000
00020000
03000000
,
00230000
00000000
00310000
00000000
,
00100000
00000000
00001000
00000000
,
00020000
00000000
00031000
00000000
,
00010000
00000000
00000100
00000000
,
00000020
00000000
00000130
00000000
,
00000010
00000000
00000100
00000000
,
00000020
00000000
00000130
00000000
,
00002000
00000000
00003200
00000000
,
00000320
00000000
00000030
00000100
,
00010000
00000000
00002000
00000000
,
00013000
00000000
00010000
00000000
,
00010000
00000000
00002000
00000000
,
00103000
00000000
00100000
00000000
,
00100000
00000000
02000000
00000000
,
13000000
00000000
10000000
00000000
,
20000000
00000000
32000000
00000000
,
03200000
00000000
00302000
00000000
,
00023000
00000000
00031000
00000000
,
00020000
00000000
00030010
00000000
,
00000200
00000000
00000310
00000000
,
00002000
00000000
00003001
00000000
,
00000020
00000000
00000031
00000000
,
00000200
00000000
00000310
00000000
,
00002000
00000000
00003200
00000000
,
00000320
00000000
00000032
00000000
,
00000103
00000000
00000010
00000000
,
00010000
00000000
00002000
00000000
,
00013000
00000000
00001000
00000000
,
00100000
00000000
00020000
00000000
,
10030000
00000000
00100000
00000000
,
01000000
00000000
00002000
00000000
,
00013000
00000000
00022000
00000000
,
00033000
00000000
00000100
00000000
,
00002000
00000000
00003200
00000000
,
00000300
00001000
00000100
00000000
,
00000020
00000000
00000032
00000000
,
00000013
00000000
00000001
00000000
,
00000200
00000000
00000320
00000000
,
00001030
00000000
00000100
00000000
,
00000100
00000000
00000100
00000000
,
00022000
00000000
00033000
00000000
,
00200000
00000000
00000000
02300000
,
00000000
00000000
23000000
00000000
,
00000000
00000000
00000000
00000000
,
00000000
00000000
00000000
00000000
,
30200000
00000000
00000000
02300000
,
00000000
00000000
03002000
00000000
,
00000000
00000000
00000000
00000000
,
00003000
00000000
00000000
00000000
,
00020000
00000000
00000000
00000000
,
00001000
00000000
00031000
00000000
,
00020000
00000000
00000000
00000000
,
00000100
00000000
00030100
00000000
,
00002000
00000000
00000000
00000000
,
00000001
00000000
00003001
00000000
,
00000200
00000000
00000000
00000000
,
00000010
00000000
00000310
00000000
,
00000100
00000000
00000020
00000000
,
00001000
00000000
00001030
00000000
,
00000100
00000000
00002000
00000000
,
00000001
00000000
00003001
00000000
,
00000100
00000000
00000020
00000000
,
00010000
00000000
00010030
00000000
,
00001000
00000000
00020000
00000000
,
00001000
00000000
00031000
00000000
,
00011000
00000000
02000000
00000000
,
00010000
00000000
03010000
00000000
,
01010000
00000000
20000000
00000000
,
30020000
00000000
10030000
00000000
,
10010000
00000000
02000000
00000000
,
00010000
00000000
03010000
00000000
,
00100000
00100000
00002000
00000000
,
00023000
00000000
00030000
00000000
,
00011000
00000000
00000200
00000000
,
00001000
00000000
00001300
00000000
,
00001100
00000000
00000020
00000000
,
00002030
00000000
00003001
00000000
,
00001001
00000000
00000200
00000000
,
00000001
00000000
00000301
00000000
,
00002000
00000000
00003200
00000000
,
00000320
00000000
00000032
00000000
,
00002003
00000000
00000000
00000000
,
00000000
00000000
00000000
00000000
,
00003100
00000000
00020000
00000000
,
00000000
00000000
00000000
00000000
,
00032000
00000000
00000000
00000000
,
00000000
00000000
00000000
00000000
,
00103000
00000000
00020000
00000000
,
00000000
00000000
00000000
00000000
,
02030000
00000000
00000000
00000000
,
00000000
00000000
00000000
00000000
,
03010000
00000000
00000000
00000000
,
00010000
00000000
00000000
00000000
,
00022000
00000000
00033000
00000000
,
00011000
00000000
00000000
00000100
,
00000000
00000000
00001000
00000000
,
00000100
00000010
00000000
00000001
,
00000000
00000000
00001000
00000000
,
00000200
00000300
00000000
00000010
,
00000000
00000000
00000001
00000000
,
00000020
00000000
00000030
00000001
,
00000000
00000000
00001000
00000000
,
00001100
00000000
00000000
00010000
,
00000000
00000000
00001000
00000000
,
00100000
01000000
00000000
10000000
,
00000000
00000000
00010000
00000000
,
20000000
00000000
30000000
00100000
,
00000000
00000000
01000000
00000000
,
00020000
00000000
00230000
00000000
,
02300000
00000000
13000000
00000000
,
00010000
00000000
00000000
02000000
,
00000000
03000000
00010000
00000000
,
00100000
00000000
00000000
00002000
,
00000000
00003000
00010000
00000000
,
00000010
00000000
00000000
00002000
,
00000000
00003000
00000010
00000000
,
00000100
00000000
00000000
00000002
,
00000000
00000003
00001000
00000000
,
00002000
00000000
00000000
00003200
,
00000000
00000000
00002300
00000000
,
00000000
00000000
00000000
00000000
,
00000000
00000000
00000000
00000000
,
00003020
00000000
00000000
00020030
,
00000000
00000000
00032000
00000000
,
00000000
00000000
00000000
00000000
,
00000000
00000000
00003000
00000000
,
00011000
00000000
00000000
00000000
;

//---------------dance-double - ----------------
#NOTES:
     dance-double:
     :
     Medium:
     11:
     0.517,0.643,0.183,0.855,0.000,311.000,22.000,103.000,0.000,0.000,0.000,0.517,0.643,0.183,0.855,0.000,311.000,22.000,103.000,0.000,0.000,0.000:
00000000
00000000
00000000
00000000
,
00000000
00000000
00000000
00000000
,
00020000
00000000
00001000
00000000
00001000
00000000
00031000
01000000
,
00200000
10000000
01300000
00000000
,
00010000
01000000
00010000
00000000
,
00100000
00010000
00100000
00000000
,
01000000
10000000
01000000
00000000
,
10000000
00010000
10000000
00000000
,
00100000
10000000
00100000
00000000
,
01000000
00100000
01000000
00000000
,
00002000
00010000
00023000
00001000
,
00032000
00010000
00013000
00000000
,
00011000
00000000
00000020
00000000
,
00001030
00000100
00000010
00000000
,
00000001
00000010
00000200
00000000
,
00001300
00000100
00000010
00000000
,
00001001
00000000
00000200
00000000
,
00001300
00000100
00010000
00000000
,
00012000
00010000
00023000
00001000
,
00032000
00010000
00023000
00000000
,
00031000
00000000
00010000
00001000
,
00000000
00100000
01000000
00100000
,
00020000
00000000
00030000
00010000
,
00000000
10000000
01000000
00100000
,
00020000
00000000
00030000
00010000
,
00000000
10000000
01000000
00100000
,
00010000
00100000
00020000
00000000
,
00230000
00000000
01300000
10000000
,
00020000
00000000
00030000
01000000
,
00002000
00000000
00013000
00000000
,
00000010
00000100
00000000
00000001
,
00000000
00001000
00000000
00000000
00000001
00000000
00000000
00000000
,
00000010
00000100
00000000
00001000
,
00000000
00000001
00000000
00000000
00001000
00000000
00000000
00000000
,
00000010
00000100
00000001
00000010
,
00000100
00001000
00000001
00000000
,
00000020
00000000
00000030
00000001
,
00000200
00000000
00000301
00001000
,
00000100
00010000
00000000
00001000
,
00000000
00010000
00000000
00000000
00001000
00000000
00100000
00000000
,
01000000
00100000
00000000
00010000
,
00000000
10000000
00000000
00000000
00010000
00000000
00000000
00000000
,
00100000
00001000
00010000
00000010
,
00000100
00000010
00001000
00000001
,
00002000
00000000
00003000
00000002
,
00000000
00000003
00002002
00000000
,
00000000
00000000
00000000
00000000
,
00000000
00000000
00000000
00003003
,
00002200
00000000
00003300
00000022
,
00000000
00000033
00000220
00000000
,
00000000
00000000
00000000
00000330
,
00000100
00010000
00001000
00100000
,
00020000
00000000
00000000
10000000
,
00000000
20030000
00000000
30010000
,
02000000
00000000
00000000
00010000
,
00000000
03020000
00000000
10030000
,
00200000
00000000
00000000
10000000
,
00000000
20300000
00000000
30010000
,
02000000
00000000
00000000
00010000
,
00000000
03020000
00000000
10030000
,
00100000
00000000
02000000
00001000
,
00000000
00001000
03000000
00001000
,
00010000
00000000
00002000
00010000
,
00000000
00010000
00003000
00010000
,
00000100
00000000
00000020
00000001
,
00000000
00000001
00000030
00000001
,
00000000
00000000
00002000
00000000
,
00003020
00000030
00001000
00000100
,
00000010
00000001
00000200
00000000
,
00000001
00000001
00000301
00000000
,
00001001
00000000
00000020
00000000
,
00001000
00001000
00001030
00000000
,
00001001
00000001
00002000
00000000
,
00000100
00000100
00003100
00000000
,
00010000
00010000
00002000
00000000
,
00013000
00010000
00020000
00030000
,
00002000
00000000
00000000
00000000
00023000
00000000
00030000
00002000
,
00000000
00100000
00103000
00000000
,
00110000
00000000
00000000
00000000
00020000
00000000
00030000
02000000
,
00010000
00010000
03010000
00000000
,
10010000
00000000
00000000
00000000
20000000
00000000
30000000
00200000
,
10000000
10000000
10300000
00000000
,
20000000
00010000
30020000
10000000
,
20030000
00010000
30020000
00000000
,
20030000
00000000
32000000
00000000
,
03200000
00000000
00320000
00000000
,
00130000
00000000
00012000
00000000
,
00023000
00000000
00030020
00000000
,
00000130
00000000
00001002
00000000
,
00000023
00000000
00000230
00000000
,
00001300
00000000
00001002
00000000
,
00002003
00000000
00003001
00000000
,
00000210
00000000
00000302
00000000
,
00000023
00000000
00000230
00000000
,
00001300
00000000
00000100
00000000
,
00010000
00000000
00000000
00000000
,
00022000
00000000
00033000
00000000
,
00100000
00010000
20000000
00010000
,
30000000
00100000
00100000
00000000
,
01000000
01000000
20000000
00000000
,
30010000
00010000
00000000
00000000
,
10000000
10000000
00000000
00200000
,
00000000
01300000
01000000
00000000
,
00002000
00000000
00023000
00000000
,
00031000
00001000
00001000
00000000
,
00010000
00000010
00002000
00000010
,
00003000
00000010
00000010
00000000
,
00000100
00000100
00000002
00001003
,
00000000
00000000
00000100
00000000
,
00000020
00000000
00000030
00000001
,
00000000
00001000
00000000
00000000
00000001
00000000
00000000
00000000
,
00002000
00000000
00003200
00000000
,
00000320
00000000
00000031
00000000
,
00000010
00000100
00020000
00001000
,
00030000
00001000
01000000
00000000
,
00100000
10000000
00020000
10030000
,
00000000
00000000
01000000
00000000
,
00200000
00000000
00300000
01000000
,
00000000
10000000
00000000
00000000
01000000
00000000
00000000
00000000
,
20000000
00000000
30200000
00000000
,
02300000
00000000
03010000
00000000
,
00200000
00000000
00000000
02300000
,
00000000
00000000
23000000
00000000
,
00000000
00000000
00000000
30000000
,
01000000
00100000
00001000
00010000
,
00022000
00000000
00033000
00002200
,
00000000
00003300
00000202
00000000
,
00000000
00000000
00000303
00000000
,
00000110
00000000
00001010
00000000
,
00011000
00000000
00000000
00000000
;

//---------------dance-double - ----------------
#NOTES:
     dance-double:
     :
     Hard:
     15:
     0.689,0.910,0.316,0.332,0.000,503.000,38.000,40.000,0.000,0.000,0.000,0.689,0.910,0.316,0.332,0.000,503.000,38.000,40.000,0.000,0.000,0.000:
00000000
00000000
00000000
00000000
,
00000000
00000000
00000000
00000000
,
00002000
00000000
00203000
00000000
02300000
10000000
03010000
01000000
,
00200000
10000000
00310000
10000000
00100000
01000000
00010000
00000000
,
10000000
00000000
01000000
00000000
00100000
00000000
00010000
01000000
,
00010000
01000000
00010000
00000000
10000000
00100000
10000000
00000000
,
00010000
00000000
01000000
00000000
00100000
00000000
10000000
00100000
,
10000000
00100000
10000000
00000000
00010000
01000000
00010000
00000000
,
00100000
00000000
00001000
00000000
00010000
00000000
00001000
00010000
,
00001000
00010000
00001000
00000000
00010000
00001000
00010000
00001000
,
00010000
00001000
00010000
00000000
00000100
00001000
00000100
00000000
,
00001000
00000000
00000001
00001000
00000001
00000000
00000000
00000000
,
00001000
00000000
00000100
00000000
00000010
00000000
00000001
00000100
,
00000001
00000100
00000001
00000000
00001000
00000010
00001000
00000000
,
00000001
00000000
00000010
00000000
00000100
00000000
00001000
00000010
,
00001000
00000010
00001000
00000000
00000001
00000100
00000001
00000000
,
00001000
00000000
00000100
00000000
00000010
00000000
00000001
00000100
,
00000001
00000100
00000001
00000000
00000100
00000001
00000100
00000000
,
00000101
00000000
00001100
00000000
,
00011000
00000000
00110000
00000000
,
10010000
00000000
10000000
00010000
,
10000000
01000000
10000000
00000000
00000000
01000000
10000000
00000000
,
00010000
00000000
01000000
00100000
,
10000000
01000000
00100000
00010000
,
10000000
01000000
10000000
00000000
00000000
01000000
10000000
00000000
,
01000000
00100000
00001000
00010000
,
00000100
00000010
00000100
00000000
,
00000010
00000100
00000010
00000000
00000100
00000000
00000000
00000000
,
00001001
00000000
00000001
00001000
,
00000001
00000100
00000001
00000000
00000000
00000100
00000001
00000000
,
00001000
00000000
00000100
00000010
,
00000001
00000010
00000100
00001000
,
00000001
00000100
00000001
00000000
00000000
00000100
00000001
00000000
,
00001000
00000100
00010000
00001000
,
00100000
01000000
00100000
00000000
,
01000000
00100000
01000000
00000000
00100000
00000000
00000000
00000000
,
10010000
00000000
10000000
00010000
,
10000000
01000000
10000000
00000000
00000000
01000000
10000000
00000000
,
00010000
00000000
01000000
00100000
,
10000000
01000000
00100000
00010000
,
10000000
01000000
10000000
00000000
00000000
01000000
10000000
00000000
,
01000000
00100000
00001000
00010000
,
00000100
00000010
00000100
00000000
,
00000010
00000100
00000010
00000000
00000100
00000000
00000000
00000000
,
00002002
00000000
00003003
00000202
,
00000000
00000303
00002020
00000000
,
00003030
00000000
00001000
00000010
00001000
00000000
00000010
00000000
,
00001000
00000010
00001000
00000000
00000010
00000000
00010000
00000000
,
00022000
00000000
00033000
00220000
,
00000000
00330000
02200000
00000000
,
00000000
00000000
00000000
03300000
,
00100000
01000000
00100000
00000000
01000000
00000000
00100000
00000000
,
00010000
00100000
01000000
10000000
,
00010000
01000000
00010000
00000000
00000000
01000000
00010000
00000000
,
10000000
01000000
00100000
00010000
,
10000000
00100000
10000000
00000000
00000000
00100000
10000000
00000000
,
01000000
00100000
00001000
00010000
,
00001000
00010000
00001000
00000000
00000000
00010000
00001000
00000000
,
00010000
00000100
00001000
00000010
,
00001000
00000001
00001000
00000000
00000000
00000001
00001000
00000000
,
00000001
00000010
00000100
00001000
,
00000001
00000100
00000001
00000000
00000000
00000100
00000001
00000000
,
00001000
00000100
00000010
00000001
,
00001000
00000010
00001000
00000000
00000000
00000010
00001000
00000000
,
00000001
00000010
00000100
00001000
,
00000100
00000010
00000100
00000000
00000000
00000010
00000100
00000000
,
00000110
00000000
00001100
00000000
,
00010000
00001000
00000000
00110000
,
00010000
00100000
01000000
10000000
,
00010000
00100000
00010000
00100000
00010000
00000000
00000000
00000000
,
10010000
00000000
10000000
00010000
,
10000000
01000000
10000000
01000000
10000000
00000000
00010000
00000000
,
10000000
01000000
00100000
00010000
,
10000000
00010000
10000000
00010000
10000000
00000000
00000000
00000000
,
00010000
00010000
01000000
01000000
,
00010000
01000000
00010000
01000000
00010000
00000000
01000000
00000000
,
01010000
00000000
00000000
00000000
00011000
00000000
00000000
00001000
,
00010000
00000000
00001000
00010000
00001000
00000000
00000000
00000000
,
00001100
00000000
00000000
00000000
00001000
00000000
00000100
00001000
,
00000100
00001000
00000100
00001000
00000100
00000000
00001000
00000000
,
00001001
00000000
00000000
00000000
00000001
00000000
00000010
00000001
,
00000010
00000000
00000001
00000010
00000001
00000000
00000000
00000000
,
00000110
00000000
00000000
00000000
00000010
00000000
00000100
00000010
,
00000100
00000010
00000100
00000010
00000100
00000000
00000010
00000000
,
00020000
00000000
00002000
00033000
,
00010000
00001000
00010000
00000000
00001000
00000000
00100000
00000000
,
00020000
00000000
02000000
03030000
,
00010000
00000000
01000000
00000000
00010000
01000000
00010000
01000000
,
00020000
00000000
20000000
30030000
,
10000000
01000000
00100000
00010000
,
20000000
00000000
00020000
30000000
,
00030000
00100000
01000000
10000000
,
02000000
00000000
20000000
33000000
,
00010000
01000000
00010000
00000000
01000000
00000000
00001000
00000000
,
00010000
00000000
00011000
00000000
,
00001100
00000000
00000110
00000000
,
00002002
00000000
00003003
00000000
,
00000001
00000010
00000001
00000000
00000000
00000000
00000010
00000000
,
00000100
00000000
00000010
00000100
00000010
00000000
00000000
00000000
,
00000100
00000000
00001000
00000100
00001000
00000000
00000100
00000000
,
00001000
00000001
00001000
00000000
00000001
00000000
00000000
00000000
,
00001000
00000010
00001000
00000000
00000000
00000000
00000100
00000000
,
00010000
00000000
00001000
00010000
00001000
00000000
00000000
00000000
,
00100000
00000000
00010000
00100000
00010000
00000000
00100000
00000000
,
00010000
10000000
00010000
00000000
10000000
00000000
00000000
00000000
,
00010000
00100000
00010000
00000000
00000000
00000000
00100000
00000000
,
01000000
00000000
00100000
01000000
00100000
00000000
00000000
00000000
,
01000000
00000000
10000000
01000000
10000000
00000000
01000000
00000000
,
10000000
00010000
10000000
00000000
00010000
00000000
00000000
00000000
,
00100000
00010000
00100000
00000000
00000000
00000000
00001000
00000000
,
00010000
00000000
00001000
00010000
00001000
00000000
00000000
00000000
,
00011000
00000000
00001100
00000000
,
00000011
00000000
00001001
00000000
,
00001000
00000010
00001000
00000000
00000000
00000000
00000010
00000000
,
00000100
00000000
00000010
00000100
00000010
00000000
00000000
00000000
,
00000100
00000000
00000001
00000100
00000001
00000000
00000100
00000000
,
00000001
00001000
00000001
00000000
00001000
00000000
00000000
00000000
,
00000010
00001000
00000010
00000000
00000000
00000000
00010000
00000000
,
00001000
00000000
00010000
00001000
00010000
00000000
00000000
00000000
,
00001000
00000000
00010000
00001000
00010000
00000000
00001000
00000000
,
00010000
00001000
00010000
00000000
00001000
00000000
00000000
00000000
,
00022000
00000000
00033000
02020000
,
00000000
03030000
02200000
00000000
,
03300000
00000000
01000000
00100000
01000000
00000000
00100000
00000000
,
01000000
00100000
01000000
00000000
00100000
00000000
01100000
00000000
,
02200000
00000000
03300000
00220000
,
00000000
00330000
00022000
00000000
,
00000000
00000000
00000000
00033000
,
00001000
00010000
00001000
00000000
00010000
00000000
00001000
00000000
,
00011000
00000000
00000000
00000000
;

//---------------dance-single - ----------------
#NOTES:
     dance-single:
     :
     Beginner:
     5:
     0.135,0.214,0.058,0.000,0.000,107.000,7.000,0.000,0.000,0.000,0.000,0.135,0.214,0.058,0.000,0.000,107.000,7.000,0.000,0.000,0.000,0.000:
0000
0000
0000
0000
,
0000
0000
0000
0000
,
1000
0000
0001
0000
,
0100
0000
0010
0000
,
1000
0000
0000
0000
,
1000
0000
0000
0000
,
0010
0000
0000
0000
,
0010
0000
0000
0000
,
1000
0000
0000
0000
,
0010
0000
0000
0000
,
1000
0000
0000
0000
,
0010
0000
0000
0000
,
1000
0000
0000
0000
,
1000
0000
0000
0000
,
1000
0000
0000
0000
,
1000
0000
0000
0000
,
1000
0000
0000
0000
,
1000
0000
0000
0000
,
1000
0000
0000
0000
,
0010
0000
0000
0000
,
1000
0000
0000
0000
,
0100
0000
0000
0000
,
0010
0000
0000
0000
,
0001
0000
0000
0000
,
0010
0000
0000
0000
,
0100
0000
0000
0000
,
0001
0000
0000
0000
,
0100
0000
0000
0000
,
0001
0000
0000
0000
,
0100
0000
0000
0000
,
0100
0000
0000
0000
,
0001
0000
0000
0000
,
0001
0000
0000
0000
,
0100
0000
0000
0000
,
0001
0000
0000
0000
,
0000
0000
1000
0000
,
0000
0000
0100
0000
,
0000
0000
0100
0000
,
0000
0000
1000
0000
,
0000
0000
1000
0000
,
0000
0000
0010
0000
,
0000
0000
1000
0000
,
0000
0000
1000
0000
,
0000
0000
0000
0000
,
1000
0000
0000
0000
,
0000
0000
1000
0000
,
0000
0000
0000
0000
,
0000
0000
0000
0000
,
0010
0000
0000
0000
,
0000
0000
0001
0000
,
0000
0000
0000
0000
,
0000
0000
0000
0000
,
1000
0000
0000
0000
,
0000
0000
0100
0000
,
0000
0000
0000
0100
,
0000
0000
0000
0000
,
0010
0000
0000
0000
,
0000
0000
0100
0000
,
0000
0000
0000
0010
,
0000
0000
0000
0000
,
0100
0000
0000
0000
,
0000
0000
1000
0000
,
0000
0000
1000
0000
,
0000
0000
0001
0000
,
0000
0000
0100
0000
,
0000
0000
0001
0000
,
0000
0000
0010
0000
,
0000
0000
1000
0000
,
0000
0000
0100
0000
,
0000
0000
0001
0000
,
0000
0000
1000
0000
,
0000
0000
1000
0000
,
0000
0000
0100
0000
,
0000
0000
0001
0000
,
0000
0000
1000
0000
,
0000
0000
0000
0000
,
0110
0000
0000
0000
,
0001
0000
0000
0000
,
1001
0000
0000
0000
,
1000
0000
0000
0000
,
1001
0000
0000
0000
,
0001
0000
0000
0000
,
1000
0000
0000
0000
,
0010
0000
0000
0000
,
1000
0000
0000
0000
,
0000
0000
0000
0000
,
0001
0000
0000
0000
,
0000
0000
0000
0000
,
0100
0000
0000
0000
,
0000
0000
0000
0000
,
0010
0000
0000
0000
,
0000
0000
0000
0000
,
1000
0000
0000
0000
,
0000
0000
0000
0000
,
0001
0000
0000
0000
,
0001
0000
0000
0000
,
1001
0000
0000
0000
,
1001
0000
0000
0000
,
0000
0000
0001
0000
,
0000
0000
0000
1000
,
0000
0000
0000
0000
,
0100
0000
0000
0000
,
0000
0000
1000
0000
,
0000
0000
0000
1000
,
0000
0000
0000
0000
,
1001
0000
0000
0000
,
0000
0000
0001
0000
,
0000
0000
0000
1000
,
0000
0000
0000
0000
,
1000
0000
0000
0000
,
0000
0000
0100
0000
,
0000
0000
0010
0000
,
0000
0000
1000
0000
,
0000
0000
0000
0100
,
0000
0000
0000
0000
,
0010
0000
0000
0000
,
0000
0000
0100
0000
,
0000
0000
0000
1000
,
0000
0000
0000
0000
,
0100
0000
0000
0000
,
0000
0000
1000
0000
,
0000
0000
0000
0100
,
0000
0000
0000
0000
,
0000
0000
0000
0000
,
0000
0000
0000
0000
,
0010
0000
0000
0000
,
0000
0000
0001
0000
,
0000
0000
0000
0000
,
0000
0000
0000
0000
,
1001
0000
0000
0000
;

//---------------dance-double - ----------------
#NOTES:
     dance-double:
     :
     Beginner:
     5:
     0.142,0.214,0.083,0.000,0.000,110.000,10.000,0.000,0.000,0.000,0.000,0.142,0.214,0.083,0.000,0.000,110.000,10.000,0.000,0.000,0.000,0.000:
00000000
00000000
00000000
00000000
,
00000000
00000000
00000000
00000000
,
01000000
00000000
00010000
00000000
,
00100000
00000000
00010000
00000000
,
00100000
00000000
00000000
00000000
,
00010000
00000000
00000000
00000000
,
00010000
00000000
00000000
00000000
,
00000010
00000000
00000000
00000000
,
00000010
00000000
00000000
00000000
,
00000010
00000000
00000000
00000000
,
00001000
00000000
00000000
00000000
,
00000010
00000000
00000000
00000000
,
00010000
00000000
00000000
00000000
,
00010000
00000000
00000000
00000000
,
00010000
00000000
00000000
00000000
,
00100000
00000000
00000000
00000000
,
00100000
00000000
00000000
00000000
,
10000000
00000000
00000000
00000000
,
10000000
00000000
00000000
00000000
,
00100000
00000000
00000000
00000000
,
00010000
00000000
00000000
00000000
,
00010000
00000000
00000000
00000000
,
00000100
00000000
00000000
00000000
,
00001000
00000000
00000000
00000000
,
00000010
00000000
00000000
00000000
,
00000100
00000000
00000000
00000000
,
00001000
00000000
00000000
00000000
,
00000010
00000000
00000000
00000000
,
00000100
00000000
00000000
00000000
,
00010000
00000000
00000000
00000000
,
00010000
00000000
00000000
00000000
,
00100000
00000000
00000000
00000000
,
10000000
00000000
00000000
00000000
,
01000000
00000000
00000000
00000000
,
00010000
00000000
00000000
00000000
,
00000000
00000000
00000100
00000000
,
00000000
00000000
00000100
00000000
,
00000000
00000000
00000100
00000000
,
00000000
00000000
00000001
00000000
,
00000000
00000000
00000001
00000000
,
00000000
00000000
00000010
00000000
,
00000000
00000000
00000100
00000000
,
00000000
00000000
00000100
00000000
,
00000000
00000000
00000000
00000000
,
00100000
00000000
00000000
00000000
,
00000000
00000000
10000000
00000000
,
00000000
00000000
00000000
00000000
,
00000000
00000000
00000000
00000000
,
00100000
00000000
00000000
00000000
,
00000000
00000000
00001000
00000000
,
00000000
00000000
00000000
00000000
,
00000000
00000000
00000000
00000000
,
00010000
00000000
00000000
00000000
,
00001000
00000000
00000000
00000000
,
00010000
00000000
00000000
00000000
,
00000100
00000000
00000000
00000000
,
00001000
00000000
00000000
00000000
,
00000001
00000000
00000000
00000000
,
00000100
00000000
00000000
00000000
,
00000010
00000000
00000000
00000000
,
00000100
00000000
00000000
00000000
,
00001000
00000000
00000000
00000000
,
00000100
00000000
00000000
00000000
,
00000001
00000000
00000000
00000000
,
00000100
00000000
00000000
00000000
,
00010000
00000000
00000000
00000000
,
00001000
00000000
00000000
00000000
,
00001000
00000000
00000000
00000000
,
00011000
00000000
00000000
00000000
,
00010000
00000000
00000000
00000000
,
01100000
00000000
00000000
00000000
,
00010000
00000000
00000000
00000000
,
10010000
00000000
00000000
00000000
,
00010000
00000000
00000000
00000000
,
00100000
00000000
00000000
00000000
,
00010000
00000000
00000000
00000000
,
00011000
00000000
00000000
00000000
,
00001000
00000000
00000000
00000000
,
00000110
00000000
00000000
00000000
,
00001000
00000000
00000000
00000000
,
00001001
00000000
00000000
00000000
,
00000001
00000000
00000000
00000000
,
00001000
00000000
00000000
00000000
,
00000010
00000000
00000000
00000000
,
00001000
00000000
00000000
00000000
,
00000000
00000000
00000000
00000000
,
00000100
00000000
00000000
00000000
,
00000000
00000000
00000000
00000000
,
00001000
00000000
00000000
00000000
,
00000000
00000000
00000000
00000000
,
00100000
00000000
00000000
00000000
,
00000000
00000000
00000000
00000000
,
01000000
00000000
00000000
00000000
,
00000000
00000000
00000000
00000000
,
00010000
00000000
00000000
00000000
,
00010000
00000000
00000000
00000000
,
00011000
00000000
00000000
00000000
,
00011000
00000000
00000000
00000000
,
00000000
00000000
00001000
00000000
,
00000000
00000000
00000000
00000001
,
00000000
00000000
00000000
00000000
,
00000100
00000000
00000000
00000000
,
00000000
00000000
00000001
00000000
,
00000000
00000000
00000000
00000001
,
00000000
00000000
00000000
00000000
,
00000110
00000000
00000000
00000000
,
00000000
00000000
00001000
00000000
,
00000000
00000000
00000000
10000000
,
00000000
00000000
00000000
00000000
,
10000000
00000000
00000000
00000000
,
00000000
00000000
01000000
00000000
,
00000000
00000000
00100000
00000000
,
00000000
00000000
10000000
00000000
,
00000000
00000000
00000000
01000000
,
00000000
00000000
00000000
00000000
,
00100000
00000000
00000000
00000000
,
00000000
00000000
00010000
00000000
,
00000000
00000000
00000000
00001000
,
00000000
00000000
00000000
00000000
,
00000100
00000000
00000000
00000000
,
00000000
00000000
00001000
00000000
,
00000000
00000000
00000000
00000100
,
00000000
00000000
00000000
00000000
,
00000000
00000000
00000000
00000000
,
00000000
00000000
00000000
00000000
,
00000010
00000000
00000000
00000000
,
00000000
00000000
00001000
00000000
,
00000000
00000000
00000000
00000000
,
00000000
00000000
00000000
00000000
,
00011000
00000000
00000000
00000000
;

//---------------dance-single - ----------------
#NOTES:
     dance-single:
     :
     Challenge:
     18:
     0.930,1.000,0.548,0.374,0.083,673.000,66.000,45.000,0.000,0.000,0.000,0.930,1.000,0.548,0.374,0.083,673.000,66.000,45.000,0.000,0.000,0.000: // measure 0
0001
0000
0000
0000
0010
0000
0000
0000
0100
0000
0000
0000
1000
0000
0001
0000
0010
0000
0100
0000
1000
0000
0001
0000
0010
0000
0001
0000
0100
0000
1000
0100
,  // measure 1
0001
0000
0010
0000
0100
0000
1000
0000
0100
0000
0001
0000
0100
0000
0010
0000
0001
0000
0000
0000
0100
0000
0010
1000
0100
0000
0001
0000
0010
0000
0100
0000
,  // measure 2
1000
0000
0000
0000
0100
0000
0000
0000
0010
0000
0000
0000
0001
0000
0000
0000
0010
0000
0100
0000
0010
0000
1000
0000
0100
0000
0001
0000
0010
0000
0001
0100
,  // measure 3
0010
0000
0000
0000
0000
0000
0000
0000
0100
0000
0000
0000
0000
0000
0000
0000
1000
0000
0000
0000
0000
0000
0000
0000
0010
0000
0000
0000
0002
0000
0000
0000
0000
0000
0000
0000
0000
0000
0000
0000
0000
0000
0000
0000
0000
0000
0000
0000
0000
0003
0000
0000
0000
0000
0000
0000
0000
0000
0000
0000
0000
0000
0000
0000
,  // measure 4
0010
0000
0010
0001
0100
0000
1000
0010
,  // measure 5
0100
0001
1000
0000
0001
0010
0100
0000
,  // measure 6
1000
0000
0100
0001
0010
0000
0001
1000
,  // measure 7
0100
0010
1000
0000
1000
0100
0001
0000
,  // measure 8
0001
0000
0010
1000
0100
0000
0100
0010
,  // measure 9
0001
0010
1000
0000
1000
0010
0001
0100
,  // measure 10
0010
1000
0100
0000
1000
0100
0010
0001
,  // measure 11
0010
0100
1000
0001
0100
0010
1000
0100
,  // measure 12
1000
0000
0010
0000
0001
0010
0001
0010
,  // measure 13
0100
1000
0100
0000
0001
0010
0001
0000
,  // measure 14
1000
0000
0100
0000
1000
0010
0100
0001
,  // measure 15
1000
0010
0100
0000
1000
0100
1000
0000
,  // measure 16
0001
0000
0010
0100
1000
0000
0001
0100
,  // measure 17
1000
0100
1000
0000
0001
0010
0001
0000
,  // measure 18
1000
0100
1000
0000
0100
0001
0100
0000
,  // measure 19
0001
0010
0100
0000
0010
0001
1000
0010
,  // measure 20
0100
0000
1000
0010
0100
0000
0001
0010
,  // measure 21
0100
1000
0000
0100
1000
0000
0100
0000
,  // measure 22
0001
0000
1000
0010
0100
0000
0010
0001
,  // measure 23
0010
0100
0000
1000
0010
0000
0001
0000
,  // measure 24
1000
0100
0010
0001
0100
0010
1000
0100
,  // measure 25
0000
0011
0000
0100
1000
0000
1000
0100
,  // measure 26
0010
0001
0100
0001
0010
0000
1000
0000
,  // measure 27
0001
0100
0010
0100
1000
0000
0010
0000
,  // measure 28
1000
0000
0100
0000
0001
0100
1000
0010
,  // measure 29
0000
0101
0000
0010
1000
0000
0001
0000
,  // measure 30
1000
0100
0010
0001
0100
0000
0010
1000
,  // measure 31
0000
0110
0000
0001
1000
0000
1000
0000
,  // measure 32
0010
0000
0101
0000
1100
0000
0001
0010
,  // measure 33
0000
0100
0000
1000
0001
0000
1100
0000
,  // measure 34
0010
1000
0010
0000
1000
0000
0001
0010
,  // measure 35
0100
0010
0100
0010
0100
1000
0100
0000
,  // measure 36
0001
0001
0010
0010
,  // measure 37
0100
1000
0010
1000
0001
0100
1000
0000
,  // measure 38
0001
0101
0101
1100
,  // measure 39
0011
0000
0100
0000
0100
0010
0001
0010
,  // measure 40
1000
0100
1000
0101
,  // measure 41
0001
0000
0010
0000
0100
0001
1000
0001
,  // measure 42
0010
0100
1000
0001
0010
0000
0110
0000
,  // measure 43
0001
0010
0001
0000
1000
0100
0010
0001
,  // measure 44
2200
0000
3300
0220
,  // measure 45
0000
0330
0022
0000
,  // measure 46
0033
0202
0000
0303
,  // measure 47
0220
0330
2002
3003
,  // measure 48
2200
0000
3300
0022
,  // measure 49
0000
0033
0220
0000
,  // measure 50
0330
2002
0000
3003
,  // measure 51
0001
0010
0100
1000
0010
0100
0001
1000
,  // measure 52
0001
0000
0010
0000
0100
0010
0001
0010
,  // measure 53
0000
1001
0000
1000
0100
0000
1000
0000
,  // measure 54
0001
0000
0010
0100
0010
1000
0100
0010
,  // measure 55
0000
1001
0000
0100
0010
0000
0001
0000
,  // measure 56
1000
0010
0100
0001
0010
0100
1000
0010
,  // measure 57
0000
1001
0000
0100
0001
0000
0100
0000
,  // measure 58
0001
0000
1000
0100
0010
0001
1000
0001
,  // measure 59
0000
1001
0000
1000
0001
0000
0000
0000
,  // measure 60
1000
0010
0100
0001
0010
0100
1000
0100
,  // measure 61
0000
0110
0000
0010
0001
0000
1000
0000
,  // measure 62
0001
0000
0010
0000
0100
0000
0010
1000
,  // measure 63
0000
0101
0000
0010
0001
0000
0100
0000
,  // measure 64
1000
0100
1000
0100
1000
0000
0001
0100
,  // measure 65
0000
0110
0000
0010
1000
0000
0100
0000
,  // measure 66
1001
0000
0011
0000
,  // measure 67
0110
0000
1100
0000
,  // measure 68
0100
0000
0010
0000
0100
0000
1000
0100
,  // measure 69
0001
1000
0010
0000
0100
0010
1000
0001
,  // measure 70
0100
0000
0100
0000
1000
0000
0001
1000
,  // measure 71
0100
0010
0001
0010
0100
0010
0001
1000
,  // measure 72
0100
0000
0100
0000
0010
0000
1000
0010
,  // measure 73
0001
0100
0001
1000
0010
0001
1000
0100
,  // measure 74
0001
0010
0100
0100
,  // measure 75
0001
0100
0010
1000
0001
0010
0100
1000
,  // measure 76
0001
0000
1100
0000
0010
0000
0010
0100
,  // measure 77
0001
0100
0001
1000
0100
0000
0100
0000
,  // measure 78
1000
0000
0010
0000
1000
0000
0100
1000
,  // measure 79
0100
0010
0001
0000
0100
0000
1001
0000
,  // measure 80
1001
0000
0010
0000
1100
0000
1000
0001
,  // measure 81
0010
0100
1000
0100
1000
0000
0001
0000
,  // measure 82
1000
0100
1000
0100
0010
0001
0010
0001
,  // measure 83
0100
0010
0100
0010
1000
0001
1000
0001
,  // measure 84
0010
0010
0001
0001
,  // measure 85
0100
0100
0010
0010
,  // measure 86
1000
1000
0100
0100
,  // measure 87
0001
0001
0100
0100
,  // measure 88
0010
0010
1000
1000
,  // measure 89
0001
0001
0010
0010
,  // measure 90
1000
1000
0001
0001
,  // measure 91
1000
1000
0001
0001
,  // measure 92
1001
0000
0110
0000
,  // measure 93
0011
0000
0101
0000
,  // measure 94
1100
0000
1001
0000
,  // measure 95
0011
0000
0110
0000
,  // measure 96
2002
0000
0000
0000
0000
0000
0000
3003
,  // measure 97
0100
0010
0001
0010
1000
0000
0010
0000
,  // measure 98
0100
1000
0000
1001
0000
0100
0001
0000
,  // measure 99
0100
0000
1000
0100
1000
0000
0100
0010
,  // measure 100
0000
1001
0000
0100
1000
0000
1000
0000
,  // measure 101
0010
0001
0010
0000
0100
0001
0000
1100
,  // measure 102
0000
0010
0100
0010
0100
0000
1001
0000
,  // measure 103
0010
0000
0001
0010
0001
0100
1000
0100
,  // measure 104
0000
1001
0000
0010
1000
0100
0010
0000
,  // measure 105
0001
0010
0001
0000
0100
1000
0000
1001
,  // measure 106
0000
0100
0010
0001
1000
0000
0001
0000
,  // measure 107
0100
0000
1000
0100
1000
0100
0010
0001
,  // measure 108
0000
0001
0100
0010
1000
0000
0001
0000
,  // measure 109
0010
0001
0010
0000
1000
0001
0000
0100
,  // measure 110
0000
0001
0100
0010
1000
0000
0001
0000
,  // measure 111
1100
0000
0110
0000
,  // measure 112
0011
0000
0000
0000
1000
0001
1000
0001
,  // measure 113
0100
0010
0100
0010
1000
0000
0010
0000
,  // measure 114
1000
0000
0010
0100
0001
0000
0100
0000
,  // measure 115
1000
0100
1000
0100
1000
0000
0100
0000
,  // measure 116
0001
0010
0100
1000
0010
0100
0001
1000
,  // measure 117
0010
1000
0001
1000
,  // measure 118
0100
0010
0100
0010
0100
0000
0001
0100
,  // measure 119
0010
1000
0100
0010
0001
0000
0010
0000
,  // measure 120
1000
0100
0001
0100
1000
0001
0010
1000
,  // measure 121
2002
0000
3003
2200
,  // measure 122
0000
3300
0022
0000
,  // measure 123
0033
2020
0000
3030
,  // measure 124
0022
0033
0220
0330
,  // measure 125
0202
0000
0303
0022
,  // measure 126
0000
0033
2020
0000
,  // measure 127
3030
2002
0000
3003
,  // measure 128
0001
0010
0100
1000
0001
0100
0010
1000
,  // measure 129
2002
0000
0000
0000
,  // measure 130
0000
0000
0000
0000
,  // measure 131
0000
0000
0000
0000
,  // measure 132
3003
0000
0000
0000
;

//---------------dance-double - ----------------
#NOTES:
     dance-double:
     :
     Challenge:
     18:
     0.950,1.000,0.681,0.490,0.029,660.000,82.000,59.000,0.000,0.000,0.000,0.950,1.000,0.681,0.490,0.029,660.000,82.000,59.000,0.000,0.000,0.000:
00000011
00000000
00000000
00000000
00000010
00000000
00000000
00000000
00000100
00000000
00000000
00000000
00001000
00000000
00000000
00000000
00021000
00000000
00000000
00000000
00100000
00000000
00000000
00000000
10030000
00000000
00000000
00000000
00100000
00000000
10000000
01000000
,
00010000
00000000
00000000
00000000
00000100
00000000
00000000
00000000
00001000
00000000
00000000
00000000
00000010
00000000
00000000
00000000
00000001
00000000
00000000
00000000
00000100
00000000
00001000
00010000
00001000
00000000
00000000
00000000
00100000
00000000
00000000
00000000
,
10000000
00000000
00000000
00000000
01000000
00000000
00000000
00000000
00100000
00000000
00000000
00000000
00001000
00000000
00000000
00000000
00000100
00000000
00000000
00000000
00000001
00000000
00000000
00000000
00000010
00000000
00000000
00000000
00001100
00000000
00001000
00000100
,
00001000
00000000
00000000
00000000
00000000
00000000
00000000
00000000
00010000
00000000
00000000
00000000
00000000
00000000
00000000
00000000
00010000
00000000
00000000
00000000
00000000
00000000
00000000
00000000
00002000
00000000
00000000
00000000
00020000
00000000
00000000
00000000
00000000
00000000
00000000
00000000
00000000
00000000
00000000
00000000
00000000
00000000
00000000
00000000
00000000
00000000
00000000
00000000
00000000
00033000
00000000
00000000
00000000
00000000
00000000
00000000
00000000
00000000
00000000
00000000
00000000
00000000
00000000
00000000
,
10000000
00000000
00100000
00010000
01000000
00000000
00010000
00001000
,
00000100
00001000
00000100
00000000
00000010
00000001
00000100
00000000
,
00001000
00000000
01000000
00010000
00100000
00000000
00010000
10000000
,
01000000
00100000
00010000
00000000
00001000
00100000
00010000
00000000
,
00000100
00000000
00000001
00000010
00000100
00000000
00001000
00000100
,
00000010
00001000
00000100
00000000
00001000
00100000
00010000
01000000
,
00100000
10000000
00200000
00000000
00310000
00001000
00100000
00010000
,
00001000
00000100
00001000
00000100
00000001
00000100
00000010
00000001
,
00000100
00000000
00010100
00000000
00001000
00100000
00010000
00100000
,
01000000
10000000
02000000
00000000
03010000
00100000
00020000
00000000
,
00031000
00000000
00000010
00000000
00000001
00000010
00000100
00001000
,
00000100
00010000
00001000
00000000
00010000
00001000
00010000
00000000
,
00100000
00000000
10000000
01000000
00100000
00000000
00010000
01000000
,
00010000
00100000
00001000
00000000
00000100
00000001
00000100
00000000
,
00001000
00010000
00001000
00000000
00100000
01000000
00100000
00000000
,
10000000
00100000
10000000
00000000
01000000
00010000
00100000
00010000
,
00001000
00000000
00000100
00001000
00000001
00000000
00000010
00000100
,
00001000
00010000
00000000
00000100
00000001
00000000
00001100
00000000
,
00011000
00000000
00100000
01000000
10000000
00000000
00010000
01000000
,
00010000
00001000
00000000
00000100
00010000
00000000
00100000
00000000
,
00000100
00010000
00000100
00000010
00000001
00000100
00000010
00001000
,
00000000
00101000
00000000
00100000
00001000
00000000
00010000
01000000
,
00100000
10000000
00010000
00100000
02000000
00000000
10000000
00000000
,
03010000
00001000
00000100
00001000
00010000
00000000
00110000
00000000
,
00110000
00000000
01100000
00000000
00110000
00000000
10000000
00100000
,
00000000
01010000
00000000
00100000
00010000
00000000
00010100
00000000
,
00001100
00000000
00000101
00000000
00000110
00000000
00000200
00010000
,
00000000
00001000
00000000
00001300
00010000
00000000
01100000
00000000
,
21000000
00000000
30100000
00000000
00101000
00000000
00010000
00100000
,
00000000
01010000
00000000
00100000
00010000
00000000
00011000
00000000
,
00000100
00000001
00000100
00000000
00001000
00000000
00000100
00001000
,
00010000
00001000
00010000
00100000
01000000
10000000
00100000
00000000
,
11000000
00110000
00001000
00000100
,
00000001
00000010
00000100
00001000
00000100
00001000
00010000
00000000
,
00100000
01010000
01010000
11000000
,
00110000
00000000
00001000
00000000
00000100
00000010
00000100
00001000
,
00000001
00001000
00100000
01010000
,
00100000
00000000
10000000
00000000
01000000
00010000
10000000
00010000
,
00100000
01000000
10000000
00010000
00100000
00000000
01100000
00000000
,
00010000
00100000
00010000
00000000
10000000
01000000
00100000
00010000
,
22000000
00000000
33000000
00220000
,
00000000
00330000
00002200
00000000
,
00003300
00000022
00000000
00000033
,
00020200
00030300
00022000
00033000
,
20020000
00000000
30030000
02200000
,
00000000
03300000
00202000
00000000
,
00303000
00020020
00000000
00030030
,
00010000
00100000
01000000
10000000
00100000
01000000
00010000
00001000
,
00100000
00000000
00001000
00000000
00000100
00000010
00000100
00000001
,
00000000
00001001
00000000
00001000
00010000
00000000
01100000
00000000
,
10000000
00000000
00010000
01000000
00100000
10000000
01000000
00100000
,
00000000
10010000
00000000
00010000
00001000
00000000
00000010
00000000
,
00000100
00000010
00001000
00000001
00000100
00001000
00010000
00100000
,
00000000
10010000
00000000
01000000
10000000
00000000
01100000
00000000
,
00010000
00000000
00001000
00000100
00001000
00010000
00001000
00000100
,
00000000
00000011
00000000
00001000
00020000
00030000
00020000
00030000
,
10000000
00100000
01000000
00010000
00100000
01000000
10000000
01000000
,
00000000
01100000
00000000
00100000
00010000
00000000
00000100
00000000
,
00000001
00000000
00000100
00000000
00001000
00000000
00000010
00001000
,
00000000
00011000
00000000
00010000
00001000
00000000
01000000
00000000
,
10000000
01000000
00100000
00010000
00100000
00000000
00001000
00010000
,
00000000
00011000
00000000
00001000
00000010
00000000
00000100
00000000
,
00000002
00000000
00002003
00000000
,
00003020
00000000
00000230
00000000
,
00001300
00000000
00010000
00000000
01000000
00000000
10000000
00010000
,
01000000
00010000
00100000
00000000
00010000
00001000
00010000
00000100
,
00001000
00000000
00000001
00000000
00000010
00000000
00000100
00001000
,
00010000
00100000
01000000
10000000
00100000
01000000
00100000
01000000
,
00100000
00000000
00010000
00000000
10000000
00000000
01000000
00001000
,
00010000
00100000
00001000
00100000
00010000
00001000
00000010
00000100
,
00000001
00001010
00000100
00001000
,
00010000
01000000
00100000
10000000
00010000
00100000
01000000
10000000
,
00100000
00000000
00011000
00000000
00000100
00000000
00000001
00000010
,
00000100
00001000
00000100
00001000
00000010
00000000
00001000
00000000
,
00010000
00000000
00100000
00000000
01000000
00000000
10000000
01000000
,
00100000
01000000
10000000
00000000
00010000
00000000
00011000
00000000
,
00011000
00000000
00011000
00000000
00011000
00000000
00000100
00000001
,
00000100
00001000
00000100
00001000
00000001
00000000
00000100
00000000
,
00001000
00010000
00001000
00010000
00100000
00001000
00100000
00001000
,
00010000
00000100
00010000
00000100
00001000
00100000
00001000
00100000
,
00010000
00010000
01000000
01000000
,
10000000
10000000
00100000
00100000
,
00001000
00001000
00000010
00000010
,
00000100
00000100
00000001
00000001
,
00000100
00000100
00001000
00001000
,
00010000
00010000
00100000
00100000
,
01000000
01000000
10000000
10000000
,
00001000
00001000
00000100
00000100
,
00001001
00000000
00001010
00000000
,
00001100
00000000
00011000
00000000
,
10010000
00000000
00110000
00000000
,
00001010
00000000
00000101
00000000
,
00000220
00000000
00000000
00000000
00000000
00000000
00000000
00000330
,
00001000
00000010
00000100
00000001
00001000
00000000
00010000
00000000
,
01000000
00100000
00000000
01010000
00000000
00100000
01000000
00000000
,
10000000
00000000
00010000
01000000
00100000
00000000
00001000
00010000
,
00000000
00011000
00000000
00001000
00000100
00000000
00001000
00000000
,
00000001
00000010
00000100
00000000
00000010
00000100
00000000
00000001
,
00000000
00000100
00001000
00010000
00001000
00000000
00010000
00000000
,
00100000
01000000
00010000
00100000
00010000
01000000
10000000
00100000
,
01000000
00010000
00000000
00000100
00000001
00000100
00000010
00000000
,
00000100
00001000
00000100
00000000
00001000
00010000
00000000
00011000
,
00000000
00001000
00010000
00100000
00010000
00000000
00100000
00000000
,
10000000
00000000
00100000
01000000
00010000
10000000
00100000
01000000
,
00000000
00010000
00001000
00010000
00001000
00000000
00000001
00000000
,
00000010
00001000
00000010
00000000
00001000
00010000
00000000
00001000
,
00000000
00010000
00001000
00100000
01000000
00000000
10000000
00000000
,
00110000
00000000
00011000
00000000
,
00001100
00000000
00000000
00000000
00001000
00010000
00001000
00010000
,
00001000
00000100
00000010
00000001
00001000
00000000
00000100
00000000
,
00001000
00000000
00000010
00000100
00001000
00000000
00000001
00000000
,
00001000
00010000
00001000
00100000
00010000
00000000
00100000
00000000
,
00010000
00100000
00010000
00001000
00010000
00000100
00001000
00000001
,
00000010
00001010
00001000
00010100
,
00001000
00010000
00100000
01000000
00100000
00000000
10000000
01000000
,
00100000
00010000
00100000
01000000
10000000
00000000
00010000
00000000
,
00001000
00000100
00000001
00000100
00001000
00000010
00000100
00000001
,
00002002
00000000
00003003
00020200
,
00000000
00030300
00022000
00000000
,
00033000
02020000
00000000
03030000
,
22000000
33000000
20200000
30300000
,
20020000
00000000
30030000
00200200
,
00000000
00300300
00202000
00000000
,
00303000
00002200
00000000
00003300
,
00000001
00000010
00000001
00000010
00000100
00001000
00000100
00001000
,
00022000
00000000
00000000
00000000
,
00000000
00000000
00000000
00000000
,
00000000
00000000
00000000
00000000
,
00033000
00000000
00000000
00000000
;
