#TITLE:New Decade;
#SUBTITLE:;
#ARTIST:Sota F.;
#TITLETRANSLIT:;
#SUBTITLETRANSLIT:;
#ARTISTTRANSLIT:;
#GENRE:X2 BEAT 2010;
#CREDIT:;
#MENUCOLOR:extra;
#METERTYPE:DDR X;
#BANNER:New Decade.png;
#BACKGROUND:New Decade-bg.png;
#LYRICSPATH:;
#CDTITLE:./CDTITLES/DanceDanceRevolution X2.png;
#MUSIC:New Decade.mp3;
#OFFSET:1.143;
#SAMPLESTART:19.220;
#SAMPLELENGTH:15.000;
#SELECTABLE:YES;
#LISTSORT:;
#DISPLAYBPM:100.000:400.000;
#BPMS:0.000=400.000,264.000=100.000,272.000=200.000,303.000=400.000,431.000=200.000;
#STOPS:303.000=0.300
;
#BGCHANGES:;
#ATTACKS:;

//---------------dance-single - ----------------
#NOTES:
     dance-single:
     :
     Beginner:
     4:
     0.210,0.337,0.079,0.000,0.000:
0000
0000
0000
0000
,
0000
0000
0000
0000
,
0000
0000
0000
0000
,
0000
0000
0000
0000
,
0000
0000
0000
0000
,
0000
0000
0000
0000
,
0000
0000
0000
0000
,
0000
0000
0000
0000
,
0000
0000
0000
0000
,
0000
0000
0000
0000
,
0000
0000
0010
0000
,
0000
0000
0100
0000
,
0000
0000
0010
0000
,
0000
0000
0100
0000
,
0000
0000
0001
0000
,
0000
0000
1000
0000
,
0000
0000
1001
0000
,
0000
0000
0000
0000
,
0000
0000
0100
0000
,
0000
0000
0100
0000
,
0000
0000
0100
0000
,
0000
0000
0100
0000
,
0000
0000
0010
0000
,
0000
0000
0010
0000
,
0000
0000
0010
0000
,
0000
0000
0010
0000
,
0000
0000
0001
0000
,
0000
0000
0001
0000
,
0000
0000
0001
0000
,
0000
0000
0001
0000
,
0000
0000
1000
0000
,
0000
0000
1000
0000
,
0000
0000
1000
0000
,
0000
0000
1000
0000
,
0000
0000
0010
0000
,
0000
0000
0010
0000
,
0000
0000
0001
0000
,
0000
0000
0001
0000
,
0000
0000
0100
0000
,
0000
0000
0100
0000
,
0000
0000
1000
0000
,
0000
0000
1000
0000
,
0000
0000
0010
0000
,
0000
0000
0010
0000
,
0000
0000
0001
0000
,
0000
0000
0001
0000
,
0000
0000
0010
0000
,
0000
0000
0000
0000
,
1001
0000
0000
0000
,
0000
0000
0000
0000
,
0000
0000
0001
0000
,
0000
0000
0001
0000
,
0000
0000
1000
0000
,
0000
0000
1000
0000
,
0000
0000
0001
0000
,
0000
0000
0001
0000
,
0000
0000
1000
0000
,
0000
0000
1000
0000
,
0000
0000
0010
0000
,
0000
0000
0010
0000
,
0000
0000
0100
0000
,
0000
0000
0100
0000
,
0000
0000
0010
0000
,
0000
0000
0010
0000
,
0000
0000
0010
0000
,
0000
0000
0010
0000
,
0100
0000
0100
0000
,
0010
0000
0010
0000
,
0001
0000
0000
0000
,
0001
0001
0001
0000
,
1000
0000
0000
0000
,
1000
1000
1000
0000
,
0010
0000
0000
0000
,
0010
0000
0000
0000
,
0010
0000
0000
0000
,
0010
0010
0010
0000
,
0000
0100
0000
0000
,
0000
0100
0000
0000
,
0000
1000
0000
0000
,
0000
1000
0000
0000
,
0000
0001
0000
0000
,
0000
0001
0000
0000
,
0000
0010
0000
0000
,
0000
0010
0000
0000
,
0000
0001
0000
0000
,
0000
0001
0000
0000
,
0000
1000
0000
0000
,
0000
1000
0000
0000
,
0000
0100
0000
0000
,
0000
0100
0000
0000
,
0000
0010
0000
0000
,
0000
0010
0000
0000
,
0000
0001
0000
0000
,
0000
1000
0000
0000
,
0000
0001
0000
0000
,
0000
1000
0000
0000
,
0000
0001
0000
0000
,
0000
1000
0000
0000
,
0000
0001
0000
0000
,
0000
1000
0000
0000
,
0000
0010
0000
0000
,
0000
0100
0000
0000
,
0000
0010
0000
0000
,
0000
0100
0000
0000
,
0000
0010
0000
0000
,
0000
0100
0000
0000
,
0000
0010
0000
0000
,
0000
0100
0000
0010
,
0000
1000
0000
0001
,
0000
0100
0000
0010
,
0000
1000
0000
0001
,
0000
0100
0000
0010
,
0000
0010
0000
1000
,
0000
1000
0000
0001
,
0000
0001
0000
0100
,
0000
0100
0000
1001
,
0000
0000
0000
1001
,
0000
0000
0000
1001
,
0000
0000
0000
1001
,
0000
0000
0000
1001
,
;

//---------------dance-single - ----------------
#NOTES:
     dance-single:
     :
     Easy:
     11:
     0.642,1.000,0.292,0.562,0.011:
0000
0000
0000
0000
,
0000
0000
0000
0000
,
0000
0000
0000
0000
,
0000
0000
0000
0000
,
0000
0000
0000
0000
,
0000
0000
0000
0000
,
0000
0000
0000
0000
,
0000
0000
0000
0000
,
0000
0000
0000
0000
,
0000
0000
0000
0000
,
0010
0000
0010
0000
,
1000
0000
1000
0000
,
0001
0000
0001
0000
,
0100
0000
0100
0000
,
0002
0000
2003
3020
,
0230
0302
0003
0110
,
0000
1001
0000
0110
,
0000
0010
0100
0000
,
0010
0000
1001
0000
,
0100
0000
1001
0000
,
0010
0000
1001
0000
,
0100
0000
1001
0000
,
0010
0100
0010
0000
,
0100
0000
0100
0000
,
0100
0010
0100
0000
,
0010
0000
0010
0000
,
0110
0000
1000
0000
,
0110
0000
0001
0000
,
0110
0000
1000
0000
,
0110
0000
0001
0000
,
1000
0100
1000
0100
,
0010
0001
0010
0001
,
0100
0010
0100
0010
,
1000
0001
1000
0001
,
2000
0000
3001
0000
,
0010
0001
0100
0000
,
0002
0000
1003
0000
,
0010
1000
0100
0000
,
2000
0000
3001
0000
,
0100
0001
0010
0000
,
0002
0000
1003
0000
,
0100
1000
0010
0000
,
0200
0000
0310
0000
,
1000
0001
0100
0000
,
0020
0000
0130
0000
,
0001
1000
0100
0000
,
0010
0100
0010
0100
,
0000
0110
0000
0000
,
1001
0000
0110
0000
,
2002
0000
0000
3003
,
1000
1000
0100
0000
,
0001
0001
0100
0000
,
1000
1000
0010
0000
,
0001
0001
0010
0000
,
0001
0010
0100
0000
,
1000
0010
0100
0000
,
0001
0100
0010
0000
,
1000
0100
0010
0000
,
0001
0100
1000
0000
,
0001
0100
1000
0000
,
1000
0100
0001
0000
,
1000
0100
0001
0000
,
0001
0010
0001
0010
,
0001
1000
0001
1000
,
0001
0100
0001
0100
,
0001
0010
0100
0000
,
1001
0000
0000
0001
0000
0000
0010
0000
0100
0000
0000
0010
0000
0000
1000
0000
,
0100
0010
0001
0110
1000
0100
0010
0110
,
0010
0000
0100
0010
0000
0110
0000
1001
,
0000
0110
0000
0001
1000
0000
0110
0000
,
0001
0010
0001
0100
0000
0001
0010
0100
,
0000
1000
0010
0100
0010
0000
0110
0000
,
2000
0000
0000
0000
,
3002
0000
0000
0000
,
0023
0000
0230
0000
,
0310
0100
1001
0110
,
1000
0100
1000
0000
,
0001
0010
0001
0000
,
1000
0010
0100
0000
,
0001
0010
0100
2000
,
0000
3001
2000
0000
,
3001
0020
0000
0130
,
0000
0100
0010
0000
,
2002
0000
3003
0000
,
0001
0010
0001
0000
,
1000
0010
1000
0020
,
2030
3020
2030
3002
,
0203
0302
0203
0301
,
0010
0001
0010
0100
,
1000
0100
1000
0001
,
0000
0010
0100
0000
,
0100
0010
0000
0002
,
0000
0013
0200
0000
,
2300
0000
3002
0000
,
0023
0000
0230
0000
,
0300
0000
0000
1000
,
0100
1000
0000
0010
,
0000
0100
0000
0001
,
0100
0001
0000
0010
,
0000
0100
0000
0020
,
0000
2030
3002
0000
,
0023
0000
0230
0000
,
2300
0000
3200
0000
,
0000
0300
0000
0001
,
0001
0000
1000
1000
,
0000
0010
0010
0100
,
0000
0000
0000
0000
,
0020
0000
0130
0010
,
1000
0000
0001
0100
1000
0000
0100
0000
,
0010
0000
0100
0001
0010
0000
0001
0000
,
0010
0000
0001
0010
0100
0000
1000
0000
,
0100
0000
1000
0100
0001
0000
0100
0000
,
1000
0000
0010
0100
0001
0000
1000
0000
,
0010
0000
1000
0100
0010
0000
0001
0000
,
1000
0000
0001
0100
1000
0000
0100
0000
,
0010
0000
0100
0010
0100
0001
2000
0000
,
0000
0000
0000
3002
,
0000
0000
0000
2003
,
0000
3002
0000
0023
,
0230
0000
1300
0001
1000
0000
0001
0000
,
;

//---------------dance-single - ----------------
#NOTES:
     dance-single:
     :
     Medium:
     14:
     0.758,1.000,0.349,0.528,0.174:
0000
0000
0000
0000
,
0000
0000
0000
0000
,
0000
0000
0000
0000
,
0000
0000
0000
0000
,
0000
0000
0000
0000
,
0000
0000
0000
0000
,
0000
0000
0000
0000
,
0000
0000
0000
0000
,
0000
0000
0000
0000
,
0000
0000
0000
0000
,
0010
1000
0100
0000
,
0010
0001
0100
0000
,
0010
1000
0001
0000
,
0010
0001
1000
0000
,
0002
0000
2003
3020
,
0230
0302
0003
0110
,
0000
1001
0000
0110
,
0000
0010
0100
0000
,
1000
0000
1100
0000
,
0001
0000
0101
0000
,
0010
0000
0011
0000
,
1000
0000
1010
0000
,
0001
0010
1000
0001
,
0100
1000
0100
0001
,
1000
0010
0001
0010
,
1000
0001
0100
1000
,
0001
0000
0101
0000
,
0100
0000
1100
0000
,
1000
0000
1010
0000
,
0010
0000
0011
0000
,
1000
0010
0001
1000
,
0100
0001
0100
1000
,
0001
0010
1000
0001
,
0100
1000
0100
0001
,
1000
1000
0100
0000
,
0001
0001
0100
0000
,
1000
1000
0010
0000
,
0001
0001
0010
0000
,
1000
0100
0010
0000
,
0001
0100
0010
0000
,
0010
0010
1000
1000
,
0001
0001
0100
0100
,
0010
0010
1000
0000
,
0001
0001
0010
0000
,
0100
0100
1000
0000
,
0010
0010
0001
0000
,
1000
0100
0001
0010
,
0000
0110
0000
0000
,
0011
0000
1100
0000
,
2002
0000
0000
3003
,
1000
1000
0100
0100
,
0010
0010
0001
0001
,
0010
0100
1000
0010
,
0100
0001
0010
0100
,
1000
1000
0100
0100
,
0010
0010
0001
0001
,
0100
1000
0100
0001
,
1000
0010
0001
0010
,
1000
1000
0100
0100
,
0010
0010
0001
0001
,
0010
1000
0001
0100
,
1000
0100
0001
0100
,
2000
3200
0320
0032
,
0203
0320
2030
3001
,
0100
0010
1000
0001
,
0100
0010
1000
0001
,
0200
0000
0000
0010
0000
0000
1000
0000
0001
0000
0000
0010
0000
0000
0001
0000
,
1300
0000
1000
0100
0001
0000
0110
0000
0000
0100
1000
0010
0001
0000
0110
0000
,
1001
0000
0010
0100
0000
0001
0000
0100
,
0000
0100
0001
0010
0100
0000
1001
0000
,
0110
0000
0001
0010
0000
1000
0000
0100
,
0000
0100
1000
0010
0100
0000
1001
0000
,
2000
0000
0000
0000
,
3002
0000
0000
0000
,
0023
0000
0230
0000
,
0310
0100
1001
0110
,
1000
0001
0100
0010
,
1000
0100
0010
0001
,
0010
1000
0001
0100
,
1000
0001
0100
0020
,
0000
1030
0002
0000
,
0103
0020
0000
0130
,
0001
0010
0100
1000
,
0100
0010
0001
1000
,
0100
0010
0001
0100
,
0010
1000
0100
0002
,
0203
2300
3002
0023
,
2030
3020
0230
0301
,
0100
0100
0010
0010
,
0001
0010
0010
0100
,
0100
1000
0010
0100
,
0001
0010
0100
2000
,
0000
3001
0200
0000
,
0320
0000
0032
0000
,
2003
0000
3200
0000
,
0300
0000
0000
0010
,
1000
0001
0100
0010
,
1000
0100
0001
0100
,
1000
0010
0001
0010
,
0100
0001
0100
0101
,
0000
1010
1010
0000
,
0011
0000
0110
0000
,
1001
0000
0220
0000
,
0000
0000
0000
0330
0000
0000
0010
0000
,
0010
0000
0100
0100
,
0000
1000
0010
0200
,
0000
0000
0000
0000
,
0302
0000
0000
0000
0000
0000
0000
0000
0013
0000
0000
0000
0100
0000
0000
1000
,
0000
0000
0010
0000
0000
0001
0000
0000
0010
0000
1000
0000
0001
0010
0000
0000
,
0001
1000
0000
0000
0001
0100
0000
0000
0010
0100
0000
0000
0010
0000
0000
1000
,
0000
0000
0100
0000
0000
0001
0000
0000
0100
0000
0010
0000
0001
0100
0000
0000
,
0010
1000
0000
0000
0100
0001
0000
0000
0100
0010
0000
0000
0001
0000
0000
0100
,
0000
0000
1000
0000
0000
0100
0000
0000
0010
0000
0100
0000
1000
0100
0000
0000
,
0001
0100
0000
0000
0010
0100
0000
0000
0010
1000
0000
0000
0100
0000
0000
0010
,
0000
0000
0001
0000
0000
1000
0000
0000
0100
0000
0001
0000
0100
1000
0000
0000
,
0100
0001
0000
0000
1000
0010
0000
0000
0001
0100
0000
0000
0002
0000
0000
0000
,
0000
0000
0000
0000
0000
0000
0003
0000
0010
0100
0010
0000
0200
0000
0000
0000
,
0000
0000
0000
0000
0000
0000
0000
0000
1300
0100
1000
0000
0020
0000
0000
0000
,
0000
0230
0000
0302
,
2003
3020
0130
1001
,
;

//---------------dance-single - ----------------
#NOTES:
     dance-single:
     :
     Hard:
     17:
     0.989,1.000,0.708,0.506,0.247:
0000
0000
0000
0000
,
0000
0000
0000
0000
,
0000
0000
0000
0000
,
0000
0000
0000
0000
,
0000
0000
0000
0000
,
0000
0000
0000
0000
,
0000
0000
0000
0000
,
0000
0000
0000
0000
,
0000
0000
0000
0000
,
0000
0000
0000
0000
,
1000
0010
0100
0001
,
0010
0100
1000
0001
,
0010
1000
0001
0100
,
1000
0010
0100
0001
,
0002
0000
2003
3020
,
0230
0302
0003
0110
,
0000
1001
0000
0110
,
0000
0010
0100
0000
,
0001
0100
0001
0000
1000
0100
0000
1000
,
0100
0010
0001
0000
0010
0001
0100
0000
,
0001
1000
0100
0000
1000
0001
0000
0100
,
0001
0010
0100
0000
1000
0010
0100
0000
,
0010
1000
0001
0100
,
0010
1000
0001
0100
,
0010
1000
0010
0001
,
1000
0100
0001
0010
,
0001
0100
0010
0000
1000
0100
0000
0010
,
0001
0100
0010
0000
1000
0100
0000
0010
,
0001
0100
0010
0000
1000
0100
0000
0010
,
0001
0010
0100
0000
1000
0001
0000
0001
,
1000
1000
0001
0001
,
0010
0010
0100
0100
,
1100
1100
0010
0010
,
0011
0011
0100
0100
,
0010
0010
1000
1000
,
0001
0001
0100
0100
,
0010
0010
1000
1000
,
0001
0001
0100
0100
,
0001
0100
0001
0000
0010
0000
1000
0100
,
1000
0000
0010
0000
0100
0010
0100
0000
,
0001
0100
0010
0000
1000
0000
1000
0100
,
0010
0000
0001
0000
0001
0100
0010
0000
,
0010
0010
0001
0001
,
1000
1000
0100
0100
,
0001
0001
0010
0010
,
1000
1000
0010
0010
,
0011
0001
1000
1100
,
0000
1001
0000
0000
,
0010
0000
0100
0000
,
2002
0000
0000
3003
,
0010
0001
0100
0000
0010
0000
1000
0100
,
1000
0000
0100
0000
0010
0001
0100
0000
,
0001
1000
0100
0000
1000
0000
1000
0001
,
0010
0000
0100
0000
0010
0100
1000
0000
,
0001
0010
0100
0000
0001
0000
0100
1000
,
0010
0000
0100
0000
0010
1000
0100
0000
,
0001
0100
1000
0000
0010
0000
0100
0001
,
0010
0000
0100
0000
1000
0100
0001
0000
,
0001
0100
1000
0000
0010
0000
0100
0001
,
0010
0000
0100
0000
0001
0100
1000
0000
,
0001
0100
0010
0000
1000
0000
0010
1000
,
0100
0000
0010
0000
0001
0010
1000
0000
,
0001
0100
1000
0010
,
0001
1000
0100
0001
,
0010
0011
0001
0100
,
1100
0010
0100
0010
,
0200
0000
0000
0010
0000
0000
1000
0000
0001
0000
0000
0010
0000
0000
0001
0001
,
0301
0000
0100
0001
0010
0000
0110
0000
0000
1000
0001
0010
0100
0000
1001
0000
,
0110
0000
0100
0101
0000
0010
0000
1100
,
0000
0101
0000
0100
0010
0000
1001
0000
,
0110
0000
0100
1100
0000
0101
0000
0100
,
0000
0011
0000
1010
0000
0110
1001
0000
,
0220
0000
0000
0000
0000
0000
0000
0000
0000
0000
0000
0030
0301
0100
0010
0000
,
0220
0000
0000
0000
0000
0000
0000
0000
0000
0000
0000
0300
1030
0100
0010
0000
,
0002
0000
0000
0000
0013
0001
0010
0000
2000
0000
0000
0000
3010
1000
0010
0000
,
1001
0000
0000
0000
0110
0000
0000
0000
2002
0000
0000
3003
1001
0000
0000
0000
,
1000
0110
0100
0001
,
0010
1100
0010
0001
,
0100
0011
0001
1000
,
0100
0000
1010
0000
0010
0000
1000
0010
,
0100
0000
0001
0000
0010
0100
1000
0000
,
0010
0000
1000
0001
0100
0000
0010
1000
,
0100
0110
0001
0100
,
1000
0110
0001
0010
,
0100
1100
0010
0100
,
1000
0110
0001
0020
,
0230
2300
3020
0230
,
0302
0203
2300
3100
,
0100
1000
0010
0010
,
0001
0100
0100
0010
,
0001
0100
1000
0100
,
1000
0000
0100
1000
0100
0000
1100
0000
,
0000
1010
0101
0000
,
0101
0000
1001
0000
,
1010
0100
0001
0010
,
1000
0000
0010
0000
0001
0000
0100
0001
,
0100
0010
1000
0100
,
0010
0000
0001
0000
0100
0000
0010
1000
,
0010
1000
0100
0010
,
0001
0100
0010
1010
,
0000
0001
1001
0000
,
0011
0000
1100
0000
,
0101
0000
0220
0000
,
0330
0000
0000
1000
,
1000
0000
0001
0001
,
0000
0010
0010
0100
,
0000
0100
0010
0000
,
0010
0000
0000
0000
1000
0000
0000
0000
0001
0000
0000
0000
2000
0000
0000
3100
,
0010
0000
0000
0001
0000
0200
0000
0000
0320
0000
0130
0000
0000
0001
0020
0000
,
0000
2030
0000
0000
0000
3001
0100
0000
0000
0010
0200
0000
2300
0000
0000
3010
,
0100
0000
0000
0001
0000
1000
0000
0000
0101
0000
1100
0000
0000
0010
0002
0000
,
0000
0203
0000
0000
0000
0301
0010
0000
0000
0010
0001
0000
0010
0000
0000
0100
,
2000
0000
0000
3001
0000
0002
0000
0000
1003
0100
0020
0000
0030
0001
0020
0000
,
0130
0010
0001
0000
0000
0001
0020
0000
0000
0130
0010
0000
1001
0000
0000
0001
,
0100
0000
0000
1010
0000
0101
0000
0000
0011
0000
2100
0000
0000
3001
0010
0000
,
0000
0001
0100
0000
0000
0001
0010
0100
1000
0010
0100
0000
0002
0000
0000
0000
,
0000
0000
0000
0000
0000
0000
0000
0000
0103
0001
1000
0000
0002
0000
0000
0000
,
0000
0000
0000
0000
0000
0000
0000
0000
0013
0001
0100
0000
0020
0000
0000
0000
,
1030
0001
0100
0000
0020
0000
0000
0000
1030
0100
0010
0000
0001
0000
0011
0000
,
0100
1100
0010
0100
0010
0000
1001
0000
;

//---------------dance-single - ----------------
#NOTES:
     dance-single:
     :
     Challenge:
     18:
     1.000,1.000,1.000,0.596,0.326:
0000
0000
0000
0000
,
0000
0000
0000
0000
,
0000
0000
0000
0000
,
0000
0000
0000
0000
,
0000
0000
0000
0000
,
0000
0000
0000
0000
,
0000
0000
0000
0000
,
0000
0000
0000
0000
,
0000
0000
0000
0000
,
0000
0000
0000
0000
,
0001
0100
1000
0010
,
1000
0100
0001
0010
,
1000
0001
0100
1000
,
0001
0010
1000
0001
,
0200
0000
2300
3002
,
0023
0230
0300
1100
,
0000
0011
0000
1010
,
0000
0110
1001
0000
,
0001
0100
0010
0000
1000
0001
0000
0010
,
0100
1000
0010
0000
0100
0001
0010
0000
,
0100
1000
0010
0000
1000
0010
0000
0100
,
0001
0010
0100
0000
1000
0001
0010
0000
,
0020
0000
0031
0100
0010
0000
0010
0000
,
0020
0000
1030
0100
0010
0000
0001
0010
,
0100
0000
1000
0010
0100
0000
0200
0000
,
0302
0000
0023
0000
0031
0100
0010
1000
,
0100
1000
0001
0000
0010
0001
0000
1000
,
0010
0100
0001
0000
0010
0100
0000
0010
,
0001
0100
0010
0000
1000
0010
0000
0100
,
0001
0010
1000
0000
0010
0001
0000
1000
,
0001
0101
0010
1010
,
0100
0110
0001
1100
,
0011
1100
1010
0101
,
0110
1001
0011
1100
,
0001
0001
0001
0010
,
0010
0000
0010
0000
0100
1000
0010
0000
,
1000
1000
1000
0010
,
0010
0000
0010
0000
0100
0001
0010
0000
,
0010
0001
1000
0000
1001
0000
0010
1000
,
0001
0000
1001
0000
0010
0100
0010
0000
,
0011
0011
0011
0011
,
1100
1100
0101
0101
,
0001
0001
0001
0100
,
0100
0000
0100
0000
0001
0100
0010
0000
,
1000
1000
1000
0010
,
0010
0000
0010
0000
0100
0001
0010
0000
,
0011
1100
1010
0101
,
0000
1001
0000
0000
,
0010
0000
0100
0000
,
2002
0000
0000
3003
,
0001
0100
1000
0100
0010
0000
0100
0001
,
0010
0000
0001
0000
0010
0001
0100
0000
,
0001
0010
1000
0010
0100
0000
0010
0001
,
0100
0000
0001
0000
0100
0001
0010
0000
,
0001
0100
1000
0100
0001
0000
1000
0001
,
0100
0000
0001
0000
1000
0010
0100
0000
,
0001
0011
0000
0110
,
0000
1000
0001
1000
,
0001
0010
1000
0000
0010
0000
1000
0010
,
0001
0000
0100
0000
0001
0100
1000
0000
,
0100
0001
0010
0000
0100
0000
0100
1000
,
0010
0000
0100
0000
0010
1000
0100
0000
,
1000
1100
0001
0101
,
1000
1010
0001
0011
,
0110
1001
0110
1001
,
0010
0100
0001
1000
,
0010
1000
0000
0000
0001
0000
0100
0000
0000
0000
0001
0000
0100
0000
0010
0000
1000
0100
0000
0000
0010
0000
0001
0000
0000
0000
1000
0000
0100
0000
0010
0000
,
0001
0010
0000
0000
1000
0000
0010
0000
0001
0100
0000
0000
0001
0010
0000
0000
0000
0000
1000
0000
0010
0000
0001
0000
1000
0100
0000
0000
0001
0100
0000
0000
,
0110
0000
1001
0011
0000
0110
0000
1100
,
0000
1000
0001
0110
1001
0000
0110
0000
,
0110
0000
1001
1100
0000
0110
0000
0011
,
0000
0001
1000
0010
0100
0001
0110
0000
,
2020
0000
0000
0000
0000
0000
0000
0000
0000
0000
0000
0030
3100
0010
0001
0000
,
0022
0000
0000
0000
0000
0000
0000
0000
0000
0000
0000
0030
0103
0010
1000
0000
,
0002
0000
0000
0000
1003
0010
0100
0000
2000
0000
0000
0000
3001
0010
0100
0000
,
1001
1100
0101
1001
,
0001
0110
1000
0001
,
0010
1100
0010
0100
,
0001
1010
0100
0001
,
0010
0000
1100
0000
0010
0000
1000
0010
,
0001
0000
0010
0000
0001
0010
1000
0000
,
0100
0000
1000
0100
0001
0000
1000
0010
,
0001
1001
0010
0100
,
0001
1100
0010
0100
,
0001
1010
0001
1000
,
0100
0011
1000
0002
,
0023
2030
3002
0203
,
2300
0000
3002
0000
0203
0000
0301
0010
,
0100
0000
1000
0000
0010
0100
0001
0000
,
1000
0000
0100
0010
0001
0000
1000
0100
,
0010
0000
0001
0100
0010
0000
1000
0100
,
0010
0000
0001
0100
0010
0000
0120
0000
,
0000
1030
0002
0000
,
0023
0000
2030
0000
,
3001
0100
1000
0010
,
0001
0000
0010
0000
0100
0000
0001
0100
,
1000
0100
0001
0010
,
0100
0000
0010
0000
1000
0000
0010
0001
,
0100
0000
0010
1000
0100
0000
0001
0010
,
0100
0000
1000
0010
0100
0000
1001
0000
,
0000
0011
1100
0000
,
0110
0000
1100
0000
,
0101
0000
0220
0000
,
0000
0330
0000
1010
,
1010
0000
0011
0011
,
0000
1100
1100
0101
,
0101
0000
0000
0000
,
0000
0000
0000
0000
1000
0000
0100
0000
0010
0000
0001
0000
2000
0000
0000
3001
,
0010
0000
0000
1000
0000
0002
0000
0000
0103
0010
1000
0000
0000
0010
0002
0000
,
0000
1003
0200
0000
0000
0301
0100
0000
0000
1000
0020
0000
0230
0000
0000
0301
,
0010
0000
0000
1010
0000
0101
0000
0000
0011
0000
1100
0000
0000
1000
0200
0000
,
0000
0301
0200
0000
0000
1300
0020
0000
0000
0031
0020
0000
2030
0000
0000
3100
,
0002
0000
0000
1003
0000
0002
0000
0000
0103
1000
0020
0000
0030
0001
0020
0000
,
0130
0010
1000
0000
0000
0001
0020
0000
0000
0130
0010
0000
1001
0000
0000
0010
,
0100
0000
0000
0110
0000
1001
0000
0000
1010
0000
0102
0000
0000
0013
0001
0000
,
0000
1000
0100
0000
0000
0001
0100
1000
0010
0001
0010
0100
0002
0000
0000
0000
,
0000
0000
0000
0000
0000
0000
0000
0000
0103
0001
1000
0000
0002
0000
0000
0000
,
0000
0000
0000
0000
0000
0000
0000
0000
0013
0001
0100
0000
0020
0000
0000
0000
,
1030
0001
0100
0001
0020
0000
0000
0000
0031
0100
0010
1000
0010
0000
1100
0000
,
0010
0101
0010
0100
0110
0000
1001
0000
;

//---------------dance-double - ----------------
#NOTES:
     dance-double:
     :
     Easy:
     11:
     0.596,1.000,0.281,0.393,0.011:
00000000
00000000
00000000
00000000
,
00000000
00000000
00000000
00000000
,
00000000
00000000
00000000
00000000
,
00000000
00000000
00000000
00000000
,
00000000
00000000
00000000
00000000
,
00000000
00000000
00000000
00000000
,
00000000
00000000
00000000
00000000
,
00000000
00000000
00000000
00000000
,
00000000
00000000
00000000
00000000
,
00000000
00000000
00000000
00000000
,
00100000
00000000
10000000
00000000
,
00010000
00000000
01000000
00000000
,
00001000
00000000
00010000
00000000
,
00000010
00000000
00001000
00000000
,
00000001
00000000
00000010
00000100
,
00001000
00000100
00000000
00000200
,
00000000
00020300
00000000
00032000
,
00000000
00020000
00000000
00033000
,
00001000
00000000
00011000
00000000
,
00010000
00000000
01100000
00000000
,
10000000
00000000
01100000
00000000
,
00010000
00000000
01100000
00000000
,
01000000
00010000
00100000
00000000
,
00001000
00000000
00010000
00000000
,
00001000
00000100
00000010
00000000
,
00000100
00000000
00000010
00000000
,
00001000
00000000
00000110
00000000
,
00000001
00000000
00000110
00000000
,
00001000
00000000
00000110
00000000
,
00000001
00000000
00000110
00000000
,
00000001
00000100
00001000
00000000
,
00001000
00000100
00000010
00000000
,
00001000
00000100
00010000
00000000
,
00010000
01000000
10000000
00000000
,
00100000
00100000
10000000
00000000
,
00100000
00000000
10010000
00000000
,
00100000
00100000
00010000
00000000
,
01000000
00000000
00011000
00000000
,
00001000
00001000
00010000
00000000
,
00000100
00000000
00001001
00000000
,
00000010
00000010
00000001
00000000
,
00001000
00000000
00000110
00000000
,
00000010
00001000
00000100
00000000
,
00000010
00000001
00000100
00000000
,
00000100
00001000
00010000
00000000
,
00001000
00010000
01000000
00000000
,
01000000
00100000
00010000
01000000
,
00000000
00011000
00000000
00000000
,
00001000
00000000
00010000
00000000
,
00022000
00000000
00000000
00033000
,
00001000
00010000
00000010
00000000
,
00000100
00000000
00000010
00000000
,
00001000
00000001
00000100
00000000
,
00000010
00000000
00001000
00000000
,
00000100
00001000
00000010
00000000
,
00010000
00000000
00001000
00000000
,
00001000
00010000
01000000
00000000
,
10000000
00000000
00100000
00000000
,
01000000
00010000
00100000
00000000
,
00010000
00000000
10000000
00000000
,
00100000
10000000
01000000
00000000
,
10000000
00000000
00010000
00000000
,
10000000
00010000
01000000
00000000
,
00100000
01000000
00001000
00000000
,
00010000
00000010
00000100
00000000
,
00000001
00000010
00000100
00000000
,
00002001
00000000
00000000
00000001
00000000
00000000
00000001
00000000
00000001
00000000
00000000
00000001
00000000
00000000
00000001
00000000
,
00003001
00000010
00000100
00011000
00010000
01000000
10000000
10010000
,
10000000
00000000
00010000
01000000
00000000
00010000
00000000
00100000
,
00000000
00001000
00000000
00001000
00000100
00000000
00000110
00000000
,
00000001
00000000
00001000
00000100
00000000
00001000
00000000
00000010
,
00000000
00010000
00000000
00010000
01000000
00000000
01100000
00000000
,
20000000
00000000
00000000
00000000
,
30020000
00000000
00000000
00000000
,
00032000
00000000
00003002
00000000
,
00002003
00003001
00001001
00000110
,
00000001
00000100
00001000
00000000
,
00010000
00000000
00001000
00000000
,
00010000
00001000
00100000
00000000
,
00010000
00000000
01000000
00200000
,
00000000
10300000
02000000
00000000
,
13000000
00020000
00000000
00130000
,
00000000
01000000
10000000
00000000
,
00010000
01000000
00000000
00010000
,
00100000
00001000
00000000
00000100
,
00000000
00000010
00000000
00001000
,
00000010
00001000
00000010
00000100
,
00000001
00000100
00000001
00000010
,
00000100
00001000
00000100
00001000
,
00000100
00000010
00000001
00000010
,
00000000
00000001
00000100
00000000
,
00001000
00010000
00000000
02000000
,
00000000
13000000
00200000
00000000
,
02300000
00000000
03020000
00000000
,
00230000
00000000
00302000
00000000
,
00003000
00000000
00000000
00010000
,
00001000
00010000
00000000
00000010
,
00000000
00000100
00000000
00000001
,
00000010
00000001
00000000
00000100
,
00000000
00001000
00000000
00020000
,
00000000
00031000
00200000
00000000
,
00320000
00000000
20030000
00000000
,
30200000
00000000
02300000
00000000
,
03000000
00000000
00000000
01000000
,
01000000
00000000
00001000
00001000
,
00000000
00010000
00010000
00001000
,
00001000
00000000
00000000
00000000
,
00020000
00000000
00031000
00010000
,
00001000
00000000
00001000
00000100
00000001
00000000
00000010
00000100
,
00001000
00000000
00000010
00000100
00000001
00000000
00000010
00000000
,
00000110
00000000
00000010
00001000
00010000
00000000
00001000
00010000
,
00100000
00000000
00010000
00100000
01000000
00000000
00100000
00000000
,
10010000
00000000
01000000
10000000
00010000
00000000
10000000
00100000
,
01000000
00000000
00010000
00100000
01000000
00000000
00100000
00000000
,
10010000
00000000
01000000
00010000
00001000
00000000
00010000
00001000
,
00000100
00000000
00000010
00001000
00000100
00000010
00000002
00000000
,
00000000
00000000
00000000
00002003
,
00000000
00000000
00000000
00023000
,
00000000
20030000
00000000
30020000
,
00230000
02300000
13000000
01100000
,
;

//---------------dance-double - ----------------
#NOTES:
     dance-double:
     :
     Medium:
     14:
     0.748,1.000,0.247,0.382,0.174:
00000000
00000000
00000000
00000000
,
00000000
00000000
00000000
00000000
,
00000000
00000000
00000000
00000000
,
00000000
00000000
00000000
00000000
,
00000000
00000000
00000000
00000000
,
00000000
00000000
00000000
00000000
,
00000000
00000000
00000000
00000000
,
00000000
00000000
00000000
00000000
,
00000000
00000000
00000000
00000000
,
00000000
00000000
00000000
00000000
,
00000010
00000001
00001000
00000000
,
00000001
00001000
00000100
00000000
,
00010000
00000100
00001000
00000000
,
00001000
01000000
00100000
00000000
,
00020000
00000000
20030000
30200000
,
02300000
03020000
00030000
00110000
,
00000000
00011000
00000000
00001010
,
00000000
00000010
00000100
00000000
,
00001000
00000010
00000001
00000010
,
00001000
00000001
00000100
00000000
,
00001000
00010000
01000000
10000000
,
01000000
00010000
10000000
00000000
,
00010000
01000000
10000000
00000000
,
10000000
00100000
00010000
00000000
,
00100000
10000000
01000000
00000000
,
00100000
00010000
01000000
00000000
,
00010000
00100000
10000000
00100000
,
00001000
00100000
01000000
00000000
,
00010000
00001000
00000100
00000001
,
00000010
00001000
00000010
00000000
,
00000001
00000001
00000010
00000010
,
00000100
00000100
00001000
00001000
,
00001100
00000000
00001010
00000000
,
00011000
00000000
00110000
00000000
,
00010000
00100000
10000000
00100000
,
00010000
01000000
00001000
00010000
,
00000010
00001000
00000010
00000001
,
00000010
00001000
00000100
00000001
,
00000100
00001000
00000010
00000100
,
00000001
00000010
00000100
00001000
,
00000100
00000100
00010000
00010000
,
00001000
00001000
00100000
00100000
,
00010000
01000000
10000000
01000000
,
00010000
00100000
10000000
00100000
,
00001000
00010000
00000100
00000010
,
00000001
00001000
00000010
00000001
,
00001000
00000001
00000010
00000100
,
00000000
00000110
00000000
00000000
,
00001000
00000000
00010000
00000000
,
00022000
00000000
00000000
00033000
,
00001000
00010000
01000000
00000000
,
00100000
00010000
01000000
00000000
,
00010000
01000000
10000000
00000000
,
00010000
00100000
10000000
00000000
,
00001000
00010000
00000100
00000000
,
00010000
00000010
00000100
00000000
,
00000001
00000001
00000010
00000010
,
00000100
00000100
00001000
00001000
,
00000001
00000010
00000100
00000000
,
00000001
00000100
00001000
00000000
,
00010000
00100000
01000000
00000000
,
00100000
10000000
01000000
00000000
,
10000000
10000000
00100000
00100000
,
00010000
00010000
00001000
00001000
,
00000010
00000010
00000001
00000001
,
00000100
00000100
00000002
00000000
,
00002003
00000000
00000000
00000001
00000000
00000000
00000001
00000000
00000001
00000000
00000000
00000001
00000000
00000000
00000001
00000000
,
00003001
00000000
00000010
00000001
00000100
00000000
00001100
00000000
00000000
00001000
00010000
01000000
10000000
00000000
11000000
00000000
,
01100000
00000000
00100000
01000000
00000000
00010000
00000000
00011000
,
00000000
01000000
00010000
00001000
00000100
00000000
00000110
00000000
,
00001001
00000000
00000010
00000100
00000000
00001000
00000000
00011000
,
00000000
00000100
00001000
00010000
01000000
00000000
01100000
00000000
,
20000000
00000000
00000000
00000000
,
30020000
00000000
00000000
00000000
,
00032000
00000000
00003002
00000000
,
00001003
00000010
00000100
00001001
,
00000001
00000010
00001000
00000001
,
00000100
00001000
00000010
00000001
,
00000010
00000100
00000010
00001000
,
00000100
00010000
00001000
00010000
,
01000000
10000000
00100000
00010000
,
10000000
01000000
00010000
00100000
,
00010000
00100000
01000000
00100000
,
10000000
00100000
00001000
00010000
,
00000010
00000100
00000001
00000010
,
00001000
00000010
00000001
00000200
,
00020300
00030200
00000302
00000023
,
00002030
00003002
00000203
00001300
,
00001000
00000001
00000100
00000100
,
00000010
00001000
00000001
00000100
,
00001000
00010000
01000000
10000000
,
00100000
00010000
10000000
02000000
,
00000000
03010000
20000000
00000000
,
30200000
00000000
02300000
00000000
,
03010000
00100000
10000000
00010000
,
10000000
00100000
00010000
01000000
,
00001000
00010000
00000100
00000010
,
00001000
00000001
00000100
00001000
,
00000001
00000010
00000100
00001000
,
00000200
00000000
00000310
00000110
,
00000000
00000010
00000100
00000000
,
00001100
00000000
00011000
00000000
,
00010000
01000000
10000000
00100000
,
01000000
00010000
10000000
00100000
,
01000000
00000000
00010000
00100000
,
00000000
00001000
00000100
00000001
,
00000010
00000000
00000000
00000000
,
00000002
00000000
00000000
00000000
00000000
00000000
00000000
00000000
00000013
00000000
00000000
00000000
00000001
00000000
00000000
00000010
,
00000000
00000000
00001000
00000000
00000000
00000010
00000000
00000000
00000001
00000000
00000100
00000000
00000001
00000010
00000000
00000000
,
00000100
00001000
00000000
00000000
00010000
00100000
00000000
00000000
01000000
10000000
00000000
00000000
00100000
00000000
00000000
10000000
,
00000000
00000000
01000000
00000000
00000000
00010000
00000000
00000000
01000000
00000000
00100000
00000000
10000000
00100000
00000000
00000000
,
01000000
00010000
00000000
00000000
00001000
00000010
00000000
00000000
00000100
00000001
00000000
00000000
00000010
00000000
00000000
00000001
,
00000000
00000000
00001000
00000000
00000000
00000100
00000000
00000000
00000010
00000000
00000001
00000000
00000100
00000010
00000000
00000000
,
00001000
00000100
00000000
00000000
00100000
00010000
00000000
00000000
00100000
01000000
00000000
00000000
00100000
00000000
00000000
00010000
,
00000000
00000000
01000000
00000000
00000000
00001000
00000000
00000000
00000100
00000000
00010000
00000000
01000000
10000000
00000000
00000000
,
01000000
00010000
00000000
00000000
10000000
00100000
00000000
00000000
00010000
00100000
00000000
00000000
20000000
00000000
00000000
00000000
,
00000000
00000000
00000000
00000000
00000000
00000000
30000000
00000000
00010000
00100000
00010000
00000000
00200000
00000000
00000000
00000000
,
00000000
00000000
00000000
00000000
00000000
00000000
00300000
00000000
00001000
00010000
00001000
00000000
00000200
00000000
00000000
00000000
,
00000000
00000302
00000000
00002003
,
00023000
20030000
30010000
01100000
,
;

//---------------dance-double - ----------------
#NOTES:
     dance-double:
     :
     Hard:
     17:
     0.925,1.000,0.461,0.259,0.259:
00000000
00000000
00000000
00000000
,
00000000
00000000
00000000
00000000
,
00000000
00000000
00000000
00000000
,
00000000
00000000
00000000
00000000
,
00000000
00000000
00000000
00000000
,
00000000
00000000
00000000
00000000
,
00000000
00000000
00000000
00000000
,
00000000
00000000
00000000
00000000
,
00000000
00000000
00000000
00000000
,
00000000
00000000
00000000
00000000
,
00000001
00000010
00001000
00000001
,
00000100
00001000
00010000
00100000
,
10000000
00010000
01000000
10000000
,
00010000
00100000
01000000
10000000
,
00020000
00000000
20030000
30200000
,
02300000
03020000
00030000
00110000
,
00000000
00011000
00000000
00001010
,
00000000
00000010
00000100
00000000
,
00000001
00000100
00000001
00000000
00001000
00000100
00000000
00001000
,
00000100
00000010
00000001
00000000
00000010
00000001
00000100
00000000
,
00000001
00001000
00000100
00000000
00001000
00000100
00000000
00001000
,
00000010
00000100
00000001
00000000
00001000
00000010
00001000
00000000
,
00000001
00000010
00001000
00000010
,
00010000
00100000
00010000
00100000
,
00001000
00100000
10000000
00010000
,
01000000
10000000
00010000
01000000
,
00010000
01000000
00100000
00000000
10000000
01000000
00000000
00100000
,
00010000
01000000
00100000
00000000
10000000
01000000
00000000
00100000
,
00010000
01000000
00100000
00000000
10000000
01000000
00000000
00100000
,
00010000
00100000
01000000
00000000
00100000
00010000
00000000
01000000
,
00010000
00010000
00100000
00100000
,
10000000
10000000
00100000
01000000
,
10000000
00100000
00010000
00001000
,
00010010
00010010
00001010
00001010
,
00000100
00000100
00000001
00000001
,
00000010
00000010
00001000
00001000
,
00010000
00010000
00100000
00100000
,
10000000
10000000
00010000
00010000
,
10000000
01000000
10000000
00000000
00100000
00000000
01000000
00010000
,
01000000
00000000
00010000
00000000
00010000
00100000
00010000
00000000
,
10000000
01000000
10000000
00000000
00100000
00000000
01000000
00010000
,
01000000
00000000
00001000
00000000
00010000
00001000
00010000
00000000
,
00001000
00001000
00010000
00010000
,
00100000
00100000
10000000
10000000
,
00010000
00010000
01000000
01000000
,
00001000
00001000
00000100
00000100
,
00000010
00001010
00000100
00000101
,
00000000
00001001
00000000
00000000
,
00001000
00000000
00010000
00000000
,
00022000
00000000
00000000
00033000
,
00100000
00010000
01000000
00000000
00100000
00000000
10000000
01000000
,
10000000
00000000
01000000
00000000
00100000
00001000
01000000
00000000
,
00010000
00100000
00001000
00000000
00010000
00000000
00001000
00010000
,
00000100
00000000
00001000
00000000
00000010
00000100
00000010
00000000
,
00001000
00000010
00000100
00000000
00000001
00000000
00001000
00000100
,
00001000
00000000
00000010
00000000
00000100
00000010
00000100
00000000
,
00000010
00010000
00001000
00000000
00010000
00000000
00001000
00010000
,
00001000
00000000
00100000
00000000
00010000
00100000
01000000
00000000
,
10000000
01000000
00100000
00000000
00010000
00000000
01000000
00100000
,
10000000
00000000
00010000
00000000
01000000
00100000
10000000
00000000
,
00100000
01000000
00001000
00000000
00010000
00000000
00001000
00100000
,
00010000
00000000
01000000
00000000
00010000
00100000
01000000
00000000
,
10000000
00100000
00010000
00001000
,
00000100
00000001
00000010
00001000
,
00000010
00000000
00000001
00000100
00000001
00000000
00000010
00000000
,
00000100
00001000
00000100
00000000
00001000
00000100
00001000
00000000
,
00001001
00000000
00000000
00000010
00000000
00000000
00001000
00000000
00010000
00000000
00000000
00100000
00000000
00000000
10000000
01000000
,
00200000
00000000
00310000
00001000
00000100
00000000
00000011
00000000
00000000
00001000
00000010
00000001
00000100
00000000
00000110
00000000
,
00000101
00000000
00000010
00001100
00000000
00011000
00000000
00110000
,
00000000
00011000
00000000
00001000
00110000
00000000
01100000
00000000
,
10000000
00100000
00010000
01000000
00000000
00010000
01000000
00001000
,
00000000
00001000
00000010
00000001
00000100
00000000
00001001
00000000
,
00000020
00000000
00000000
00000000
00000000
00000000
00000000
00000000
00000000
00000000
00000000
00000000
00000031
00000100
00001000
00000000
,
00020000
00000000
00000000
00000000
00000000
00000000
00000000
00000000
00000000
00000000
00000000
00000000
01030000
10000000
00100000
00000000
,
20000000
00000000
00000000
00000000
30100000
10000000
00100000
10000000
02000000
00000000
00000000
00000000
03100000
00010000
00100000
00010000
,
01000000
00000000
00000000
00000000
00100000
00000000
00000000
00000000
00022000
00000000
00000000
00033000
00011000
00000000
00000000
00000000
,
01000000
10000000
00100000
00010000
,
00001000
00000100
00000010
00000001
,
00000010
00001000
00000001
00000010
,
00000100
00000000
00001000
00000000
00000100
00000000
00010000
00001000
,
00010000
00000000
00001000
00000000
00010000
00001000
00010000
00000000
,
00001000
00000000
00000100
00000010
00000100
00000000
00000001
00000010
,
00000100
00001000
00000010
00000001
,
00000010
00001000
00000001
00000100
,
00001000
00010000
01000000
10000000
,
00100000
00010000
00100000
10100000
,
01010000
00100000
01000000
10000000
,
00100000
10100000
01010000
00100000
,
00100000
00010000
01000000
01000000
,
00001000
00010000
00010000
00000100
,
00000010
00001000
00000010
00000001
,
00000100
00001000
00000100
00000020
,
00000000
00000130
00002000
00000000
,
00023000
00000000
02030000
00000000
,
13000000
00100000
00010000
10000000
,
00010000
00100000
10000000
00010000
,
00100000
01000000
00010000
00001000
,
00000100
00000010
00001000
00000001
,
00000010
00000100
00001000
00000010
,
00000200
00000000
00000301
00000101
,
00000000
00000011
00001100
00000000
,
00011000
00000000
00011000
00000000
,
00110000
00000000
11000000
00000000
,
00000000
00000000
00000000
00100000
,
00100000
01000000
00010000
00010000
,
00001000
00000100
00000100
00000001
,
00000010
00000000
00000000
00000000
,
00000010
00000000
00000000
00000000
00000001
00000000
00000000
00000000
00001000
00000000
00000000
00000000
00001001
00000000
00000000
00000001
,
00000010
00000000
00000000
00000100
00000000
00001000
00000000
00000000
00000010
00000000
00000100
00000000
00000000
00000001
00000010
00000000
,
00000000
00001000
00000000
00000000
00000000
00010000
01000000
00000000
00000000
00100000
01000000
00000000
10000000
00000000
00000000
00100000
,
01000000
00000000
00000000
00010000
00000000
10000000
00000000
00000000
01010000
00000000
11000000
00000000
00000000
00100000
00010000
00000000
,
00000000
01000000
00000000
00000000
00000000
00001000
00010000
00000000
00000000
00000100
00001000
00000000
00000010
00000000
00000000
00000100
,
00000001
00000000
00000000
00000010
00000000
00000100
00000000
00000000
00010000
00001000
00100000
00000000
00000000
00010000
00100000
00000000
,
01000000
00100000
00010000
00000000
00000000
10000000
00100000
00000000
00000000
01000000
00100000
00000000
00010000
00000000
00000000
00100000
,
01000000
00000000
00000000
10100000
00000000
01010000
00000000
00000000
00001000
00000000
01000000
00000000
00000000
00001000
00000100
00000000
,
00000000
00000001
00000000
00000000
00000000
00001000
00000010
00000100
00000001
00000010
00000100
00000000
00002000
00000000
00000000
00000000
,
00000000
00000000
00000000
00000000
00000000
00000000
00000000
00000000
00003010
00000100
00000010
00000000
00020000
00000000
00000000
00000000
,
00000000
00000000
00000000
00000000
00000000
00000000
00000000
00000000
00031000
00010000
00001000
00000000
00200000
00000000
00000000
00000000
,
00301000
01000000
00100000
00000000
02000000
00000000
00000000
00000000
13000000
01000000
00100000
00000000
00010000
00000000
00100000
00000000
,
01000000
00010000
00001000
00000010
00000001
00000000
00000110
00000000
,
;

//---------------dance-double - ----------------
#NOTES:
     dance-double:
     :
     Challenge:
     18:
     0.997,1.000,0.776,0.371,0.315:
00000000
00000000
00000000
00000000
,
00000000
00000000
00000000
00000000
,
00000000
00000000
00000000
00000000
,
00000000
00000000
00000000
00000000
,
00000000
00000000
00000000
00000000
,
00000000
00000000
00000000
00000000
,
00000000
00000000
00000000
00000000
,
00000000
00000000
00000000
00000000
,
00000000
00000000
00000000
00000000
,
00000000
00000000
00000000
00000000
,
00000001
00000100
00001000
00000010
,
00001000
00000100
00010000
00001000
,
00100000
00010000
01000000
10000000
,
00100000
10000000
01000000
00100000
,
00020000
00000000
00230000
20300000
,
32000000
03020000
00030000
01010000
,
00000000
00011000
00000000
00001010
,
00000000
00000010
00000100
00000000
,
00000001
00000100
00000001
00000000
00001000
00000010
00000000
00000100
,
00000001
00000010
00001000
00000000
00000010
00000001
00000100
00000000
,
00000001
00000100
00001000
00000000
00000100
00000010
00000000
00001000
,
00000100
00000001
00000100
00000000
00000010
00000100
00001000
00000000
,
00000001
00000010
00001000
00010000
,
00100000
00010000
10000000
01000000
,
00010000
00100000
10000000
00010000
,
01000000
10000000
00010000
01000000
,
00010000
01000000
00100000
00000000
01000000
00010000
00000000
00100000
,
00010000
01000000
10000000
00000000
01000000
00010000
00000000
10000000
,
00100000
01000000
00010000
00000000
10000000
01000000
00000000
00100000
,
10000000
00100000
01000000
00000000
00010000
00001000
00000000
00100000
,
00010000
00010000
00100000
00100000
,
10000000
10000000
00100000
00100000
,
00110000
00011000
00001010
00011000
,
00001010
00000110
00000011
00000110
,
00000100
00000100
00000100
00000001
,
00000001
00000000
00000001
00000000
00000010
00000100
00001000
00000000
,
00000100
00000100
00000100
00010000
,
00010000
00000000
00010000
00000000
00001000
00010000
01000000
00000000
,
10000000
01000000
10000000
00000000
00100000
00000000
01000000
00010000
,
01000000
00000000
00100000
00000000
10000000
01000000
00100000
00000000
,
00010000
01010000
00100000
00110000
,
00001000
00011000
00000010
00001010
,
00001000
00001000
00001000
00000010
,
00000010
00000000
00000010
00000000
00001000
00000010
00000001
00000000
,
00000010
00000010
00000010
00001000
,
00001000
00000000
00001000
00000000
00000100
00001000
00000010
00000000
,
00001100
00000101
00001100
00000110
,
00000000
00011000
00000000
00000000
,
00001000
00000000
00010000
00000000
,
00022000
00000000
00000000
00033000
,
00001000
00010000
01000000
00000000
00100000
00000000
00010000
10000000
,
01000000
00000000
00100000
00000000
01000000
10000000
00100000
00000000
,
01000000
00001000
00100000
00000000
00001000
00000000
00010000
00001000
,
00000100
00000000
00001000
00000000
00000100
00000001
00000010
00000000
,
00000001
00000010
00000100
00000000
00000001
00000000
00000100
00001000
,
00000010
00000000
00000100
00000000
00000001
00000010
00000100
00000000
,
00000010
00001000
00010000
00000000
00001000
00000000
00010000
00001000
,
01000000
00000000
00100000
00000000
00010000
00100000
01000000
00000000
,
10000000
01000000
00100000
00000000
10000000
00000000
01000000
00100000
,
00001000
00000000
00010000
00000000
01000000
00100000
00010000
00000000
,
00100000
01000000
10000000
00000000
00010000
00000000
01000000
00100000
,
10000000
00000000
01000000
00000000
00100000
00001000
01000000
00000000
,
00010000
00110000
00010000
00011000
,
00000100
00001100
00000010
00000011
,
00000010
00001100
00001000
00010100
,
00100000
10010000
01000000
00010000
,
00100000
00000000
00000000
00000000
00000000
00000000
10000000
00000000
00000000
00000000
00000000
00000000
00000000
00000000
00000000
00000000
00000000
00000000
00000000
00000000
00000000
00000000
00000000
00000000
00010000
00000000
00000000
00000000
00000000
00000000
00000000
00000000
00000000
00000000
00000000
00000000
01000000
00000000
00000000
00000000
00000000
00000000
00000000
00000000
00000000
00000000
00000000
00000000
00000000
00000000
00000000
00000000
00000000
00000000
00000000
00000000
00000000
00000000
00000000
00000000
00001000
00000000
00000000
00000000
00000000
00000000
00000000
00000000
00000000
00000000
00000000
00000000
00010000
00000000
00000000
00000000
00000000
00000000
00000000
00000000
00000000
00000000
00000000
00000000
00000100
00000000
00000000
00000000
00000000
00000000
00000000
00000000
00000000
00000000
00000000
00000000
00000010
00000000
00000000
00000000
00000000
00000000
00000001
00000000
00000000
00000000
00000000
00000000
00000000
00000000
00000000
00000000
00000000
00000000
00000000
00000000
00000000
00000000
00000000
00000000
00001000
00000000
00000000
00000000
00000000
00000000
00000000
00000000
00000000
00000000
00000000
00000000
00000100
00000000
00000000
00000000
00000000
00000000
00000000
00000000
00000000
00000000
00000000
00000000
00000000
00000000
00000000
00000000
00000000
00000000
00000000
00000000
00000000
00000000
00000000
00000000
00000001
00000000
00000000
00000000
00000000
00000000
00000000
00000000
00000000
00000000
00000000
00000000
00000100
00000000
00000000
00000000
00000000
00000000
00000000
00000000
00000000
00000000
00000000
00000000
00001000
00000000
00000000
00000000
00000000
00000000
00000000
00000000
00000000
00000000
00000000
00000000
,
00000001
00000000
00000000
00000000
00000000
00000000
00000100
00000000
00000000
00000000
00000000
00000000
00000000
00000000
00000000
00000000
00000000
00000000
00000000
00000000
00000000
00000000
00000000
00000000
00001000
00000000
00000000
00000000
00000000
00000000
00000000
00000000
00000000
00000000
00000000
00000000
00000100
00000000
00000000
00000000
00000000
00000000
00000000
00000000
00000000
00000000
00000000
00000000
00000010
00000000
00000000
00000000
00000000
00000000
00000000
00000000
00000000
00000000
00000000
00000000
00000000
00000000
00000000
00000000
00000000
00000000
00000000
00000000
00000000
00000000
00000000
00000000
00000001
00000000
00000000
00000000
00000000
00000000
00000010
00000000
00000000
00000000
00000000
00000000
00000000
00000000
00000000
00000000
00000000
00000000
00000000
00000000
00000000
00000000
00000000
00000000
00000000
00000000
00000000
00000000
00000000
00000000
00000000
00000000
00000000
00000000
00000000
00000000
00000010
00000000
00000000
00000000
00000000
00000000
00000000
00000000
00000000
00000000
00000000
00000000
00001000
00000000
00000000
00000000
00000000
00000000
00000000
00000000
00000000
00000000
00000000
00000000
00010000
00000000
00000000
00000000
00000000
00000000
00000000
00000000
00000000
00000000
00000000
00000000
01000000
00000000
00000000
00000000
00000000
00000000
10000000
00000000
00000000
00000000
00000000
00000000
00000000
00000000
00000000
00000000
00000000
00000000
00000000
00000000
00000000
00000000
00000000
00000000
01000000
00000000
00000000
00000000
00000000
00000000
00010000
00000000
00000000
00000000
00000000
00000000
00000000
00000000
00000000
00000000
00000000
00000000
00000000
00000000
00000000
00000000
00000000
00000000
,
01100000
00000000
00011000
00110000
00000000
00011000
00000000
00001010
,
00000000
00000010
00001000
01000000
00010000
00001000
00000100
00000000
,
00000110
00000000
00011000
00110000
00000000
00011000
00000000
00001010
,
00000000
00000010
00001000
00100000
00010000
00001000
00000100
00000000
,
00000020
00000000
00000000
00000000
00000000
00000000
00000000
00000000
00000000
00000000
00000000
00000000
00001030
00010000
01000000
00000000
,
20000000
00000000
00000000
00000000
00000000
00000000
00000000
00000000
00000000
00000000
00000000
00000000
31000000
10000000
00100000
00000000
,
20000000
00000000
00000000
00000000
30100000
10000000
00010000
00100000
02000000
00000000
00000000
00000000
03100000
00010000
00100000
00010000
,
01000000
00000000
00000000
00000000
00001000
00000000
00000000
00000000
00022000
00000000
00000000
00033000
00011000
00000000
00000000
00000000
,
00001000
00011000
00010000
01000000
,
10000000
11000000
00100000
01000000
,
00010000
01010000
00100000
00001000
,
00010000
00011000
00001000
00000200
,
00000000
00000310
00002000
00000000
,
00003001
00000020
00000000
00000130
,
00000001
00000101
00000100
00001000
,
00000001
00000101
00000010
00010000
,
00001000
00011000
00010000
01000000
,
10000000
11000000
00100000
20000000
,
30020000
00230000
00302000
00003020
,
00000032
00000203
00002300
00003100
,
00000100
00001001
00000010
00000010
,
00001001
00000100
00000100
00000001
,
00000010
00000100
00001000
00000100
,
00010000
00001000
01000000
00002000
,
00000000
00013000
00002000
00000000
,
00023000
00000000
02030000
00000000
,
13000000
00100000
00010000
00001000
,
00000100
00000001
00000010
00000001
,
00000010
00000011
00000100
00001000
,
00000100
00001100
00010000
00001000
,
00010000
00011000
00001000
01000000
,
00200000
00000000
10300000
01100000
,
00000000
10100000
01010000
00000000
,
00011000
00000000
00011000
00000000
,
00001010
00000000
00000101
00000000
,
00000000
00000000
00000000
00000001
,
00000010
00001000
01000000
00100000
,
00010000
00000100
00000001
00000010
,
00000100
00000000
00000000
00000000
,
00000010
00000000
00000000
00000000
00000001
00000000
00000000
00000000
00001000
00000000
00000000
00000000
00001000
00000000
00000000
00000100
,
00000010
00000000
00000000
00000100
00000000
00001000
00000000
00000000
00000010
00001000
00000100
00000000
00000000
00010000
00100000
00000000
,
00000000
10000000
01000000
00000000
00000000
00100000
00010000
00000000
00000000
00001000
00000100
00000000
00000010
00000000
00000000
00000001
,
00000100
00000000
00000000
00000110
00000000
00001100
00000000
00000000
00011000
00000000
00110000
00000000
00000000
00100000
00010000
00000000
,
00000000
10000000
00100000
00000000
00000000
01000000
00001000
00000000
00000000
00010000
00000100
00000000
00000010
00000000
00000000
00000100
,
00001000
00000000
00000000
00000010
00000000
00000100
00000000
00000000
00000001
00000010
00000100
00000000
00000000
00001000
00000100
00000000
,
00001000
00000010
00000100
00000000
00000000
00000001
00000100
00000000
00000000
00000010
00010000
00000000
00001000
00000000
00000000
00100000
,
01000000
00000000
00000000
00110000
00000000
11000000
00000000
00000000
00101000
00000000
00010100
00000000
00000000
00001000
00000100
00000000
,
00000000
00001000
00000010
00000000
00000000
00001000
00000010
00000001
00000010
00001000
00000100
00000000
00002000
00000000
00000000
00000000
,
00000000
00000000
00000000
00000000
00000000
00000000
00000000
00000000
00003010
00000100
00000010
00000000
00020000
00000000
00000000
00000000
,
00000000
00000000
00000000
00000000
00000000
00000000
00000000
00000000
00031000
00010000
00001000
00000000
00200000
00000000
00000000
00000000
,
00301000
01000000
00100000
00000000
02000000
00000000
00000000
00000000
13000000
01000000
00100000
00000000
00010000
00000000
00100000
00000000
,
01000000
00010000
00001000
00000010
00000001
00000000
00000110
00000000
,
;

//---------------dance-single - ----------------
#NOTES:
     dance-single:
     :
     Edit:
     19:
     1.000,1.000,0.528,0.528,0.528: // measure 1
0000
0000
0000
0000
,  // measure 2
0000
0000
0000
0000
,  // measure 3
0000
0000
0000
0000
,  // measure 4
0000
0000
0000
0000
,  // measure 5
0000
0000
0000
0000
,  // measure 6
0000
0000
0000
0000
,  // measure 7
0000
0000
0000
0000
,  // measure 8
0000
0000
0000
0000
,  // measure 9
0000
0000
0000
0000
,  // measure 10
0000
0000
0000
0000
,  // measure 11
1000
0100
0010
0100
,  // measure 12
0001
0010
0100
0010
,  // measure 13
1000
0100
0010
0100
,  // measure 14
0001
0010
0100
0010
,  // measure 15
1000
0001
0000
0000
0000
0000
0000
0000
1001
0000
0000
0000
0011
0000
0000
0000
,  // measure 16
0110
0000
0000
0000
1100
0000
0000
0000
0000
0000
0000
0000
1000
0100
0000
0000
,  // measure 17
0000
0000
0000
0000
0010
0001
0000
0000
0000
0000
0000
0000
1000
0010
0000
0000
,  // measure 18
0000
0000
0100
0000
0010
0100
0001
1000
,  // measure 19
0001
0100
0010
0000
1000
0001
0000
1000
,  // measure 20
0100
0010
0001
0000
1000
0001
0100
0000
,  // measure 21
1000
0001
0010
0000
0001
1000
0000
0100
,  // measure 22
0010
1000
0001
0000
1000
0001
0010
0100
,  // measure 23
1000
0000
0001
0010
0001
0010
0001
0000
,  // measure 24
0010
0000
1000
0100
0001
0000
1000
0010
,  // measure 25
0001
0000
1000
0010
0100
0001
0010
0000
,  // measure 26
0011
0000
1100
0000
0010
0001
0010
0100
,  // measure 27
1000
0001
0100
0000
1000
0010
0000
0001
,  // measure 28
0010
0100
0010
0000
1000
0100
0000
0010
,  // measure 29
0001
1000
0100
0000
0100
0010
0000
0010
,  // measure 30
0001
0010
0001
0000
0001
1000
0000
0001
,  // measure 31
1000
1000
0100
0100
,  // measure 32
0010
0010
0001
0001
,  // measure 33
0001
0010
1000
0010
0001
0100
1000
0100
,  // measure 34
0001
0010
1000
0010
0001
0100
1000
0100
,  // measure 35
0001
0010
0001
0000
1000
0000
0010
0001
,  // measure 36
0100
0000
1000
0000
0100
0001
0100
0000
,  // measure 37
1000
0010
0100
0000
0001
0000
0010
0100
,  // measure 38
1000
0000
0010
0000
0100
0001
0010
0000
,  // measure 39
1000
0100
0010
0000
1001
0000
0001
0010
,  // measure 40
0100
0000
1001
0000
1000
0100
0010
0000
,  // measure 41
0002
0023
0230
2300
,  // measure 42
3002
0023
0230
2300
,  // measure 43
3001
0100
0010
0000
1000
0000
0100
0010
,  // measure 44
0001
0000
1000
0000
0010
0100
0001
0000
,  // measure 45
0010
0100
0001
0000
0100
0000
0010
1000
,  // measure 46
0100
0000
0001
0000
0010
0100
1000
0000
,  // measure 47
0011
0110
1100
2002
,  // measure 48
3003
0000
0000
0000
0100
0010
0000
0000
0000
0000
0000
0000
0000
0000
0000
0000
,  // measure 49
0100
0000
0100
0000
,  // measure 50
0001
0000
0000
0000
,  // measure 51
1000
0100
0010
0100
1000
0000
0010
0001
,  // measure 52
0100
0000
1000
0000
0001
0100
0010
0000
,  // measure 53
0100
1000
0001
0100
0010
0000
1000
0100
,  // measure 54
0010
0000
0001
0000
0010
0100
1000
0000
,  // measure 55
0001
0100
0010
0100
0001
0000
0100
0010
,  // measure 56
0100
0000
1000
0000
0100
0010
1000
0000
,  // measure 57
0001
0010
1000
0010
1000
0000
0001
0100
,  // measure 58
0010
0000
1000
0000
0001
1000
0100
0000
,  // measure 59
0010
0100
0010
1000
0100
0000
0100
0010
,  // measure 60
0001
0000
1000
0000
0001
0100
0010
0000
,  // measure 61
0100
0001
0010
1000
0100
0000
0100
1000
,  // measure 62
0010
0000
0100
0000
0010
1000
0100
0000
,  // measure 63
1001
1000
1100
0100
,  // measure 64
0110
0010
0011
0001
,  // measure 65
1000
0010
1000
0000
1001
0000
0001
0100
,  // measure 66
0001
0000
1001
0000
1000
0010
1000
0000
,  // measure 67
1000
0100
0000
0000
0010
0000
0001
0000
0000
0000
0100
0000
0010
0000
1000
0000
0001
0010
0000
0000
0100
0000
0010
0000
0000
0000
1000
0000
0100
0000
0010
0000
,  // measure 68
0001
1000
0000
0000
0100
0000
1000
0000
0100
0001
0000
0000
1000
0010
0000
0000
0000
0000
1000
0000
0010
0000
0001
0000
1000
0100
0000
0000
0010
0001
0000
0000
,  // measure 69
0100
0000
0000
0000
2000
0000
3002
0010
0000
0000
0023
0100
0000
0000
0230
1000
,  // measure 70
0000
0000
2300
0001
0000
0000
3100
0000
0001
0010
0000
0000
0100
1000
0000
0000
,  // measure 71
0100
0000
0000
0000
0001
0000
2000
0100
0000
0000
3200
0010
0000
0000
0320
0001
,  // measure 72
0000
0000
0032
1000
0000
0000
2003
0010
0000
0000
3020
0100
0000
0000
0030
0000
,  // measure 73
2000
0000
0000
0010
0000
0000
0010
0000
0000
0001
0000
0000
3100
0010
0001
0010
,  // measure 74
0002
0000
0000
0010
0000
0000
0100
0000
0000
1000
0000
0000
0103
0010
0001
0010
,  // measure 75
0100
0000
0000
0000
1000
0010
0100
0010
1000
0000
0000
0000
0001
0010
0100
1000
,  // measure 76
0001
0000
0000
0000
0000
0000
0000
0000
0000
0000
0000
0000
0001
0000
0000
0000
1000
0000
0000
0000
0000
0000
0000
0000
0000
0000
0000
0000
1000
0000
0000
0000
0001
0000
0000
0000
0000
0000
0000
0000
0000
0000
0000
0000
0000
0000
0000
0000
2002
3003
0000
0000
0000
0000
0000
0000
0000
0000
0000
0000
0000
0000
0000
0000
,  // measure 77
0001
0010
0100
1000
,  // measure 78
0010
0100
0001
0010
,  // measure 79
1000
0001
0100
1000
,  // measure 80
0001
0000
0100
0000
1000
0000
0100
0010
,  // measure 81
0100
0000
0110
0000
0010
0100
0010
0000
,  // measure 82
1000
0000
0100
1000
0001
0000
0010
1000
,  // measure 83
0100
1001
0010
0100
,  // measure 84
1000
0000
0001
1000
0010
1000
0010
0000
,  // measure 85
0010
0100
0100
1000
,  // measure 86
0001
1000
0001
2000
,  // measure 87
3200
0320
0032
2003
,  // measure 88
3020
0000
0230
0000
0302
0000
1003
0010
,  // measure 89
1000
0000
0001
0000
0010
0100
0010
0000
,  // measure 90
0001
0000
0100
0001
0100
0000
1000
0010
,  // measure 91
1000
0000
0001
0100
0001
0000
1000
0100
,  // measure 92
1000
0100
0010
0001
0010
0001
1000
0000
,  // measure 93
0000
0000
1000
0100
1000
0000
0000
0000
,  // measure 94
0010
0001
0000
0000
0000
0000
0000
0000
0100
0010
0000
0000
0000
0000
0000
0000
,  // measure 95
1000
0100
0000
0000
0000
0000
0000
0000
1000
0001
0000
0000
0000
0000
0000
0000
,  // measure 96
0000
0000
0000
0000
0000
0000
0001
0100
,  // measure 97
1000
0100
0001
0010
,  // measure 98
0100
0000
0010
0000
1000
0000
0010
0001
,  // measure 99
0100
0000
0010
1000
0100
0000
0001
0010
,  // measure 100
0100
0000
1000
0010
0100
0001
0010
0000
,  // measure 101
0000
1100
1100
0000
,  // measure 102
0001
0100
0000
0000
0000
0000
0000
0000
1000
0001
0000
0000
0000
0000
0000
0000
,  // measure 103
0010
1000
0000
0000
0000
0000
0000
0000
0200
0020
0000
0000
0000
0000
0000
0000
,  // measure 104
0000
0000
0330
1010
,  // measure 105
0101
0000
0011
1100
,  // measure 106
0000
1100
0011
1010
,  // measure 107
0202
0000
0000
0000
,  // measure 108
0303
0000
0000
0000
1000
0000
0001
0000
1000
0000
0001
0000
1000
0000
0000
0001
,  // measure 109
0100
0000
0010
0100
0010
0000
0000
0000
1100
0000
0011
0000
0000
1000
0002
0000
,  // measure 110
0003
0100
0020
0000
0030
0002
0010
0000
0000
0203
1000
0000
0001
0300
0000
0001
,  // measure 111
0010
0000
1010
0000
0101
0000
0000
0000
0011
0000
1100
0000
0001
0100
0000
0000
,  // measure 112
1000
0100
0000
0000
0001
0100
0001
0000
1000
0010
1000
0000
0100
0000
0000
0100
,  // measure 113
0002
0000
1000
0003
0001
0000
0000
0000
1100
0000
0101
0000
0001
0010
0000
0000
,  // measure 114
0100
1000
0000
0000
0001
0100
0000
0000
0010
1000
0000
0000
1001
0000
0000
0010
,  // measure 115
0100
0000
0000
1100
0000
0011
0000
0000
1010
0000
0102
0000
0000
0013
0100
0000
,  // measure 116
0000
1000
0100
0000
0001
0010
0100
1000
0001
0100
0010
1000
0002
0000
0000
1000
,  // measure 117
0000
0000
0100
0000
0000
0010
0000
0000
0103
0001
1000
0010
0002
0000
0000
0010
,  // measure 118
0000
0000
0100
0000
0000
1000
0000
0000
0013
0001
0100
0001
0020
0000
0000
0000
,  // measure 119
1030
0001
0100
0001
0020
0000
0000
0000
0031
0100
0010
1000
0010
0000
1100
0000
,  // measure 120
0010
0000
0101
0000
0010
0000
0100
0000
0001
0010
0100
1000
1001
0000
0000
0000
;
