#TITLE:New Beginning;
#SUBTITLE:;
#ARTIST:Sota Fujimori;
#TITLETRANSLIT:;
#SUBTITLETRANSLIT:;
#ARTISTTRANSLIT:;
#GENRE:;
#CREDIT:;
#BANNER:New Beginning.png;
#BACKGROUND:New Beginning-bg.png;
#LYRICSPATH:;
#CDTITLE:./CDTitles/DanceDanceRevolution X3 vs 2ndMIX.png;
#MUSIC:New Beginning.mp3;
#OFFSET:1.280;
#SAMPLESTART:39.210;
#SAMPLELENGTH:15.000;
#LASTBEATHINT:0.691;
#SELECTABLE:YES;
#DISPLAYBPM:148.000;
#BPMS:0.000=148.000
;
#STOPS:
;
#BGCHANGES:;
#KEYSOUNDS:;
#ATTACKS:;

//---------------dance-single - ----------------
#NOTES:
     dance-single:
     :
     Easy:
     5:
     0.227,0.234,0.027,0.018,0.000,171.000,3.000,2.000,0.000,0.000,0.000,0.227,0.234,0.027,0.018,0.000,171.000,3.000,2.000,0.000,0.000,0.000:
0000
0000
0000
0000
,
0000
0000
0000
0000
,
0000
0000
0000
0000
,
0000
0000
0000
0000
,
0000
0000
0000
0000
,
0000
0001
0000
0010
,
0000
0001
0000
0100
,
0000
0010
0000
1000
,
1001
0000
0010
0010
,
1000
0100
0001
0000
,
0010
0100
0010
0000
,
1000
0100
0010
0000
,
0001
0100
0010
0000
,
0001
0001
1000
0000
,
1000
0100
0010
0000
,
0001
0000
0000
0000
0110
0000
0001
1000
,
0000
0000
0000
0000
,
0001
0001
1000
0010
,
0100
0001
1000
0000
,
0010
0010
0001
1000
,
0010
0100
0010
0000
,
0001
0001
1000
0100
,
0010
0001
0100
0000
,
0010
0010
0100
0010
,
1000
0001
1000
1001
,
0000
0010
1000
0010
,
0000
0100
0000
0100
,
0000
0001
0010
0001
,
0000
0100
0000
0100
,
0000
0010
1000
0100
,
0000
0010
0001
0100
,
0000
0010
1000
0001
,
0000
0010
0001
1000
,
0000
0010
0001
0010
,
0000
0100
0000
0100
,
0000
1000
0010
1000
,
0000
0100
0000
0100
,
0000
0010
0001
0100
,
0000
0010
1000
0100
,
0000
0010
0001
1000
,
0000
0010
1000
0001
,
0010
0001
0010
0100
,
0000
0100
0000
0010
,
1000
0100
0001
0100
,
0000
1000
0000
0001
,
0010
1000
0001
0100
,
0000
1000
0000
0100
,
1000
0001
1000
0100
,
0000
0010
0000
0001
,
0010
1000
0010
0100
,
0000
1000
0000
0010
,
0001
0100
0010
0100
,
2000
0000
0000
3000
,
0010
0001
0010
0100
,
0000
0010
0000
0100
,
0001
1000
0001
0100
,
0020
0000
0000
0030
,
0000
0010
0000
1000
,
0000
0100
0000
0001
,
0000
0010
0000
1000
,
0000
0100
0000
0001
,
1000
1000
0100
0000
,
0010
0010
1000
0000
,
0001
0001
0010
0000
,
0100
0010
0100
1000
;

//---------------dance-single - ----------------
#NOTES:
     dance-single:
     :
     Medium:
     9:
     0.390,0.351,0.126,0.325,0.000,253.000,14.000,36.000,0.000,0.000,0.000,0.390,0.351,0.126,0.325,0.000,253.000,14.000,36.000,0.000,0.000,0.000:
0000
0000
0000
0000
,
0000
0000
0000
0000
,
0000
0000
0000
0000
,
0000
0000
0000
0000
,
0000
0000
0000
0000
,
0001
1000
0100
0010
,
0001
1000
0010
0100
,
0001
0010
0100
1000
,
1001
0000
0000
0000
0010
0010
0010
0000
,
0001
0010
0100
0000
1000
0000
0100
0000
,
0010
0001
0100
0000
0010
0000
0100
0000
,
0001
1000
0100
0000
0010
0000
0001
0000
,
1000
0010
0100
0000
0010
0000
0010
0000
,
1000
0100
1000
0000
0001
0000
0010
0000
,
0001
1000
0100
0000
0010
0000
0001
0000
,
1000
0000
0000
0000
0110
0000
1000
0001
,
0000
0010
0000
0010
0000
0100
1000
0000
,
1010
0101
0001
0010
,
0100
0000
1000
0000
0001
0100
0001
0000
,
0011
1100
1000
0001
,
0010
0000
0010
0000
0100
0010
0100
0000
,
1001
0110
0001
0100
,
0010
0001
0100
1000
,
0100
0000
0010
0000
0100
0010
0000
0011
,
0000
1100
0000
0001
0100
0000
1001
0000
,
0020
0000
0000
2030
0000
0000
3200
0000
,
0000
0320
0000
0000
0032
0000
0203
0000
,
0320
0000
0000
0230
0000
0000
0302
0000
,
0013
0000
1000
0000
0100
0000
0001
0010
,
0002
0000
0000
0203
0000
0000
0320
0000
,
0000
2030
0000
0000
3002
0000
0023
0000
,
0230
0000
0000
2300
0000
0000
3020
0000
,
0000
2030
0000
0000
3002
0000
0013
0100
,
2000
0000
0000
3020
0000
0000
0230
0000
,
0000
0320
0000
0000
2030
0000
3200
0000
,
0320
0000
0000
0032
0000
0000
0103
0000
,
1000
0010
0001
0100
,
0020
0000
0000
0230
0000
0000
0302
0000
,
1003
0010
0100
0001
,
0020
0000
0000
0230
0000
0000
2300
0000
,
3100
0010
0001
0100
,
0010
0000
1000
0010
0000
1000
0100
0000
,
0010
0100
0000
1000
0001
0000
0010
0000
,
0001
0000
0100
0010
0000
1000
0100
0000
,
0010
0001
1000
0010
,
0110
0000
0001
0100
0000
1000
0100
0000
,
0001
0010
0100
0010
,
0001
0000
1000
0100
0000
0001
0100
0000
,
0010
0010
1000
1000
,
0010
0000
0001
0010
0000
0001
0100
0000
,
0010
0100
0000
0001
1000
0000
0010
0000
,
1000
0000
0100
0010
0000
0001
0100
0000
,
0010
1000
0001
0010
,
0110
0000
1000
0100
0000
0001
0100
0000
,
1000
0010
0100
0010
,
1000
0000
0001
0100
0000
1000
0100
0000
,
0202
0303
1000
1000
,
0001
0010
1000
0100
,
0001
0010
1000
0100
,
0001
0010
1000
0100
,
0001
0010
1000
0100
,
0001
0010
0001
0000
0100
0000
0001
0000
,
0010
1000
0010
0000
0001
0000
0010
0000
,
1000
0100
1000
0000
0010
0000
1000
0000
,
0100
0000
0010
0000
0001
1000
0010
0100
;

//---------------dance-single - ----------------
#NOTES:
     dance-single:
     :
     Hard:
     11:
     0.511,0.468,0.171,0.316,0.014,343.000,19.000,35.000,0.000,0.000,0.000,0.511,0.468,0.171,0.316,0.014,343.000,19.000,35.000,0.000,0.000,0.000:
0000
0000
0000
0000
,
0000
0000
0000
0000
,
0000
0000
0000
0000
,
0000
0000
0000
0000
,
0000
0000
0000
0000
,
1000
0001
0100
0000
0010
0000
1000
0000
,
0100
0010
0001
0000
0100
0000
0010
0000
,
1000
0001
0010
0000
0100
0000
1000
0000
,
1001
0000
0000
0000
0010
0100
0010
0000
,
1000
0010
0100
0000
0001
0100
0001
0100
,
0010
1000
0100
0000
0010
0001
0010
0001
,
1000
0001
0100
0000
0010
0100
0010
0100
,
0001
0010
0100
0000
0001
0100
1000
0000
,
0001
0010
0100
0000
1000
0100
1000
0100
,
0010
0001
0100
0000
0010
1000
0010
1000
,
0001
1000
0100
0000
0101
0000
0110
1001
,
0000
0010
0000
0100
1000
0100
0001
0000
,
0011
0000
1100
0100
1000
0100
0010
0100
,
0000
0010
0000
0001
1000
0010
0100
0000
,
1010
0000
0101
0100
0001
0100
0000
1100
,
0000
1010
0000
0011
0000
0100
0010
0000
,
1001
0000
0110
0010
1000
0010
0100
0010
,
0000
1000
0000
0100
0000
0010
0001
0010
,
0100
0000
0010
0010
0100
0010
0000
1010
,
0000
0100
0001
1000
0100
0010
1001
0000
,
0020
0000
1030
0200
0000
1300
0020
0000
,
0130
0002
0000
0013
0200
0000
2300
0000
,
3002
0000
0103
0020
0000
0130
0002
0000
,
0013
0000
0000
0000
0001
0000
0000
0000
0100
0000
0000
0000
1000
0000
0010
0100
,
0020
0000
1030
0200
0000
0310
0002
0000
,
1003
0020
0000
0130
0002
0000
2003
0000
,
3200
0000
0310
0002
0000
1003
0020
0000
,
0130
0002
0000
1003
0200
0000
0310
0001
,
2000
0000
3010
0200
0000
0301
0200
0000
,
1300
0200
0000
0310
2000
0000
3001
0010
,
0200
0000
1300
0020
0000
1030
0100
0000
,
0001
0010
1000
0100
,
0020
0000
0031
0200
0000
0301
2000
0000
,
3001
0010
0100
1000
,
0020
0000
1030
0200
0000
1300
0002
0000
,
0103
0000
0000
0000
0010
0000
0000
0000
1000
0000
0000
0100
1000
0000
0100
0000
,
0010
0001
0010
0001
0100
0001
0010
0001
,
1000
0010
0100
0001
1000
0100
0010
0100
,
1000
0001
0100
0010
1000
0001
0010
0100
,
0010
0000
0001
0000
1000
0000
0010
0100
,
0110
0000
1000
0010
0000
0001
0010
0000
,
1000
0100
0000
0001
0100
0000
0010
0100
,
1000
0000
0001
0100
0000
0001
0010
0000
,
1100
0000
0000
0010
0001
0100
0001
1000
,
0010
1000
0010
1000
0100
1000
0010
1000
,
0001
0010
0100
1000
0001
0100
0010
0100
,
0001
1000
0100
0010
0001
1000
0010
0100
,
0010
0000
1000
0000
0001
0000
0010
0100
,
0110
0000
0001
0010
0000
1000
0010
0000
,
0001
0100
0000
1000
0100
0000
0010
0100
,
0001
0000
1000
0100
0000
1000
0010
0000
,
0202
0000
0000
0000
0303
0000
0000
0000
1000
0000
0000
0100
0010
0000
0001
0000
,
1000
0010
0001
0100
,
1000
0010
0001
0100
,
1000
0010
0001
0100
,
1000
0000
0010
0000
0001
0000
0100
1000
,
0010
1000
0100
0000
1000
0100
0001
0000
,
0100
0001
0010
0000
0001
0010
1000
0000
,
0010
1000
0100
0000
1000
0100
0001
0000
,
0100
0001
0010
0001
0100
0010
1000
0100
;

//---------------dance-single - ----------------
#NOTES:
     dance-single:
     :
     Challenge:
     12:
     0.468,0.468,0.117,0.316,0.014,315.000,13.000,35.000,112.000,0.000,0.000,0.468,0.468,0.117,0.316,0.014,315.000,13.000,35.000,112.000,0.000,0.000:
0000
0000
0000
0000
,
0000
0000
0000
0000
,
0000
0000
0000
0000
,
0000
0000
0000
0000
,
0000
0000
0000
0000
,
0001
1000
0100
0000
0010
0000
0001
0000
,
0100
0010
1000
0000
0100
0000
0010
0000
,
0001
1000
0010
0000
0100
0000
0001
0000
,
MMMM
0000
0000
0000
0010
0100
0010
0000
,
0001
0010
0100
0000
MMMM
0100
1000
0100
,
0010
0001
0100
0000
MMMM
1000
0010
1000
,
0001
1000
0100
0000
MMMM
0100
0010
0100
,
1000
0010
0100
0000
1000
0100
0001
0000
,
1000
0010
0100
0000
MMMM
0100
0001
0100
,
0010
1000
0100
0000
MMMM
0001
0010
0001
,
1000
0001
0100
0000
1100
0000
MMMM
1001
,
0000
0010
0000
0100
0001
0100
1000
0000
,
MMMM
0000
0101
0100
0001
0100
0010
0100
,
0000
0010
0000
1000
0001
0010
0100
0000
,
MMMM
0000
1100
0100
1000
0100
0000
0101
,
0000
0011
0000
1010
0000
0100
0010
0000
,
MMMM
0000
0110
0010
0001
0010
0100
0010
,
0000
0001
0000
0100
0000
0010
1000
0010
,
0100
0000
0010
0010
0100
0010
0000
0011
,
0000
0100
1000
0001
0100
0010
MMMM
0000
,
0020
0000
0031
0200
0000
0301
0020
0000
,
0130
2000
0000
3010
0200
0000
0302
0000
,
2003
0000
3100
0020
0000
0130
2000
0000
,
3010
0000
0000
0000
1000
0000
0000
0000
0100
0000
0000
0000
0001
0000
0010
0100
,
0020
0000
0031
0200
0000
0310
2000
0000
,
3001
0020
0000
0130
2000
0000
3002
0000
,
0203
0000
0310
2000
0000
3001
0020
0000
,
0130
2000
0000
3001
0200
0000
0310
1000
,
0002
0000
0013
0200
0000
1300
0200
0000
,
0301
0200
0000
0310
0002
0000
1003
0010
,
0200
0000
0301
0020
0000
0031
0100
0000
,
MMMM
0010
MMMM
0100
,
0020
0000
1030
0200
0000
1300
0002
0000
,
1003
0010
0100
0001
,
0020
0000
0031
0200
0000
0301
2000
0000
,
3100
0000
0000
0000
0010
0000
0000
0000
0001
0000
0000
0100
0001
0000
0100
0000
,
0010
1000
0010
1000
0100
1000
MMMM
1000
,
0001
0010
0100
1000
0001
0100
MMMM
0100
,
0001
1000
0100
0010
0001
1000
MMMM
0100
,
0010
0000
1000
0000
0001
0000
0010
0100
,
0110
0000
0001
0010
0000
1000
0010
0000
,
0001
0100
0000
1000
0100
0000
0010
0100
,
0001
0000
1000
0100
0000
1000
0010
0000
,
0101
0000
0000
0010
1000
0100
1000
0001
,
0010
0001
0010
0001
0100
0001
MMMM
0001
,
1000
0010
0100
0001
1000
0100
MMMM
0100
,
1000
0001
0100
0010
1000
0001
MMMM
0100
,
0010
0000
0001
0000
1000
0000
0010
0100
,
0110
0000
1000
0010
0000
0001
0010
0000
,
1000
0100
0000
0001
0100
0000
0010
0100
,
1000
0000
0001
0100
0000
0001
0010
0000
,
2200
0000
0000
0000
3300
0000
0000
0000
0001
0000
0000
0100
0010
0000
1000
0000
,
0001
MMMM
1000
MMMM
,
0001
MMMM
1000
MMMM
,
0001
MMMM
1000
MMMM
,
0001
0000
MMMM
0000
1000
0000
MMMM
0001
,
0010
0001
0100
0000
0001
0100
1000
0000
,
0100
1000
0010
0000
1000
0010
MMMM
0000
,
0010
0001
0100
0000
0001
0100
1000
0000
,
0100
1000
0010
1000
0100
0010
0001
0100
;

//---------------dance-double - ----------------
#NOTES:
     dance-double:
     :
     Easy:
     6:
     0.272,0.263,0.054,0.153,0.000,188.000,6.000,17.000,0.000,0.000,0.000,0.272,0.263,0.054,0.153,0.000,188.000,6.000,17.000,0.000,0.000,0.000:
00000000
00000000
00000000
00000000
,
00000000
00000000
00000000
00000000
,
00000000
00000000
00000000
00000000
,
00000000
00000000
00000000
00000000
,
00000000
00000000
00000000
00000000
,
10000000
01000000
10000000
01000000
,
00100000
01000000
00100000
01000000
,
00010000
00001000
00010000
00001000
,
00011000
00000000
00001000
00001000
,
00000010
00000010
00000001
00000001
,
00001000
00000010
00000100
00000001
,
00001000
00001000
00000100
00000100
,
00010000
00001000
00100000
00010000
,
10000000
10000000
00100000
00100000
,
01000000
00010000
10000000
01000000
,
00100000
00000000
00000000
00000000
01000000
00000000
00100000
02000000
,
00000000
00000000
00000000
03100000
,
10000000
01000000
10000000
00000000
,
01000000
00010000
00001000
00000100
,
00000001
00000010
00000001
00000000
,
00000100
00001000
00010000
00100000
,
01000000
00100000
01000000
00000000
,
00010000
10000000
01000000
00100000
,
00001000
00010000
00001000
00000000
,
00000100
00000100
00000100
00001001
,
00000010
00000001
00000100
00000001
,
00000010
00001000
00010000
01000000
,
10000000
00100000
10000000
01000000
,
20020000
00000000
00000000
30030000
,
00100000
10000000
00010000
01000000
,
00002000
00000000
00000000
00003000
,
00010000
00000100
00001000
00000010
,
00000200
00000000
00000000
00000300
,
00000010
00001000
00000100
00001000
,
00000010
00010000
00001000
00100000
,
01000000
00100000
00010000
01000000
,
02200000
00000000
00000000
03300000
,
10000000
01000000
00010000
00001000
,
00020000
00000000
00000000
00030000
,
00001000
00000100
00000001
00000010
,
00000200
00000000
00000000
00000300
,
00000010
00000001
00000100
00000001
,
00000010
00001000
00010000
01000000
,
10000000
00100000
10000000
01000000
,
20020000
00000000
00000000
30030000
,
00100000
10000000
00010000
01000000
,
00002000
00000000
00000000
00003000
,
00010000
00000100
00001000
00000010
,
00000200
00000000
00000000
00000300
,
00000010
00001000
00000100
00001000
,
00000010
00010000
00001000
00100000
,
01000000
00100000
00010000
01000000
,
02200000
00000000
00000000
03300000
,
10000000
01000000
00010000
00001000
,
00020000
00000000
00000000
00030000
,
00001000
00000100
00000001
00000010
,
00000200
00000000
00000000
00000300
,
00000000
00000010
00000000
00000010
,
00000000
00000001
00000000
00000001
,
00000000
00000100
00000000
00000100
,
00000000
00001000
00000000
00001000
,
00010000
00010000
00100000
00100000
,
10000000
10000000
01000000
01000000
,
00010000
00001000
00100000
00001000
,
00010000
00001000
00000100
00000001
;

//---------------dance-double - ----------------
#NOTES:
     dance-double:
     :
     Medium:
     8:
     0.398,0.380,0.216,0.270,0.000,255.000,24.000,30.000,0.000,0.000,0.000,0.398,0.380,0.216,0.270,0.000,255.000,24.000,30.000,0.000,0.000,0.000:
00000000
00000000
00000000
00000000
,
00000000
00000000
00000000
00000000
,
00000000
00000000
00000000
00000000
,
00000000
00000000
00000000
00000000
,
00000000
00000000
00000000
00000000
,
00000010
00001000
00000001
00000010
,
00000100
00010000
00001000
00100000
,
00010000
10000000
00100000
01000000
,
10010000
00000000
00000000
00000000
01000000
01000000
01000000
00000000
,
00100000
01000000
00100000
00000000
10000000
00000000
01000000
00000000
,
00010000
00001000
00000010
00000001
,
00001000
00000010
00001000
00000000
00000001
00000000
00000100
00000000
,
00000010
00001000
00010000
01000000
,
00100000
10000000
01000000
00000000
00100000
00000000
01000000
00000000
,
00010000
00001000
00000010
00000100
,
00001001
00000000
00000000
00000000
00000110
00000000
00000001
00001000
,
00000000
00000000
00000010
00000000
00000100
00000100
00000100
00000000
,
00000001
00000100
00001000
00010000
,
00000010
00011000
00100000
00011000
,
00001000
00010000
01000000
10000000
,
00100000
00000000
01010000
00000000
00100000
00010000
01000000
00000000
,
10000000
01000000
00010000
00001000
,
00100000
00011000
00000010
00011000
,
00010000
00000000
00001000
00000000
00000100
00000000
00000001
00000010
,
00000000
00001100
00000000
00000001
00000010
00000100
00001000
00000000
,
00000010
00001000
00000010
00000100
,
00001000
00000000
00010000
00000000
00100000
10000000
00010000
00000000
,
00100000
00010000
01000000
00010000
,
10000000
00000000
01000000
00000000
00010000
00001000
00010000
00000000
,
00000200
00000010
00020300
00000010
,
00030200
00000010
00020300
00000010
,
00032000
00100000
02003000
00100000
,
03002000
00100000
02003000
03100000
,
10000000
01000000
00100000
00000000
00110000
00000000
11000000
00000000
,
00100000
00010000
00001000
00000100
,
00000010
00000001
00001000
00000000
00000110
00000000
00001001
00000000
,
00000010
00000100
00001000
00010000
,
00002000
00100000
00023000
00100000
,
00032000
00100000
00023000
00100000
,
00032000
00000100
00023000
00000100
,
00032000
00000100
00023000
00031000
,
00100000
00010000
00100000
01000000
,
00010000
00000000
00001000
00000000
00000010
00000001
00001000
00000000
,
00000010
00001000
00000100
00001000
,
00000001
00000000
00000100
00000000
00001000
00010000
00001000
00000000
,
02000000
00100000
03002000
00100000
,
02003000
00100000
03002000
00100000
,
00023000
00000010
00030200
00000010
,
00020300
00000010
00030200
00000310
,
00000001
00000100
00000010
00000000
00001010
00000000
00000101
00000000
,
00000010
00001000
00010000
01000000
,
00100000
10000000
00010000
00000000
01100000
00000000
10010000
00000000
,
00100000
01000000
00010000
00001000
,
00020000
00000010
00032000
00000010
,
00023000
00000010
00032000
00000010
,
00023000
01000000
00032000
01003000
,
01001000
00000000
01000000
01000000
,
00100000
00100000
10000000
10000000
,
01000000
01000000
00010000
00010000
,
00001000
00001000
00000100
00000100
,
00000001
00000001
00000010
00000010
,
00000001
00000101
00001000
00001100
,
00010000
00011000
00100000
00110000
,
10000000
01010000
00100000
11000000
,
00100000
00000000
00010000
00000000
00001000
00010000
00001000
00010000
;

//---------------dance-double - ----------------
#NOTES:
     dance-double:
     :
     Hard:
     11:
     0.470,0.439,0.045,0.279,0.000,329.000,5.000,31.000,0.000,0.000,0.000,0.470,0.439,0.045,0.279,0.000,329.000,5.000,31.000,0.000,0.000,0.000:
00000000
00000000
00000000
00000000
,
00000000
00000000
00000000
00000000
,
00000000
00000000
00000000
00000000
,
00000000
00000000
00000000
00000000
,
00000000
00000000
00000000
00000000
,
00100000
10000000
01000000
00000000
01000000
00010000
00001000
00000000
,
00001000
00000100
00000001
00000000
00000001
00001000
00000100
00000000
,
00000010
00000001
00001000
00000010
00000100
00001000
00010000
00000000
,
00011000
00000000
01000000
01000000
,
00100000
00010000
01000000
00000000
00100000
10000000
01000000
00000000
,
00100000
00010000
01000000
00010000
00100000
00001000
00010000
00000000
,
00000010
00001000
00000100
00000000
00000010
00000001
00000100
00000000
,
00000010
00000100
00001000
00010000
00001000
00010000
01000000
00000000
,
00100000
00010000
10000000
00000000
00100000
10000000
00010000
00000000
,
00100000
01000000
10000000
00010000
01000000
00100000
00010000
00000000
,
00001000
00000100
00000010
00000000
00001001
00000000
00000100
00000010
,
00000000
00000001
00000000
00000100
00000010
00000010
00000010
00000000
,
00000100
00001000
00010000
00000000
00100000
00000000
10000000
00000000
,
00020000
00100000
10000000
00130000
,
01000000
00010000
00001000
00000000
00000010
00000000
00000001
00000000
,
00002000
00000010
00000001
00003010
,
00000100
00001000
00010000
00000000
00100000
00000000
10000000
00000000
,
00020000
00100000
10000000
00130000
,
01000000
00010000
00001000
00000000
00000010
00000000
00000001
00001000
,
00000000
00000110
00000000
00001001
00000010
00000100
00000001
00000000
,
00000020
00000000
00000031
00000200
00000000
00001300
00020000
00000000
,
00130000
20000000
00000000
30010000
00200000
00000000
01300000
00000000
,
20000000
00000000
30100000
00020000
00000000
00031000
00000200
00000000
,
00000301
00000000
00001000
00000000
00000100
00000000
00000010
00000001
,
00002000
00000000
00003010
00000200
00000000
00001300
00020000
00000000
,
00030100
00000010
00001000
00010000
,
02000000
00000000
03100000
00020000
00000000
10030000
00020000
00000000
,
01030000
00000000
00100000
00000000
10000000
00000000
00010000
01000000
,
00200000
00000000
10300000
02000000
00000000
03010000
00002000
00000000
,
00003010
00000002
00000000
00001003
00000020
00000000
00000130
00000000
,
00000002
00000000
00000013
00002000
00000000
00013000
02000000
00000000
,
13000000
00000000
00010000
00000000
01000000
00000000
00100000
10000000
,
00020000
00000000
00130000
02000000
00000000
03010000
00002000
00000000
,
01003000
00100000
00010000
00001000
,
00000200
00000000
00000310
00002000
00000000
00003001
00002000
00000000
,
00003100
00000010
00000001
00000100
,
00000010
00000100
00000010
00000100
00001000
00010000
00001000
00010000
,
00100000
01000000
00100000
01000000
00010000
10000000
01000000
00000000
,
00100000
00010000
01000000
00010000
00100000
01000000
10000000
00000000
,
00100000
00010000
00001000
00000100
,
00000010
00010000
00001000
00000010
00000100
00000010
00000001
00000000
,
00001000
00000010
00000100
00000010
00000001
00000010
00000100
00000000
,
00000001
00000100
00001000
00000000
00000100
00001000
00010000
00000000
,
00100000
00000000
10000000
00000000
00010000
10000000
01000000
00000000
,
00100000
01000000
00100000
01000000
00010000
00001000
00010000
00001000
,
00000010
00000100
00000010
00000100
00001000
00000001
00000100
00000000
,
00000010
00001000
00000100
00001000
00000010
00000100
00000001
00000000
,
00000010
00001000
00010000
01000000
,
00100000
00001000
00010000
00100000
01000000
00100000
10000000
00000000
,
00010000
00100000
01000000
00100000
10000000
00100000
01000000
00000000
,
10000000
01000000
00010000
00000000
01000000
00010000
00001000
00000000
,
00011000
00000000
00001000
00000100
,
00000001
00000010
00000001
00000100
,
00001000
00010000
00100000
10000000
,
10000000
00100000
10000000
01000000
,
00010000
00001000
00000010
00000001
,
00001000
00000100
00000010
00000000
00000001
00000100
00000010
00000000
,
00010000
00001000
00010000
00000000
00001000
00010000
01000000
00000000
,
00100000
00010000
01000000
00000000
00100000
01000000
00010000
00000000
,
10000000
01000000
00100000
01000000
00010000
00001000
00000010
00000100
;

//---------------dance-double - ----------------
#NOTES:
     dance-double:
     :
     Challenge:
     12:
     0.435,0.439,0.018,0.279,0.000,305.000,2.000,31.000,192.000,0.000,0.000,0.435,0.439,0.018,0.279,0.000,305.000,2.000,31.000,192.000,0.000,0.000:
00000000
00000000
00000000
00000000
,
00000000
00000000
00000000
00000000
,
00000000
00000000
00000000
00000000
,
00000000
00000000
00000000
00000000
,
00000000
00000000
00000000
00000000
,
00000010
00000001
00000100
00000000
00000100
00001000
00010000
00000000
,
00010000
01000000
10000000
00000000
10000000
00010000
01000000
00000000
,
00100000
10000000
00010000
00100000
01000000
00010000
00001000
00000000
,
MMMMMMMM
00000000
00000100
00000100
,
00000010
00001000
00000100
00000000
00000010
00000001
00000100
00000000
,
00000010
00001000
00000100
00001000
00000010
00010000
MMMMMMMM
00000000
,
00100000
00010000
01000000
00000000
00100000
10000000
01000000
00000000
,
00100000
01000000
00010000
00001000
00010000
00001000
MMMMMMMM
00000000
,
00000010
00001000
00000001
00000000
00000010
00000001
00001000
00000000
,
00000010
00000100
00000001
00001000
00000100
00000010
MMMMMMMM
00000000
,
00010000
01000000
00100000
00000000
MMMMMMMM
00000000
01000000
00100000
,
00000000
10000000
00000000
01000000
00100000
00100000
00100000
00000000
,
01000000
MMMMMMMM
00001000
00000000
00000010
00000000
00000001
00000000
,
00002000
00000010
00000001
00003010
,
00000100
MMMMMMMM
00010000
00000000
00100000
00000000
10000000
00000000
,
00020000
00100000
10000000
00130000
,
01000000
MMMMMMMM
00001000
00000000
00000010
00000000
00000001
00000000
,
00002000
00000010
00000001
00003010
,
00000100
MMMMMMMM
00010000
00000000
00100000
00000000
10000000
00010000
,
00000000
01100000
00000000
10010000
00100000
01000000
10000000
00000000
,
00200000
00000000
10300000
02000000
00000000
03010000
00002000
00000000
,
00003010
00000002
00000000
00001003
00000020
00000000
00000130
00000000
,
00000002
00000000
00000013
00002000
00000000
00013000
02000000
00000000
,
13000000
00000000
00010000
00000000
01000000
00000000
00100000
10000000
,
00020000
00000000
00130000
02000000
00000000
03010000
00002000
00000000
,
01003000
00100000
00010000
00001000
,
00000200
00000000
00000310
00002000
00000000
00003001
00002000
00000000
,
00003100
00000000
00000010
00000000
00000001
00000000
00001000
00000100
,
00000020
00000000
00000031
00000200
00000000
00001300
00020000
00000000
,
00130000
20000000
00000000
30010000
00200000
00000000
01300000
00000000
,
20000000
00000000
30100000
00020000
00000000
00031000
00000200
00000000
,
00000301
00000000
00001000
00000000
00000100
00000000
00000010
00000001
,
00002000
00000000
00003010
00000200
00000000
00001300
00020000
00000000
,
00030100
00000010
00001000
00010000
,
02000000
00000000
03100000
00020000
00000000
10030000
00020000
00000000
,
01030000
00100000
10000000
01000000
,
00100000
01000000
00100000
01000000
00010000
00001000
00010000
00001000
,
00000010
00000100
00000010
00000100
00001000
00000001
MMMMMMMM
00000000
,
00000010
00001000
00000100
00001000
00000010
00000100
00000001
00000000
,
MMMMMMMM
00001000
MMMMMMMM
01000000
,
00100000
00001000
00010000
00100000
01000000
00100000
MMMMMMMM
00000000
,
00010000
00100000
01000000
00100000
10000000
00100000
MMMMMMMM
00000000
,
10000000
01000000
00010000
00000000
01000000
00010000
00001000
00000000
,
MMMMMMMM
00000000
00000001
00000000
00001000
00000001
00000100
00000000
,
00000010
00000100
00000010
00000100
00001000
00010000
00001000
00010000
,
00100000
01000000
00100000
01000000
00010000
10000000
MMMMMMMM
00000000
,
00100000
00010000
01000000
00010000
00100000
01000000
10000000
00000000
,
MMMMMMMM
00010000
MMMMMMMM
00000100
,
00000010
00010000
00001000
00000010
00000100
00000010
MMMMMMMM
00000000
,
00001000
00000010
00000100
00000010
00000001
00000010
MMMMMMMM
00000000
,
00000001
00000100
00001000
00000000
00000100
00001000
00010000
00000000
,
MMMMMMMM
00000000
00010000
01000000
,
10000000
00100000
10000000
01000000
,
00010000
00001000
00000010
MMMMMMMM
,
00000001
00000010
00000001
00000100
,
00001000
00010000
00100000
MMMMMMMM
,
00010000
01000000
00100000
00000000
10000000
01000000
00100000
00000000
,
00001000
00010000
00001000
00000000
00010000
00001000
MMMMMMMM
00000000
,
00000010
00001000
00000100
00000000
00000010
00000100
00001000
00000000
,
00000001
00000100
00000010
00000100
00001000
00010000
00100000
01000000
;

//---------------dance-single - ----------------
#NOTES:
     dance-single:
     :
     Beginner:
     3:
     0.131,0.117,0.000,0.009,0.000,101.000,0.000,1.000,0.000,0.000,0.000,0.131,0.117,0.000,0.009,0.000,101.000,0.000,1.000,0.000,0.000,0.000:
0000
0000
0000
0000
,
0000
0000
0000
0000
,
0000
0000
0000
0000
,
0000
0000
0000
0000
,
0000
0000
0000
0000
,
0000
0000
0000
1000
,
0000
0000
0000
0001
,
0000
0000
0000
1000
,
1000
0000
0000
0000
,
0000
0000
0000
0010
,
0000
0000
0000
0001
,
0000
0000
0000
1000
,
0000
0000
0000
0100
,
0000
0000
0000
0001
,
0000
0000
0000
0010
,
0000
0000
0000
1000
,
0000
0000
0000
1000
,
1000
0000
0000
0000
,
0010
0010
0000
0000
,
0001
0001
0000
0000
,
0100
0100
0000
0000
,
0001
0001
0000
0000
,
0010
0010
0000
0000
,
1000
1000
0000
0000
,
0001
0000
0000
0000
,
0000
0010
0000
0010
,
0000
0100
0000
0100
,
0000
1000
0000
1000
,
0000
0100
0000
0100
,
0000
0010
0000
0010
,
0000
0001
0000
0001
,
0000
0010
0000
0010
,
0000
1000
0000
1000
,
0000
0010
0000
0010
,
0000
0100
0000
0100
,
0000
0001
0000
0001
,
0000
0100
0000
0100
,
0000
1000
0000
1000
,
0000
0001
0000
0001
,
0000
0010
0000
0010
,
0000
0010
0010
0000
,
0000
1000
0000
0100
,
0000
0100
0000
0010
,
0000
0100
0000
0100
,
0000
0001
0000
1000
,
0000
0001
0000
0100
,
0000
0001
0000
0100
,
0000
1000
0000
0100
,
0000
0010
0000
1000
,
0000
0001
0000
0100
,
0000
0001
0000
0010
,
0000
0100
0000
0100
,
0000
0001
0000
0001
,
0000
1000
0000
0100
,
0000
0010
0000
0100
,
0000
0001
0000
0100
,
0200
0000
0000
0300
,
0000
0000
0000
0001
,
0000
0000
0000
1000
,
0000
0000
0000
0001
,
0000
0000
0000
1000
,
0000
0001
0000
0001
,
0000
0010
0000
0010
,
0000
1000
0000
1000
,
0000
0100
0000
0100
;

//---------------dance-single - NB4----------------
#NOTES:
     dance-single:
     :
     Edit:
     13:
     0.668,0.615,0.225,0.036,0.748,490.000,25.000,4.000,0.000,0.000,0.000,0.668,0.615,0.225,0.036,0.748,490.000,25.000,4.000,0.000,0.000,0.000: // measure 0
0000
0000
0000
0000
,  // measure 1
0000
0000
0000
0000
,  // measure 2
0000
0000
0000
0000
,  // measure 3
0000
0000
0000
0000
,  // measure 4
0000
0000
0000
0000
,  // measure 5
1000
0000
0001
0100
0000
0010
0100
0000
0001
0010
0000
1000
0000
0001
0000
0000
,  // measure 6
0000
0100
0000
0001
0000
0000
0100
0010
0000
0000
0000
0001
0000
0100
0000
0000
,  // measure 7
0010
0000
1000
0100
0000
0000
0010
0000
0001
0000
0000
0100
0000
0010
0000
0000
,  // measure 8
2002
0000
0000
0000
3003
0000
0000
0000
1010
0000
0001
0100
0010
0000
0000
0000
,  // measure 9
1000
0000
0010
0000
0200
0000
0000
0010
0000
0010
0300
0000
0001
0000
0100
0000
,  // measure 10
0010
0000
1000
0000
0001
0000
0000
0100
0000
0001
0000
0100
0010
0000
0100
0000
,  // measure 11
1000
0000
0001
0000
0010
0100
0000
0001
0010
0000
0100
1000
0000
0001
0100
0000
,  // measure 12
0010
0000
1000
0001
0000
1000
0100
0010
0001
0000
0100
0010
0000
0010
0100
0000
,  // measure 13
0001
0000
0010
0000
0100
0001
0000
1000
0100
0000
0010
1000
0000
0001
0100
0000
,  // measure 14
0010
0000
0001
1000
0000
0100
0000
0000
0010
0000
0001
0100
0000
0100
1000
0000
,  // measure 15
0010
0000
0000
0000
1000
0001
1000
0001
1000
0000
0000
0000
0100
0000
0110
0000
,  // measure 16
0000
0000
0010
0000
0000
0000
0100
0000
0010
0100
0001
1000
0100
0000
0000
0000
,  // measure 17
1001
0000
0000
0100
1000
0000
0010
0000
0100
0000
0001
0000
0000
0000
1010
0000
,  // measure 18
0000
0000
0110
0000
0000
0000
0001
0000
1000
0000
0000
0001
0000
0100
0000
0000
,  // measure 19
0001
1000
0000
0100
1000
0000
0100
0000
0001
0000
0100
0000
0000
0000
0011
0000
,  // measure 20
0000
0000
1010
0000
0000
0000
1100
0000
0000
0000
0100
0000
0010
0000
0000
0100
,  // measure 21
1000
0001
0000
1000
0100
0000
0010
0000
1000
0000
0010
0100
0010
0000
0001
0000
,  // measure 22
0000
1000
0000
0100
0000
0010
0001
0010
,  // measure 23
0100
0001
0010
0000
0100
1000
0010
0000
0001
0100
0010
0000
1000
0100
0010
0000
,  // measure 24
0000
0000
0100
0000
0001
0000
1000
0000
0100
0001
0010
0100
1000
0000
0000
0000
,  // measure 25
0010
0000
0000
0010
1000
0000
0100
0000
0000
0100
1000
0000
0010
0000
0000
0010
,  // measure 26
0100
0000
0001
0000
0000
0001
0010
0000
0100
0010
0000
0000
1000
0001
0000
0000
,  // measure 27
0001
0000
0000
0001
0100
0000
0010
0000
0000
0010
0100
0000
0001
0000
0000
0001
,  // measure 28
0010
0000
0000
0000
0001
1000
0001
1000
0100
0000
0000
0000
0010
0100
0010
0100
,  // measure 29
0010
0000
0000
0010
1000
0000
0100
0000
0000
0100
0010
0000
0001
0000
0000
0001
,  // measure 30
1000
0000
0010
0000
0000
0010
0100
0000
0001
0000
0000
0001
1000
0100
0010
0000
,  // measure 31
0100
0000
0000
0100
0010
0000
0001
0000
0000
0001
1000
0000
0010
0000
0000
0010
,  // measure 32
0100
0000
0001
0000
0000
0001
1000
0000
0100
0000
0000
0100
0010
0000
0001
0100
,  // measure 33
1000
0000
0000
1000
0010
0000
0100
0000
0000
0100
0001
0000
0100
0000
0000
0100
,  // measure 34
1000
0000
0100
0000
0000
0100
0010
0000
1000
0000
0000
1000
0001
0000
0010
0000
,  // measure 35
0100
1000
0100
0000
1000
0000
0010
1000
0010
0000
1000
0000
1001
0000
0000
0000
,  // measure 36
1020
1000
0100
0031
,  // measure 37
0010
0000
0000
0010
0001
0000
0100
0000
0000
0100
0001
0000
1000
0000
0000
1000
,  // measure 38
0001
0000
0000
0000
0010
0001
0000
0010
0100
0000
0000
0000
1000
0000
0000
0000
,  // measure 39
0010
0000
0000
0010
1000
0000
0100
0000
0000
0100
1000
0000
0001
0000
0000
0001
,  // measure 40
0100
0001
0000
0100
0010
0000
1000
0100
0010
0001
0000
0100
0010
0000
0100
0001
,  // measure 41
0100
0000
0001
1000
0000
0001
0010
0000
0100
0000
0001
0000
0010
0000
0001
0000
,  // measure 42
1000
0000
0010
0100
0000
0010
0001
0000
1000
0000
0100
0000
0010
0000
0100
0000
,  // measure 43
0001
0000
1000
0100
0000
0010
0001
0000
1000
0000
0001
0000
0010
0000
0100
0000
,  // measure 44
0010
0000
0100
0010
0000
1000
0100
0000
0001
0000
1000
0000
0010
0000
0001
0000
,  // measure 45
0100
0010
0100
0001
0000
1000
0010
0000
0100
0000
0001
0000
0010
0000
0001
0000
,  // measure 46
1000
0010
1000
0100
0000
0010
0001
0000
0100
0000
1000
0000
0010
0000
0100
0000
,  // measure 47
1000
0001
0010
0001
0000
0100
0010
0000
0001
0000
1000
0000
0010
0000
0100
0000
,  // measure 48
1000
0100
0010
0001
0000
1000
0010
0000
0001
0000
0100
0000
0001
0000
1000
0000
,  // measure 49
0010
0000
0001
0100
0000
0010
1000
0000
0100
0000
1000
0000
0010
0000
1000
0000
,  // measure 50
0001
0000
0010
1000
0000
0100
1000
0000
0001
0000
0100
0000
0010
0000
0001
0000
,  // measure 51
1000
0000
0010
0001
0000
1000
0010
0000
0001
0000
0100
0000
0001
0000
1000
0000
,  // measure 52
0010
0001
0000
0010
1000
0000
0100
0000
0001
0100
0000
1000
0010
0000
0001
0000
,  // measure 53
0100
0001
0100
0000
0010
0000
1000
0000
0100
0000
1000
0000
0010
0000
0100
0000
,  // measure 54
0001
0010
0001
0000
0010
0000
1000
0000
0100
0000
0001
0000
0010
0000
0100
0000
,  // measure 55
0001
1000
0001
0000
0010
0000
0100
0000
0001
0000
1000
0000
0010
0000
0000
0000
,  // measure 56
0100
0000
0001
0000
1000
0000
0010
0000
0100
0010
1000
0001
0100
0000
1000
0000
,  // measure 57
0100
0000
0000
0000
0110
0000
0000
0001
0000
0001
0000
0000
1001
0000
0000
1000
,  // measure 58
0000
1000
0000
0000
0101
0000
0000
0001
0000
0001
0000
0000
1100
0000
0000
1000
,  // measure 59
0000
1000
0000
0000
1010
0000
0000
0001
0000
0001
0000
0000
0011
0000
0000
1000
,  // measure 60
0000
1000
0000
0000
0110
0000
0000
0001
0000
0001
0000
0000
1010
0000
0000
0000
,  // measure 61
0010
0000
1000
0000
0101
0000
0000
1000
0000
0100
0000
0000
1001
0000
0000
0100
,  // measure 62
0000
0001
0000
0000
0110
0000
0000
0001
0000
0010
0000
0000
1100
0000
0000
0010
,  // measure 63
0000
1000
0000
0000
0101
0000
0000
1000
0000
0100
0000
0000
1001
0000
0000
0100
,  // measure 64
0000
0001
0000
0000
0010
0000
0001
0000
1000
0100
1000
0100
0010
0001
0010
0001
;
