#TITLE:虹色;
#SUBTITLE:;
#ARTIST:DJ YOSHITAKA feat G.S.C license;
#TITLETRANSLIT:NIJIIRO;
#SUBTITLETRANSLIT:;
#ARTISTTRANSLIT:;
#GENRE:LOVELY TRANS POP;
#CREDIT:;
#MENUCOLOR:white;
#METERTYPE:DDR X;
#BANNER:NIJIIRO.png;
#BACKGROUND:NIJIIRO-bg.png;
#LYRICSPATH:;
#CDTITLE:./CDTITLES/pop'n music.png;
#MUSIC:NIJIIRO.mp3;
#OFFSET:0.670;
#SAMPLESTART:45.410;
#SAMPLELENGTH:15.000;
#SELECTABLE:YES;
#LISTSORT:;
#DISPLAYBPM:160.000;
#BPMS:0.000=160.000;
#STOPS:;
#BGCHANGES:;
#ATTACKS:;

//---------------dance-single - ----------------
#NOTES:
     dance-single:
     :
     Easy:
     4:
     0.205,0.257,0.152,0.000,0.000:
0000
0000
0000
0000
,
1000
0000
0000
0000
,
1000
0000
0000
0000
,
1000
0000
0000
0000
,
0001
0001
0100
0000
,
1000
0000
0000
0000
,
1000
0000
0000
0000
,
1000
0000
1000
0000
,
0001
0001
0100
0100
,
1001
0000
0000
0000
,
1001
0000
0000
0000
,
0110
0000
0110
0000
,
1001
0000
0110
0000
,
1001
0000
0000
0000
,
1000
0000
0000
0000
,
1000
0000
0000
0000
,
1000
0000
0100
0000
,
0010
0000
0010
0000
,
0001
0000
0000
0000
,
0001
0000
0000
0000
,
0001
0000
0100
0000
,
0010
0000
1000
1000
,
0001
0000
1000
0000
,
1000
0000
0100
0100
,
0010
0000
0001
0000
,
0100
0000
0010
0010
,
0010
0000
0100
0100
,
0001
0000
1000
0000
,
0100
0000
0000
0000
,
0010
0000
0010
0000
,
0001
0000
1000
0000
,
0010
0000
0010
0000
,
1000
0000
0001
0000
,
0010
0000
0010
0000
,
0001
0001
1000
1000
,
0010
0000
0010
0000
,
1000
0000
0100
0000
,
0010
0000
0001
0000
,
1000
1000
0100
1000
,
0010
0000
0010
0000
,
0010
0000
0010
1000
,
0100
0000
0100
0000
,
0100
1000
0100
1000
,
0010
0000
0010
0000
,
0010
0000
1000
0100
,
0010
0000
0010
0000
,
0001
1000
0001
0000
,
1000
0000
0000
0000
,
1000
0000
0000
0000
,
1000
0000
1000
0000
,
0100
0100
1000
0100
,
1000
0000
0000
0000
,
1000
0000
0000
0000
,
0001
0000
0100
0000
,
0001
0100
0001
1000
,
0110
0000
0000
0000
,
1001
0000
0000
0000
,
0110
0000
0110
0000
,
1001
0000
0110
0000
,
1001
0000
0000
0000
;

//---------------dance-single - ----------------
#NOTES:
     dance-single:
     :
     Medium:
     8:
     0.410,0.417,0.033,0.054,0.065:
0000
0000
0000
0000
,
1000
0000
1000
0000
0001
0100
0001
0000
,
1000
0000
1000
0000
0001
0010
0001
0000
,
1000
0000
1000
0000
0001
0100
0001
0010
,
0001
0100
1000
0100
,
0001
0000
0001
0000
1000
0010
1000
0000
,
0001
0000
0001
0000
1000
0100
1000
0000
,
0001
0010
0100
1000
,
0001
0100
0001
0100
0000
0000
0000
0000
,
0022
0000
0000
0033
,
2200
0000
0000
3300
,
0001
0000
0010
0000
,
0100
0000
0000
0100
0000
0000
0100
0000
1000
0000
0000
1000
0000
0000
1000
0000
,
0001
0000
0000
0000
,
0100
0000
0100
0000
0100
0000
0001
0100
,
0010
0000
0010
0000
0010
0000
1000
0100
,
0010
0010
0010
0000
,
0001
0001
1000
1000
,
0010
0000
0010
0000
0010
0000
1000
0010
,
0100
0000
0100
0000
0100
0000
0001
0010
,
0100
0100
0100
0010
,
0001
0001
1000
1000
,
0110
0000
0000
0000
1000
0000
1000
0001
,
1000
0000
0000
0000
0100
0000
0100
0010
,
0100
0100
1000
1000
,
0001
0001
1000
0001
,
0020
0030
0100
0010
,
1000
0010
0100
0001
,
0010
0000
0000
0010
0000
0000
0010
0000
0100
0000
0000
0100
0000
0000
0100
0000
,
1000
0000
0000
1000
0000
0000
1000
0000
0001
0000
0000
0001
0000
0000
0001
0000
,
1000
0000
0000
0001
0000
0000
0100
0000
0100
0000
0000
0000
0000
0000
0000
0000
,
0001
0001
1000
1000
,
0001
1000
0001
0001
,
0100
0100
0100
0010
,
1000
0100
0010
0000
0001
0100
0010
0000
,
1000
1000
1000
0001
,
1000
1000
1000
0100
,
0010
0001
1000
0100
,
0010
0001
0100
0000
0010
1000
0100
0000
,
1000
1000
1000
1000
,
1000
0000
1000
0000
1000
0000
1000
0001
,
1000
0000
1000
0000
1000
0000
1000
0001
,
0100
0001
1000
0100
,
0010
0010
0010
0010
,
0010
0010
0001
0100
,
0010
1000
0100
0010
,
0001
0000
0000
1000
0000
0000
0100
0000
0000
0000
0000
0000
0000
0000
0000
0000
,
0001
0000
0100
0000
0010
1000
0100
0000
,
0001
0000
0100
0000
0010
1000
0100
0000
,
0001
0000
0100
0000
0010
1000
0100
1000
,
0001
0001
1000
0100
,
0001
0000
0010
0000
0100
1000
0010
0000
,
0001
0000
0010
0000
0100
1000
0010
0000
,
0100
0001
0100
0000
0001
0100
0001
0100
,
0001
1000
0100
0001
,
0100
0001
0100
0000
1000
0000
0100
0000
,
0010
0001
0010
0000
1000
0000
0010
0000
,
0100
0000
0000
0100
0000
0000
0100
0000
0001
0000
0000
0001
0000
0000
0001
0000
,
0010
0000
0000
0010
0000
0000
0010
0000
0100
0000
0000
1000
0000
0000
0001
0000
,
0100
0000
0000
0000
;

//---------------dance-single - ----------------
#NOTES:
     dance-single:
     :
     Hard:
     11:
     0.521,0.481,0.076,0.000,0.354:
0000
0000
0000
0000
,
0000
0000
1000
0000
0100
0000
0000
0000
0010
0000
0000
0010
0000
0000
0001
0000
,
0000
0000
0001
0000
0100
0000
0000
0000
0010
0000
0000
0010
0000
0000
1000
0000
,
0000
0000
1000
0000
0100
0000
0000
0000
0010
0000
0000
0001
0000
0000
0100
0000
,
0001
0000
0000
0000
0001
0000
0000
0000
0001
0000
0000
0010
0000
0000
0100
0000
,
0000
0000
1000
0000
0010
0000
0000
0000
0100
0000
0000
0100
0000
0000
0001
0000
,
0000
0000
0001
0000
0010
0000
0000
0000
0100
0000
0000
0100
0000
0000
1000
0000
,
0001
0000
0000
0100
0000
0000
0010
0000
1000
0010
0000
1000
0000
0000
0100
0000
,
1000
0000
0010
0000
0100
0000
0001
0000
0000
0000
0000
0000
0000
0000
1000
0100
,
1000
0000
0000
0001
0000
0000
0100
0000
0000
0000
0010
0000
1000
0000
0100
0000
,
0010
0000
0000
0001
0000
0000
1000
0000
0000
0000
0010
0000
0100
0000
0001
0000
,
1000
0000
0000
1000
0000
0000
1000
0000
0100
0000
0000
0100
0000
0000
0100
0000
,
0010
0000
0000
0010
0000
0000
0010
0000
0001
0000
1000
0000
0100
0000
0010
0000
,
1001
0000
0000
0000
,
0000
1000
0100
0000
1000
0000
0001
0000
,
0000
1000
0010
0000
1000
0000
0100
0000
,
0010
0000
0000
0010
0000
0000
0001
0000
0100
0000
0000
0000
0000
0000
0000
0000
,
0010
1000
0000
1000
0100
0000
0000
0000
1000
0100
0000
0100
1000
0000
0010
0000
,
0000
0100
0001
0000
1000
0000
0001
0000
,
0000
0100
0001
0000
1000
0000
0001
0000
,
0100
0000
0000
0100
0000
0000
0010
0000
1000
0000
0000
0000
0100
0000
0000
0000
,
0100
0010
0100
1000
0000
0001
0100
0010
,
1001
0000
0000
0000
1000
0100
1000
0001
,
0010
0000
0000
0000
0001
0100
0001
1000
,
0010
0000
0000
0010
0000
0000
0010
0000
0100
0000
0000
0100
0000
0000
0100
0000
,
1000
0000
0000
0001
0100
0001
0010
0100
,
1000
0000
0000
0001
0010
0001
0100
0001
,
0010
0000
0000
0010
0000
0000
0010
0000
0100
0000
0000
0000
1000
0000
0000
0000
,
0001
0000
0000
0001
0000
0000
0001
0000
1000
0000
0000
1000
0000
0000
1000
0000
,
0100
0000
0000
0100
0000
0000
0100
0000
0010
0000
0000
0010
0000
0000
0010
0000
,
0001
0000
0000
0100
0000
0000
0010
0000
1001
0000
0000
0000
1000
0000
0100
0000
,
1000
0000
0000
1000
0000
0000
1000
0000
0001
0000
0100
0000
0010
0000
0100
0000
,
0001
0000
0000
0001
0000
0000
0001
0000
1000
0000
0100
0000
0010
0000
0100
0000
,
1000
0000
0000
1000
0000
0000
1000
0000
0001
0000
0100
0000
0010
0000
1000
0000
,
0001
0001
0100
0000
1000
1000
0100
0000
,
0001
0000
0000
0001
0000
0000
0001
0000
0100
0000
0010
0000
1000
0000
0100
0000
,
0010
0000
0000
0010
0000
0000
0001
0000
1000
0000
0010
0000
0100
0000
0001
0000
,
1000
0000
0000
0000
0000
0000
0100
0000
0010
0000
0000
0001
0000
0000
0100
0000
,
0010
0000
0000
0010
0000
0000
1000
0000
0000
0000
0100
0000
0010
0000
0100
0000
,
1000
0000
0000
0010
0000
0000
0100
0000
0001
0000
0000
0010
0000
0000
0100
0000
,
1000
0000
0000
0010
0000
0000
0100
0000
0001
0000
0000
0000
0001
0000
0000
0000
,
0010
0000
0000
0100
0000
0000
1000
0000
0010
0000
0000
0100
0000
0000
0001
0000
,
1000
0100
1000
0010
0100
0000
0100
0000
,
0001
0000
0000
0100
0000
0000
1000
0000
1000
0000
0000
0100
0000
0000
0001
0000
,
0001
0000
0000
0010
0000
0000
1000
0000
1000
0000
0000
0010
0000
0000
0001
0000
,
1000
0000
0000
0010
0000
0000
0100
0000
0001
0000
0000
0010
0000
0000
0100
0000
,
1001
0000
0000
1100
0000
0000
1001
0000
0000
0000
0000
0000
0000
0000
0000
0000
,
0000
0000
1000
0000
0100
0000
0000
0000
0010
0000
0000
0001
0000
0000
0010
0000
,
0000
0000
0100
0000
1000
0000
0000
0000
0010
0000
0000
0001
0000
0000
0010
0000
,
0000
0000
1000
0000
0100
0000
0000
0000
0010
0000
0000
0001
0000
0000
0100
0000
,
0001
0000
0000
0000
0010
0000
0000
0000
0100
0000
0000
1000
0000
0000
0001
0000
,
0000
0000
0100
0000
0010
0000
0000
0000
1000
0000
0000
0001
0000
0000
0100
0000
,
0000
0000
0001
0000
1000
0000
0000
0000
0010
0000
0000
0100
0000
0000
0001
0000
,
1000
0000
0000
0100
0000
0000
0010
0000
0001
0100
0000
0001
0000
0000
1000
0000
,
0100
0000
0010
0000
0001
0000
0100
0000
0000
0000
0000
0000
0000
0000
0001
0100
,
0001
0100
0000
0010
0000
0000
1000
0000
0000
0000
0001
0000
0010
0000
0100
0000
,
1000
0100
0000
0010
0000
0000
0001
0000
0000
0000
1000
0000
0010
0000
0100
0000
,
0001
0000
0000
1000
0000
0000
0100
0000
1000
0000
0000
0001
0000
0000
0100
0000
,
0010
0000
0000
1000
0000
0000
0001
0000
0100
0000
0010
0000
1000
0000
0001
0000
,
0110
0000
0000
0000
;

//---------------dance-double - ----------------
#NOTES:
     dance-double:
     :
     Easy:
     4:
     0.182,0.257,0.131,0.000,0.000:
00000000
00000000
00000000
00000000
,
00100000
00000000
00000000
00000000
,
10000000
00000000
00000000
00000000
,
01000000
00000000
00000000
00000000
,
00010000
00010000
00001000
00000000
,
00000010
00000000
00000000
00000000
,
00000001
00000000
00000000
00000000
,
00000100
00000000
00001000
00000000
,
00010000
00000000
00001000
00000000
,
00000010
00000000
00000000
00000000
,
00100000
00000000
00000000
00000000
,
00010000
00000000
00001000
00000000
,
00000010
00000000
00000100
00000000
,
00001001
00000000
00000000
00000000
,
00010000
00000000
00000000
00000000
,
00010000
00000000
00000000
00000000
,
00001000
00001000
00100000
00000000
,
00010000
00000000
00010000
00000000
,
10000000
00000000
00000000
00000000
,
10000000
00000000
00000000
00000000
,
01000000
00000000
00010000
00000000
,
00001000
00000000
00010000
00000000
,
00001010
00000000
00001000
00000000
,
00000100
00000000
00010000
00000000
,
00001000
00000000
00100000
00000000
,
00010000
00000000
10000000
00000000
,
11000000
00000000
00010000
00000000
,
01000000
00000000
01000000
00000000
,
00001000
00000000
00010000
00000000
,
00010000
00000000
00010000
00000000
,
00000010
00000000
00001001
00000000
,
00001000
00000000
00000100
00000000
,
00010000
00000000
00000100
00000000
,
00001000
00000000
00000010
00000000
,
00010000
00010000
00001000
00000000
,
00100000
00000000
00010000
00000000
,
00100000
00000000
00001000
00000000
,
01000000
00000000
00100000
00000000
,
00100000
00000000
10000000
00010000
,
01000000
00000000
01000000
00000000
,
01000000
00000000
01000000
00001000
,
00010000
00000000
00010000
00000000
,
00000010
00000000
00000100
00000000
,
00000001
00000000
00000001
00000000
,
00001000
00000000
00000100
00000000
,
00010000
00000000
00001000
00000000
,
00100000
00000000
10010000
00000000
,
00010000
00000000
00000000
00000000
,
00010000
00000000
00000000
00000000
,
00010000
00000000
00000000
00000000
,
01000000
00001000
00010000
00000000
,
00000100
00000000
00000000
00000000
,
00000100
00000000
00000000
00000000
,
00000100
00000000
00000010
00000000
,
00000001
00000100
00000010
00000000
,
00001001
00000000
00000000
00000000
,
00011000
00000000
00000000
00000000
,
10010000
00000000
01100000
00000000
,
00110000
00000000
00011000
00000000
,
00000110
00000000
00000000
00000000
;

//---------------dance-double - ----------------
#NOTES:
     dance-double:
     :
     Medium:
     7:
     0.361,0.449,0.131,0.054,0.000:
00000000
00000000
00000000
00000000
,
00010000
00000000
00001000
00001000
,
00010000
00000000
00001000
00001000
,
00100000
10000000
00010000
01000000
,
00100000
01000000
00001000
00010000
,
00000000
00001000
00000000
00001000
,
00000000
00010000
00000000
00010000
,
00000010
00001000
00000000
00000000
00000001
00000100
00000000
00000000
,
00000010
00001000
00000100
00000010
,
00000202
00000000
00000000
00000303
,
00002020
00000000
00000000
00003030
,
00010000
00001000
00100000
00010000
,
10000000
10000000
01000000
01000000
,
00110000
00000000
00000000
00000000
,
00000000
00001000
00000000
00001000
,
00000000
00010000
00000000
00010000
,
00000010
00001000
00000100
00000000
,
00010000
00010000
00001000
00001000
,
00000000
00100000
00000000
00100000
,
00000000
01000000
00000000
01000000
,
10000000
00100000
01000000
00010000
,
00100000
00100000
00001000
00001000
,
00010100
00000000
00001000
00001000
,
00000010
00010000
00001000
00100000
,
00010000
01000000
00100000
10000000
,
01000000
00010000
00001000
00010000
,
00000010
00000010
00000010
00000010
,
00001000
00000100
00001000
00000010
,
00000100
00001000
00001000
00001000
,
00020000
00000000
00000000
00030000
,
00110000
10010000
11000000
00000000
,
01100000
00000000
00001000
00000000
00010000
00010000
00010000
00000000
,
00001100
00000010
00000001
00000100
,
00000010
00001000
00000010
00000100
,
00000001
00000001
00000001
00000000
00000010
00000010
00000010
00000000
,
00001100
00010000
00001000
00100000
,
00010000
10000000
01000000
01000000
,
00100000
00100000
00010000
01000000
,
00001000
00000000
00010000
00010000
00001000
00010000
00001000
00000000
,
00010000
00000100
00001000
00000100
,
00010000
00000100
00001000
00000010
,
00000100
00000001
00000100
00000001
,
00000010
00000100
00010000
00001000
,
00100000
00010000
00100000
00001000
,
00100000
00010000
10000000
00100000
,
01000000
01000000
00001000
00001000
,
00010000
00000010
00001001
00000000
,
00000001
00000010
00000100
00001000
,
00000010
00010000
00000010
00001000
,
00000100
00010000
00001000
00000100
,
00000010
00010000
00000010
00001000
,
00000001
00000010
00000100
00001000
,
00000010
00010000
00000010
00001000
,
00000100
00000100
00010000
00010000
,
00001000
00000100
00000010
00010000
,
00001000
01000000
01000000
00000000
00100000
00000000
00010000
00000000
,
00001000
00000010
00000010
00000000
00000001
00000000
00001000
00000000
,
00000010
00010000
00010000
00000000
00001000
01000000
01000000
00000000
,
00001000
00010000
00010000
00001000
00010000
00001000
01000000
00000000
,
10010000
00000000
00000000
00000000
;

//---------------dance-double - ----------------
#NOTES:
     dance-double:
     :
     Hard:
     13:
     0.549,0.642,0.033,0.000,0.365:
00000000
00000000
00000000
00000000
,
00000000
00000000
10000000
00000000
01000000
00000000
00000000
00000000
00100000
00000000
00010000
00100000
00000000
00000000
00001000
00000000
,
00000000
00000000
01000000
00000000
00010000
00000000
00000000
00000000
10000000
00000000
01000000
10000000
00000000
00000000
00100000
00000000
,
00000000
00000000
01000000
00000000
00010000
00000000
00000000
00000000
00100000
00000000
01000000
00100000
00000000
00000000
00010000
00000000
,
01000000
00000000
00000000
00001000
00010000
00000000
00000010
00000000
00001000
00000000
00000000
00000100
00000010
00000000
00000001
00000000
,
00000000
00000000
00001000
00000000
00000010
00000000
00000000
00000000
00000100
00000000
00000001
00000010
00000000
00000000
00000100
00000000
,
00000000
00000000
00001000
00000000
00000001
00000000
00000000
00000000
00000100
00000000
00000010
00001000
00000000
00000000
00000100
00000000
,
00010000
00000000
00000000
00001000
00000000
00000000
00100000
00000000
00010000
00100000
00000000
00001000
00000000
00000000
01000000
00000000
,
00010000
00000000
00100000
00000000
01000000
00000000
10000000
00000000
00010000
00000000
01000000
00000000
00100000
10000000
00100000
10000000
,
00100000
10000000
00000000
01000000
00000000
00000000
00100000
00010000
00100000
00000000
01000000
00000000
00010000
00000000
00001000
00000000
,
00000100
00000001
00000000
00000100
00000000
00000000
00000010
00001000
00000010
00000000
00010000
00000000
00001000
00000000
00010000
00000000
,
00000100
00001000
00000000
00000100
00000000
00000000
00010000
00001000
00010000
00001000
00000000
00100000
00000000
00000000
00010000
00000000
,
01000000
00010000
00000000
00100000
00000000
00000000
01000000
10000000
01000000
00000000
00100000
00000000
00001000
00000000
00010000
00000000
,
00000100
00000000
00000000
10000000
,
00010000
01000000
00001000
00100000
,
00010000
01000000
00001000
00100000
,
00010000
00010000
00010000
10000000
,
00000000
00100000
00000000
01000000
00100000
00000000
10000000
01000000
00000000
00100000
00010000
00000000
01000000
00000000
00001000
00000000
,
00010000
00000100
00001000
00000010
,
00010000
00001000
01000000
00010000
,
00100000
01000000
00010000
00001000
,
00000010
00000001
00000100
00000010
00001000
00000100
00000010
00000001
,
00000100
00000000
00000010
00000000
00001000
00000000
00000100
00000100
,
00000100
00000000
00010000
00000000
00001000
00000000
00100000
00100000
,
00100000
00000000
01000000
00000000
10000000
00000000
00010000
00010000
,
00010000
00000000
01000000
00000000
00001000
00010000
00001000
00000010
,
00001000
00000000
00010000
00000000
00100000
00000000
10000000
10000000
,
10000000
00000000
01000000
00000000
00010000
00000000
00001000
00001000
,
00100000
00000000
00000000
01000000
00000000
00000000
10000000
00000000
00100000
00000000
00000000
00010000
00000000
00000000
00001000
00000000
,
00000010
00000000
00000000
00000001
00000000
00000000
00000100
00000000
00001000
00000000
00000000
00010000
00001000
00010000
00001000
00010000
,
00001000
00000000
00000000
00100000
00000000
00000000
01000000
00000000
01000000
00000000
00000000
00000000
10000000
00000000
00100000
00000000
,
01000000
00001000
00010000
00000010
,
00001000
00000100
00010000
00001000
,
00100000
00010000
01000000
00001000
,
00010000
00000000
00000100
00000100
00000100
00000000
00000010
00000001
,
00000100
00001000
00010000
01000000
,
10000000
00010000
01000000
00001000
,
00010000
00010000
00010000
00010000
,
00000100
00000000
00000000
00000010
00000000
00000000
00000001
00000000
00000100
00000000
00000010
00000000
00001000
00000000
00000100
00000000
,
00000001
00000100
00001000
00000100
,
00010000
00000000
00001000
00000000
00100000
00000000
00001000
00010000
,
00001000
00000010
00000001
00000100
,
00000010
00001000
00000100
00010000
00000000
00010000
00000100
00000010
,
00000001
00000100
00001000
00010000
,
01000000
00000000
00000000
00000000
10000000
00000000
00000000
00000000
00010000
00000000
00000000
01000000
00000000
00000000
00001000
00000000
,
00000010
00000000
00000000
00000001
00000000
00000000
00000100
00000000
00000010
00000000
00000000
00001000
00000000
00000000
00000100
00000000
,
00011000
00000000
00000000
00110000
00000000
00000000
11000000
00000000
00000000
00000000
00000000
00000000
00000000
00000000
00000000
00000000
,
00100000
00000000
00000000
00000000
00010000
00000000
00000000
00000000
01000000
00000000
00000000
00001000
00010000
00000000
00000000
00000000
,
00000010
00000000
00000000
00000000
00001000
00000000
00000000
00000000
00000100
00000000
00000000
00010000
00001000
00000000
00000000
00000000
,
00100000
00000000
00000000
00000000
00010000
00000000
00000000
00000000
01000000
00000000
00000000
00001000
00010000
00000000
00000000
00000000
,
00000010
00000000
00000000
00001000
00000100
00000000
00000010
00000000
00000001
00000000
00000000
00000100
00000010
00000000
00001000
00000000
,
00000100
00000000
00000000
00000000
00000010
00000000
00000000
00000000
00000001
00000000
00000000
00000100
00000010
00000000
00000000
00000000
,
00001000
00000000
00000000
00000000
00000100
00000000
00000000
00000000
00000010
00000000
00000000
00000001
00000100
00000000
00001000
00000000
,
00010000
00000000
00001000
00010000
00000000
00000000
01000000
00000000
10000000
01000000
00000000
10000000
00000000
00000000
00100000
00000000
,
01000000
00000000
00010000
00000000
00100000
00000000
01000000
00000000
00010000
00000000
00001000
00000000
00000100
00000001
00000100
00000001
,
00000100
00000001
00000000
00001000
00000000
00000000
00000100
00000000
00000010
00000000
00000001
00000000
00000100
00000000
00000010
00000000
,
00010000
00001000
00000000
00010000
00000000
00000000
00000100
00000010
00000100
00000000
00001000
00000000
00000010
00000000
00000100
00000000
,
00001000
00010000
00000000
00000100
00000000
00000000
00000010
00000001
00000010
00000000
00000000
00000100
00000000
00000000
00010000
00001000
,
00010000
00001000
00000000
00100000
00010000
00000000
10000000
00100000
10000000
00000000
01000000
00000000
00010000
00000000
00001000
00000000
,
00000100
00000000
00000000
00000000
;

//---------------dance-single - ----------------
#NOTES:
     dance-single:
     :
     Beginner:
     3:
     0.174,0.257,0.141,0.000,0.000:
0000
0000
0000
0000
,
1000
0000
0000
0000
,
1000
0000
0000
0000
,
1000
0000
0000
0000
,
0001
0001
0000
0000
,
1000
0000
0000
0000
,
1000
0000
0000
0000
,
1000
0000
1000
0000
,
0001
0001
0000
0100
,
0000
0000
0000
0000
,
1001
0000
0000
0000
,
0110
0000
0110
0000
,
1001
0000
0110
0000
,
1001
0000
0000
0000
,
1000
0000
0000
0000
,
1000
0000
0000
0000
,
1000
0000
0100
0000
,
0010
0000
0010
0000
,
0001
0000
0000
0000
,
0001
0000
0000
0000
,
0001
0000
0100
0000
,
0010
0000
1000
1000
,
0000
0000
1000
0000
,
1000
0000
0100
0100
,
0000
0000
0001
0000
,
0100
0000
0010
0010
,
0010
0000
0100
0100
,
0000
0000
1000
0000
,
0100
0000
0000
0000
,
0010
0000
0010
0000
,
0001
0000
1000
0000
,
0010
0000
0010
0000
,
1000
0000
0001
0000
,
0010
0000
0010
0000
,
0001
0001
0000
1000
,
0000
0000
0010
0000
,
1000
0000
0100
0000
,
0010
0000
0001
0000
,
1000
1000
0000
1000
,
0000
0000
0010
0000
,
0010
0000
0010
0000
,
0100
0000
0100
0000
,
0100
0000
0100
0000
,
0010
0000
0010
0000
,
0010
0000
1000
0000
,
0010
0000
0010
0000
,
0001
0000
0001
0000
,
1000
0000
0000
0000
,
1000
0000
0000
0000
,
1000
0000
1000
0000
,
0100
0100
0000
0100
,
0000
0000
0000
0000
,
1000
0000
0000
0000
,
0001
0000
0100
0000
,
0001
0000
0001
0000
,
0110
0000
0000
0000
,
1001
0000
0000
0000
,
0110
0000
0110
0000
,
1001
0000
0110
0000
,
1001
0000
0000
0000
;

//---------------dance-single - ----------------
#NOTES:
     dance-single:
     :
     Challenge:
     15:
     0.816,0.816,0.566,0.272,0.680: // measure 1
0000
0000
0000
0000
,  // measure 2
0001
0000
0001
0000
0001
0000
0000
0000
1000
0000
0100
0010
0000
0100
1000
0000
,  // measure 3
0001
0000
0001
0000
0001
0000
0000
0000
0010
0000
0100
1000
0000
0100
0010
0000
,  // measure 4
1000
0000
1000
0000
1000
0000
0000
0000
0001
0000
0010
0100
0000
0010
0001
0000
,  // measure 5
0010
0000
0000
0010
0000
0000
0010
0000
0100
0000
0000
0100
0000
0000
0100
0000
,  // measure 6
0001
0000
0001
0000
0001
0000
0000
0000
0010
0000
1000
0100
0000
1000
0010
0000
,  // measure 7
0100
0000
0100
0000
0100
0000
0000
0000
0010
0000
1000
0100
0000
0010
0001
0000
,  // measure 8
1000
0000
0010
0100
0000
0001
0010
0000
1000
0100
0000
0010
0001
0000
0100
0000
,  // measure 9
1000
0000
0010
0000
0100
0000
0001
0000
1000
0000
0001
0000
1000
0001
1000
0001
,  // measure 10
1000
0000
1000
0100
0000
0100
0010
0000
1000
0100
0010
0001
1000
0000
0100
0000
,  // measure 11
0010
0000
0010
0001
0000
0001
1000
0000
0100
1000
0010
1000
0100
0000
0001
0000
,  // measure 12
1000
0000
1000
0100
0000
1000
0100
0000
0010
0001
0000
0010
0001
0000
1000
0000
,  // measure 13
0001
0010
0000
0100
0000
0000
0010
0100
0001
0000
0010
0000
0100
0000
1000
0020
,  // measure 14
0200
0000
0000
0330
,  // measure 15
0100
0000
1000
0000
0001
0000
0100
0000
0010
0000
0000
1000
0000
0000
0100
0000
,  // measure 16
1010
0000
0001
0000
0100
0000
1000
0000
0010
0000
0000
0010
0000
0000
1000
0000
,  // measure 17
0010
0100
0000
0100
0010
0000
0100
0000
0010
0000
0000
0000
0100
0000
0000
0000
,  // measure 18
1000
0100
0000
1000
0100
0000
0110
0000
0010
0001
0000
0010
0001
0000
0000
0000
,  // measure 19
1000
0000
0100
0000
0001
0000
0010
0000
1000
0000
0000
0100
0000
0000
0010
0000
,  // measure 20
0001
0000
1000
0000
0100
0000
0000
0000
1000
0000
0000
0010
0000
0000
1100
0000
,  // measure 21
0101
0000
0000
0011
0000
0000
1010
0000
1001
0000
0000
0000
0010
0001
0000
0000
,  // measure 22
1000
0000
0100
0000
0010
0000
0001
0000
0100
1000
0100
1000
0010
0001
0010
0001
,  // measure 23
2002
0000
0000
0000
3003
0000
0010
0100
1000
0000
0000
0001
1000
0000
0100
0000
,  // measure 24
0220
0000
0000
0000
0330
0000
0100
1000
0001
0000
0100
0000
0001
0000
1000
0000
,  // measure 25
0011
0000
0000
1010
0000
0000
0110
0000
1100
0000
0000
0101
0000
0000
0110
0000
,  // measure 26
1001
0000
0000
0000
1000
0000
0001
1000
0100
0000
0001
0000
0010
0100
0010
0000
,  // measure 27
1001
0000
0000
0000
1000
0000
0001
0000
0010
0000
0000
0100
0010
0000
1000
0000
,  // measure 28
1001
0000
0000
1100
0000
0000
0110
0000
0011
0000
0000
0000
1000
0000
0001
0000
,  // measure 29
1000
0001
0000
1000
0001
0000
1001
0000
0001
1000
0000
0001
1000
0000
1001
0000
,  // measure 30
0100
0010
0000
0100
0010
0000
0110
0000
0010
0100
0000
0010
0100
0000
0110
0000
,  // measure 31
0001
0000
0000
2000
0000
0000
0001
0000
3100
0000
0000
0000
0010
0000
0010
0000
,  // measure 32
0010
0000
0000
0101
0000
0000
0010
0000
1000
0000
0010
0000
0100
0000
0001
0000
,  // measure 33
0010
0000
0000
0101
0000
0000
0010
0000
1000
0000
0100
0000
0001
0000
0010
0000
,  // measure 34
0100
0000
0000
0010
0000
0000
1000
0000
0001
0000
0100
0000
0010
0000
1000
0000
,  // measure 35
0101
0000
0000
0001
0100
0000
0000
0000
1010
0000
0000
1000
0010
0000
0000
0000
,  // measure 36
0101
0000
0000
0100
0010
0000
1000
0000
0100
0000
0010
0000
0001
0100
0010
0000
,  // measure 37
1001
0000
0000
0001
1000
0000
0100
0000
0010
0000
1000
0000
0100
0010
0001
0000
,  // measure 38
0220
0000
0000
0000
0330
0000
1000
0000
0010
0000
0000
0101
0000
0000
0010
0000
,  // measure 39
0100
0000
0000
1010
0000
0000
0100
0000
0001
1000
0100
0010
0001
1000
0010
0100
,  // measure 40
0001
0000
0100
1000
0000
0000
0100
0000
0001
0000
0100
0010
0000
0000
0100
0000
,  // measure 41
1001
0000
0000
1100
0000
0000
0011
0000
2002
0000
3003
0000
0100
0000
0000
0000
,  // measure 42
1000
0000
0010
0100
0000
0000
1000
0000
0010
0000
0001
0100
0000
0000
1000
0000
,  // measure 43
0010
0100
0010
2002
0000
3003
0110
0000
,  // measure 44
0020
0000
0000
0100
0030
0000
1000
0000
2000
0000
0000
0100
3000
0000
0001
0000
,  // measure 45
0002
0000
0000
0010
0003
0000
1000
0000
2000
0000
0000
0010
3000
0000
0001
0000
,  // measure 46
1000
0000
0000
0110
0000
0000
0100
0000
0001
0000
0000
0110
0000
0000
0100
0000
,  // measure 47
0011
0000
0000
0110
0000
0000
2200
0000
0000
0000
0000
0000
0000
0000
3300
0000
,  // measure 48
0001
0000
1000
0000
0100
0000
0001
0000
1000
0000
0001
1000
0000
1000
0100
0000
,  // measure 49
0010
0000
0100
0000
1000
0000
0001
0000
0010
0000
0100
0001
0000
0001
0010
0000
,  // measure 50
1000
0000
0010
0000
0001
0000
1000
0000
0100
0000
0001
1000
0000
0010
0100
0000
,  // measure 51
0001
0000
1000
0010
0000
0100
0010
0000
1000
0000
0001
0100
0000
0001
0010
0000
,  // measure 52
1000
0000
0100
0000
0010
1000
0100
0000
1000
0000
0100
0001
0000
0100
0001
0000
,  // measure 53
1000
0000
0001
0000
0100
0010
0001
0000
1000
0000
0010
0100
0000
0010
0001
0000
,  // measure 54
1000
0000
0010
0100
0000
0001
0100
0000
0010
1000
0000
0010
1000
0000
0100
0000
,  // measure 55
0011
0000
0011
0000
1100
0000
2200
0000
0000
0000
3300
0000
0001
0100
0001
0100
,  // measure 56
0001
0000
0000
0210
0000
0000
1000
0000
1000
0000
1300
0000
0000
0000
0000
0000
,  // measure 57
1000
0000
0000
0210
0000
0000
0001
0000
0001
0000
0301
0000
0000
0000
0000
0000
,  // measure 58
0001
0000
0000
0010
0000
0000
1000
0000
0001
0000
0000
0100
0000
0000
1000
0000
,  // measure 59
0010
0000
0000
1000
0000
0000
0001
0000
1000
0001
1000
0001
1000
0001
1000
0000
,  // measure 60
2002
0000
0000
0000
,  // measure 61
3003
0000
0000
0000
;

//---------------dance-double - ----------------
#NOTES:
     dance-double:
     :
     Challenge:
     15:
     0.732,0.816,0.294,0.218,0.664:
00000000
00000000
00000000
00000000
,
00000000
00000000
00000001
00000000
00000100
00000000
00000000
00000000
00000010
00000000
00010000
00000100
00000000
00010000
00001000
00000000
,
00000000
00000000
00010000
00000000
00100000
00000000
00000000
00000000
00001000
00000000
00100000
00000100
00000000
00001000
00010000
00000000
,
00000000
00000000
00000100
00000000
00010000
00000000
00000000
00000000
01000000
00000000
00010000
00100000
00000000
01000000
00100000
00000000
,
10000000
00000000
00000000
00100000
00000000
00000000
10000000
00000000
00100000
00000000
00000000
01000000
00000000
00000000
00100000
00000000
,
00010000
00000000
00001000
00000000
00010000
00000000
00000000
00000000
00001000
00000000
00010000
00000100
00000000
00100000
00010000
00000000
,
00000100
00000000
00010000
00000000
00001000
00000000
00000000
00000000
00001000
00000000
00010000
00001000
00000000
00000100
00000010
00000000
,
00000001
00000000
00000100
00000001
00000000
00001000
00000010
00000000
00000100
00000001
00000000
00001000
00000010
00000000
00000100
00000000
,
00010000
00000000
00001000
00000000
00100000
00000000
00010000
00000000
01000000
00000000
00001000
00000000
00010000
00001000
00100000
00001000
,
00010000
00000000
00100000
01000000
00000000
00010000
00100000
00000000
10000000
01000000
10000000
01000000
10000000
00000000
00010000
00000000
,
00100000
00000000
00010000
00001000
00000000
00001000
00000100
00000000
00001000
00100000
00001000
00100000
00001000
00000000
00000001
00000000
,
00000010
00000000
00000100
00001000
00000000
00001000
00000100
00000000
00000001
00000100
00000000
00000010
00000100
00000000
00010000
00000000
,
00001000
00100000
00000000
01010000
00000000
00000000
00100000
00010000
01000000
00000000
10000000
00000000
00100000
00000000
01000000
00002000
,
00020000
00000000
00000000
00033000
,
00000000
00000000
00000001
00000000
00001000
00000000
00000000
00000000
00000010
00000000
00000000
00001000
00000000
00000000
00000100
00000000
,
00000000
00000000
00010000
00000000
00001000
00000000
00000000
00000000
00100000
00000000
00000000
00000100
00000000
00000000
00100000
00000000
,
00010000
00000000
00000000
00100000
00000000
00000000
01000000
00000000
20020000
00000000
00000000
00000000
30030000
00000000
00000000
00000000
,
10000000
01000000
00000000
10000000
01000000
00000000
00010000
00000000
00000100
00010000
00000000
00001000
00010000
00000000
00000001
00000000
,
00000100
00000000
00001000
00000000
00010000
00000000
00000000
00000000
00001000
00000000
00000000
00000010
00000000
00000000
00001000
00000000
,
00000000
00000000
00000001
00000000
00001000
00000000
00000000
00000000
00001000
00000000
00000000
00000100
00000000
00000000
00001000
00000000
,
00000001
00000000
00000000
00001000
00000000
00000000
00000010
00000000
00000100
00000000
00000000
00000000
00100100
00000000
00000000
00000000
,
00010000
00000000
01000000
00000000
00100000
00000000
10000000
00000000
00100000
00010000
00100000
00010000
00001000
00010000
00001000
00010000
,
00002000
00000000
00000000
00000000
00003000
00000000
00000001
00000000
00001000
00000000
00000000
00000100
00000000
00000000
00001000
00000000
,
00000010
00000000
00000000
00000000
00000000
00000000
00000100
00001000
00000001
00000000
00000010
00000000
00000100
00000000
00000010
00000000
,
00000001
00000000
00000000
00001000
00000000
00000000
00000100
00000000
00000010
00000000
00000000
00001000
00000000
00000000
00000010
00000000
,
00000100
00000000
00000000
00000000
00000001
00000000
00000100
00001000
00000010
00000000
00001000
00000000
00010000
00000000
00011000
00000000
,
00010100
00000000
00000000
00000000
00000000
00000000
00010000
00000000
00100000
00000000
00000000
00001000
00000000
00000000
00000100
00000000
,
00001000
00000000
00000000
00010000
00000000
00000000
00100000
00000000
00010000
00000000
00000000
00000000
10000000
00000000
00010000
00000000
,
10000000
00010000
00000000
10000000
00010000
00000000
10010000
00000000
00010000
10000000
00000000
00010000
10000000
00000000
10010000
00000000
,
00001000
00000001
00000000
00001000
00000001
00000000
00001001
00000000
00000001
00001000
00000000
00000001
00001000
00000000
00001001
00000000
,
00001000
00000000
00000000
00110000
00000000
00000000
00010100
00000000
00100100
00000000
00000000
00000000
00001000
00000000
00010000
00000000
,
00100000
00000000
00000000
10000000
00000000
00000000
01000000
00000000
10000000
00000000
00010000
00000000
01000000
00000000
00100000
00000000
,
10000000
00000000
00000000
00010000
00000000
00000000
00100000
00000000
00001000
00000000
00010000
00000000
00000100
00000000
00001000
00000000
,
00000010
00000000
00000000
00001000
00000000
00000000
00000100
00000000
00000001
00000000
00001000
00000000
00000001
00000000
00001001
00000000
,
00000000
00000000
00000000
00000000
00000000
00000000
00010000
10000000
,
00010000
00000000
00000000
01000000
00000000
00000000
00010000
00000000
00100000
00000000
10000000
00000000
00010000
01000000
00100000
00000000
,
00001000
00000000
00000000
00000100
00000000
00000000
00001000
00000000
00000001
00000000
00001000
00000000
00000010
00000100
00000001
00000000
,
00002002
00000000
00000000
00000000
00003003
00000000
00010000
00000000
00100000
00000000
00000000
10010000
00000000
00000000
01100000
00000000
,
00110000
00000000
00000000
01010000
00000000
00000000
10100000
00000000
00010000
00001000
00100000
00001000
00010000
00001000
00100000
00001000
,
00010000
00000000
00000000
00010100
00000000
00000000
00001000
00000000
00000100
00000000
00000000
00001001
00000000
00000000
00000010
00000000
,
00000100
00000000
00000000
00011000
00000000
00000000
00100000
00000000
00010000
00000000
00000000
00000000
01001000
00000000
00000000
00000000
,
10000000
00000000
00000000
01000000
00000000
00000000
00100000
00000000
00010000
00000000
00000000
10000000
00000000
00000000
00100000
00000000
,
00010000
01000000
00010000
00002000
00000000
00000000
00013000
00000000
,
00000002
00000000
00000000
00000100
00000003
00000000
00000010
00000000
00000200
00000000
00000000
00001000
00000300
00000000
00000010
00000000
,
00000002
00000000
00000000
00000100
00000003
00000000
00000010
00000000
00002000
00000000
00000000
00100000
00003000
00000000
10000000
00000000
,
00020000
00000000
00000000
01000000
00030000
00000000
00100000
00000000
20000000
00000000
00000000
00100000
30000000
00000000
01000000
00000000
,
00020000
00000000
00000000
00200000
00000000
00000000
00330000
00000000
,
00010000
00000000
10000000
00000000
01000000
00000000
10000000
00000000
00100000
00000000
00010000
01000000
00000000
01000000
00010000
00000000
,
00001000
00000000
00100000
00000000
00001000
00000000
00010000
00000000
00001000
00000000
00100000
00010000
00000000
00001000
00000100
00000000
,
00010000
00000000
00001000
00000000
00000100
00000000
00000001
00000000
00000100
00000000
00001000
00000100
00000000
00000001
00000100
00000000
,
00000010
00000000
00001000
00000100
00000000
00000001
00001000
00000000
00000100
00000000
00010000
00100000
00000000
00001000
00100000
00000000
,
10000000
00000000
01000000
00100000
00010000
00000000
00100000
00000000
00010000
00000000
01000000
00010000
00000000
01000000
00010000
00000000
,
00001000
00000000
00000100
00001000
00000001
00000000
00000100
00000000
00000010
00000000
00001000
00000100
00000000
00000010
00001000
00000000
,
00010000
00000000
00100000
01000000
00000000
00010000
10000000
00000000
01000000
00100000
00000000
10000000
00010000
00000000
00100000
00000000
,
00101000
00000000
00101000
00000000
00011000
00000000
00022000
00000000
00000000
00000000
00033000
00000000
00000100
00010000
00000100
00010000
,
00001000
00000000
00000000
00000010
00000000
00000000
00000001
00000000
00000010
00000000
00000100
00000000
00000000
00000000
00000000
00000000
,
00010000
00000000
00000000
00100000
00000000
00000000
01000000
00000000
00100000
00000000
10000000
00000000
00000000
00000000
00000000
00000000
,
00010000
00000000
00000000
00100000
00000000
00000000
00001000
00000000
00010000
00001000
00000000
00000100
00000000
00000000
00000010
00000000
,
00000100
00000001
00000000
00000001
00000000
00000000
00000100
00001000
00010000
00100000
00010000
00100000
01000000
10000000
01000000
20000000
,
00020000
00000000
00000000
00000000
,
30030000
00000000
00000000
00000000
;
