#TITLE:NEPHILIM DELTA;
#SUBTITLE:;
#ARTIST:L.E.D.-G;
#TITLETRANSLIT:;
#SUBTITLETRANSLIT:;
#ARTISTTRANSLIT:;
#GENRE:;
#CREDIT:;
#BANNER:NEPHILIM DELTA.png;
#BACKGROUND:NEPHILIM DELTA-bg.png;
#LYRICSPATH:;
#CDTITLE:./CDTitles/DanceDanceRevolution X3 vs 2ndMIX.png;
#MUSIC:NEPHILIM DELTA.mp3;
#OFFSET:0.720;
#SAMPLESTART:29.800;
#SAMPLELENGTH:15.000;
#SELECTABLE:YES;
#DISPLAYBPM:220.000;
#BPMS:0.000=220.032
;
#STOPS:
;
#BGCHANGES:;
#KEYSOUNDS:;
#ATTACKS:;

//---------------dance-single - ----------------
#NOTES:
     dance-single:
     :
     Beginner:
     4:
     0.235,0.266,0.065,0.019,0.000,167.000,7.000,2.000,0.000,0.000,0.000,0.235,0.266,0.065,0.019,0.000,167.000,7.000,2.000,0.000,0.000,0.000:
0000
0000
0000
0000
,
0000
0000
0000
0000
,
0001
0000
0000
0000
,
1000
0000
0000
0000
,
0001
0000
0000
0000
,
1000
0000
0001
0000
,
1001
0000
0000
0000
,
1001
0000
0000
0000
,
1000
0000
0001
0000
,
1000
0000
0001
0000
,
0000
0000
0000
0000
,
0000
0000
0000
0000
,
0100
0000
1000
0000
,
0001
0000
1000
0000
,
0100
0000
0001
0000
,
0001
0000
0100
0000
,
0010
0000
1000
0000
,
1000
0000
0001
0000
,
0100
0000
0001
0000
,
1000
0000
0000
0000
,
0100
0000
0001
0000
,
0010
0000
1000
0000
,
0001
0000
0100
0000
,
0100
0000
1000
0000
,
0100
0000
0010
0000
,
0001
0000
1000
0000
,
0010
0000
0010
0000
,
1000
0000
0000
0000
,
0001
0001
0001
0000
,
0010
0010
0010
0000
,
1000
1000
1000
0000
,
0001
0001
0001
0000
,
0010
0010
0010
0000
,
0100
0100
0100
0000
,
1000
1000
1000
0000
,
0001
0001
0001
0000
,
0100
0100
0100
0000
,
0010
0010
0010
0000
,
1000
1000
1000
0000
,
0010
0010
0010
0000
,
0001
0001
0001
0000
,
0100
0100
0100
0000
,
1000
1000
1000
0000
,
1001
0000
0000
0000
,
0000
0000
0000
0100
,
0000
0000
0000
1000
,
0000
0000
0000
0001
,
0000
0000
0000
0010
,
0010
0000
0000
0000
,
1000
0000
0000
0000
,
0001
0000
1000
0000
,
0001
0001
0001
0001
,
0000
1000
0000
1000
,
0000
0010
0000
0010
,
0000
0001
0000
0001
,
0000
0010
0000
0100
,
0000
0001
0000
0001
,
0000
0010
0000
0010
,
0000
1000
0000
1000
,
0000
0010
0000
0100
,
0100
0000
0000
0000
,
0010
0000
0000
0000
,
0100
0000
0000
0000
,
0010
0010
0010
0000
,
0100
0000
1000
0000
,
0010
0000
0001
0000
,
0100
0000
1000
0000
,
0010
0000
0001
0000
,
1000
0000
0000
0000
,
0000
0000
0000
0000
,
0000
0000
0000
0000
,
0000
0000
0000
0000
,
1001
0000
0000
0000
,
1001
0000
0000
0000
,
0001
0000
1000
0000
,
1001
0000
0000
0000
,
0010
0000
1000
0000
,
0010
0000
0100
0000
,
0010
0000
0001
0000
,
0100
0000
0001
0000
,
1000
0000
0100
0000
,
0010
0000
0010
0000
,
0001
0000
0100
0000
,
0100
0000
0000
0000
,
0010
0000
0100
0000
,
0100
0000
1000
0000
,
0100
0000
0001
0000
,
0100
0000
0001
0000
,
1000
0000
0100
0000
,
0010
0000
1000
0000
,
0100
0000
0010
0000
,
0001
0000
0010
0000
,
2002
0000
0000
0000
,
0000
0000
0000
0000
,
0000
0000
0000
3003
;

//---------------dance-single - ----------------
#NOTES:
     dance-single:
     :
     Easy:
     8:
     0.420,0.443,0.131,0.112,0.000,289.000,14.000,12.000,0.000,0.000,0.000,0.420,0.443,0.131,0.112,0.000,289.000,14.000,12.000,0.000,0.000,0.000:
0000
0000
0000
0000
,
0000
0000
0000
0000
,
1010
0000
0000
0000
,
0101
0000
0000
0000
,
1001
0000
0000
0000
,
1000
1000
0001
0001
,
0110
0000
0000
0000
,
1001
0000
0000
0000
,
0110
0000
1001
0000
,
1000
0100
0001
0100
,
0000
0000
0000
0000
,
0000
0000
0000
0000
,
0100
1000
0001
0010
,
1000
1000
0001
0001
,
0100
0010
1000
0010
,
1000
1000
0100
0100
,
0010
0001
0010
0100
,
0001
0001
1000
1000
,
0100
0001
1000
0100
,
0001
0000
1000
0000
,
0100
0010
1000
0100
,
0010
0010
0001
0001
,
1000
0010
0100
0010
,
0100
0100
0001
0001
,
0100
1000
0010
0001
,
1000
1000
0001
0001
,
0010
0100
0010
1000
,
0002
0000
0000
0003
,
1000
0100
0010
0000
,
0100
1000
0001
0010
,
0001
1000
0100
0000
,
1000
0100
0001
0100
,
0010
0001
0100
0000
,
0100
1000
0100
0001
,
1000
0010
0001
0000
,
0100
1000
0001
0010
,
0100
0010
0001
0000
,
0100
1000
0010
0100
,
0001
1000
0100
0000
,
0010
0001
0100
0001
,
1000
0001
0010
0000
,
0100
0001
0100
1000
,
0001
1000
0010
0000
,
0220
0000
0000
0330
,
1000
0100
0000
0100
,
0001
0100
0000
0100
,
1000
0100
0000
0100
,
0010
0001
1000
0010
,
0100
0010
0000
0010
,
1000
0010
0000
0010
,
0001
0010
0000
0010
,
0100
0010
1000
0001
,
0200
0001
0001
0301
,
0200
0010
0010
0310
,
0002
1000
1000
1003
,
0010
1000
0001
1000
,
0200
1000
1000
1300
,
0200
0010
0010
0310
,
2000
0001
0001
3001
,
0100
0010
1000
0001
,
1000
0001
0000
0001
,
0010
0001
0000
0001
,
0100
1000
0000
1000
,
0010
1000
0010
0001
,
0100
0100
0001
0001
,
0010
0010
1000
1000
,
0100
0010
0001
1000
,
0010
0100
0001
1000
,
0001
0000
0000
0000
,
0000
0000
0000
0000
,
0000
0000
0000
0000
,
0000
0000
0000
0000
,
1001
0000
0000
0000
,
0110
0000
0000
0000
,
1001
0000
0110
0000
,
1001
0000
0100
0100
,
0010
1000
0001
0100
,
0010
0000
1000
0000
0001
0100
0001
0000
,
0010
0100
1000
0001
,
0100
0000
0001
0000
1000
0100
1000
0000
,
0001
0010
0100
1000
,
0010
0000
1000
0000
0010
0100
0010
0000
,
1000
0001
0100
0010
,
0200
0000
0000
0300
,
0010
1000
0100
0010
,
0100
0000
1000
0000
0001
1000
0001
0000
,
0100
0010
1000
0010
,
0100
0000
0001
0000
1000
0100
1000
0000
,
0001
0010
0100
1000
,
0010
0000
1000
0000
0001
0100
0001
0000
,
0100
0001
0010
0001
,
1000
0100
0010
0000
,
2002
0000
0000
0000
,
0000
0000
0000
0000
,
0000
0000
0000
3003
;

//---------------dance-single - ----------------
#NOTES:
     dance-single:
     :
     Medium:
     12:
     0.635,0.620,0.065,0.028,0.000,466.000,7.000,3.000,0.000,0.000,0.000,0.635,0.620,0.065,0.028,0.000,466.000,7.000,3.000,0.000,0.000,0.000:
0000
0000
0000
0000
,
0000
0000
0000
0000
,
0101
0100
0100
0100
,
0010
0010
0010
0010
,
1000
1000
1000
1000
,
0001
0001
1000
1000
,
0110
0001
0100
0010
,
1001
0100
1000
0001
,
0110
0001
0110
1000
,
0001
0100
0010
0000
1000
0100
0010
0002
,
0000
0000
0000
0000
,
0000
0000
0000
0003
,
0010
0000
0001
0100
0000
0010
0100
0000
,
0001
0000
1000
0100
0000
0010
0001
0000
,
0010
0000
0100
0001
0000
0100
1000
0000
,
0001
1000
0001
0100
0000
0001
1000
0000
,
0010
0000
1000
0010
0000
0100
0010
0000
,
1000
0000
0001
0010
0000
0100
1000
0000
,
0010
0000
1000
0001
0000
0100
0010
0000
,
1000
0100
1000
0000
0001
0100
0001
0000
,
0010
0000
0100
0010
0000
0001
0010
0000
,
0100
1000
0100
0000
1000
0001
1000
0000
,
0001
0000
0100
0010
0000
0100
0001
0000
,
0010
0100
0010
0000
0001
1000
0001
0000
,
0010
0000
0001
0100
0000
0010
1000
0000
,
0001
0100
0001
0000
1000
0100
1000
0000
,
0010
0000
0100
0010
0000
1000
0001
1000
,
0200
0000
0000
0300
,
1000
0001
0100
0000
0100
0001
0000
0100
,
0010
0100
0010
0000
1000
0001
0100
0000
,
0001
1000
0010
0000
0010
1000
0000
0100
,
0010
0001
0010
0000
0001
0100
0001
0000
,
0010
0001
0100
0000
0100
0010
0000
0100
,
0010
1000
0001
0000
0010
0001
1000
0000
,
0001
1000
0100
0000
0100
0010
0000
0001
,
0010
0000
0001
1000
0000
0010
0100
0000
,
0001
1000
0100
0000
0100
1000
0000
0100
,
0010
0100
0010
0000
0001
1000
0100
0000
,
1000
0001
0010
0000
0010
0001
0000
0100
,
0010
1000
0010
0000
1000
0100
1000
0000
,
0010
1000
0100
0000
0100
0010
0000
0100
,
0010
0001
1000
0000
0010
1000
0001
0000
,
1000
0001
0100
0000
0100
0010
0000
1000
,
0010
0000
1000
0001
0000
0100
0100
0000
,
0001
0000
0100
0001
0000
0001
0000
0001
,
1000
0000
0100
0010
0000
0010
0000
0010
,
0100
0000
1000
0010
0000
0010
0000
0010
,
0100
0010
0100
0000
1000
0001
1000
0000
,
0100
0000
1000
0100
0000
0100
0000
0100
,
0010
0000
0001
0100
0000
0100
0000
0100
,
0010
1000
0100
0000
0010
0001
0100
0000
,
0010
0100
0001
1000
,
0010
1000
0001
0100
0001
0000
1000
0000
,
0100
0010
0001
0010
0100
0000
1000
0000
,
0010
1000
0001
0010
0001
0000
0100
0000
,
0001
1000
0001
0000
0100
0010
0100
0000
,
0010
1000
0001
1000
0100
0000
0010
0000
,
0100
0010
0001
0010
0100
0000
1000
0000
,
0001
1000
0100
1000
0001
0000
1000
0000
,
0010
0100
0001
1000
,
1000
0000
0001
0100
0000
0100
0000
0100
,
1000
0000
0100
0001
0000
0001
0000
0001
,
1000
0000
0001
0010
0000
0010
0000
0010
,
0001
0010
0100
0000
1000
0010
0100
0000
,
0010
1000
0010
0000
0100
0001
0100
0000
,
0001
0010
0001
0000
1000
0010
1000
0000
,
0001
0010
0100
1000
,
0001
0100
0001
0100
0010
1000
0010
1000
,
0001
0000
0000
0000
,
0000
0000
0000
0000
,
0000
0000
0000
0000
,
0000
0000
0000
0000
,
1001
0000
0100
0000
1000
0010
0100
0000
,
0101
0000
1000
0000
0100
1000
0001
0000
,
0010
0001
0100
0000
0010
1000
0100
0000
,
0010
0000
0100
0010
0000
0001
1000
0000
,
0010
0100
0001
0000
0001
1000
0010
0000
,
0100
1000
0001
0010
0100
0010
0001
0000
,
0100
0010
0100
0000
0001
1000
0100
0000
,
0010
0001
1000
0010
0100
0010
1000
0000
,
0001
1000
0100
0000
0010
0001
0100
0000
,
0001
1000
0100
0010
0100
1000
0001
0000
,
1000
0001
0100
0000
0010
0100
0001
0000
,
1000
0000
0010
0010
,
0100
0010
1000
0000
0010
1000
0010
0000
,
1000
0100
1000
0100
0010
0001
1000
0000
,
0001
1000
0100
0000
0010
0100
1000
0000
,
0001
1000
0001
1000
0010
1000
0100
0000
,
1000
0001
0100
0000
0010
0100
0001
0000
,
1000
0010
1000
0010
0100
0001
1000
0000
,
0010
1000
0100
0000
0010
0001
1000
0000
,
0001
0100
0001
0100
0010
1000
0100
0000
,
2000
0000
0000
0000
,
0000
0000
0000
0000
,
0000
0000
0000
3000
;

//---------------dance-single - ----------------
#NOTES:
     dance-single:
     :
     Hard:
     15:
     0.801,0.708,0.131,0.028,0.070,583.000,14.000,3.000,0.000,0.000,0.000,0.801,0.708,0.131,0.028,0.070,583.000,14.000,3.000,0.000,0.000,0.000:
0000
0000
0000
0000
,
0000
0000
0000
0000
,
1100
0100
0100
0100
,
0010
0010
0010
0010
,
0001
0001
0001
0001
,
1000
1000
0001
0001
,
0110
1000
0100
0010
,
1001
0100
0001
1000
,
0110
1000
0110
0001
,
1000
0100
0010
0001
0100
0010
2000
0002
,
0000
0000
0000
0000
,
0000
0000
0000
3003
,
0010
0100
0010
1000
0000
0001
0100
0010
,
1000
0100
0001
0100
0000
0010
0001
1000
,
0010
1000
0100
1000
0000
0001
0100
0010
,
1000
0001
1000
0100
0000
0010
0001
1000
,
0010
0001
0010
1000
0000
0001
0010
0100
,
1000
0100
1000
0001
0000
0010
0001
0100
,
0010
0100
0001
1000
0000
0100
0010
0100
,
1000
0000
0000
1000
0000
0000
1000
0000
0001
0000
0000
0001
0000
0000
0001
0000
,
0010
0001
0010
0100
0000
0010
0001
0100
,
0010
0000
0000
0010
0000
0000
0010
0000
1000
0000
0000
1000
0000
0000
1000
0000
,
0001
0100
1000
0100
0000
0010
0100
0010
,
1000
0000
0000
1000
0000
0000
1000
0000
0001
0000
0000
0001
0000
0000
0001
0000
,
0010
0100
1000
0100
0000
0010
0001
0100
,
0010
0000
0000
0010
0000
0000
0010
0000
0100
0000
0000
0100
0000
0000
0100
0000
,
0001
0010
0100
1000
0010
0100
0001
0010
,
0100
0000
0010
0100
0000
0010
0100
0010
,
0001
1000
0100
0001
0100
1000
0001
0100
,
0010
0100
0010
0100
0001
0010
1000
0010
,
0001
1000
0100
1000
0001
0100
0010
0100
,
0001
1000
0001
1000
0100
0010
0001
1000
,
0010
1000
0100
0010
0001
0100
0010
0100
,
1000
0100
1000
0100
0001
1000
0010
0100
,
0001
0010
0100
1000
0010
0100
0001
0100
,
0010
0000
1000
0010
0000
0100
0100
0010
,
1000
0001
0100
1000
0100
0001
1000
0100
,
0010
0100
0010
0100
1000
0010
0001
0010
,
1000
0001
0100
0001
1000
0100
0010
0100
,
1000
0001
1000
0001
0100
0010
1000
0001
,
0010
0001
0100
0010
1000
0100
0010
0100
,
0001
0100
0001
0100
1000
0001
0010
0100
,
1000
0010
0100
0001
0010
0100
1000
0100
,
0010
0001
0010
0001
1000
0100
1000
0100
,
1000
0001
0100
0001
0000
0010
0000
0110
,
1000
0001
0100
0010
0000
1000
0000
1010
,
0100
0001
1000
0100
0000
0010
0000
1001
,
0010
0100
0010
0100
0001
1000
0001
1000
,
0100
0010
0001
0100
0000
0010
0000
0110
,
1000
0001
0100
0010
0000
1000
0000
1010
,
0001
0010
0100
0010
0001
0010
0100
0010
,
0001
0000
1000
0000
0000
0100
0000
0000
1000
0000
0000
0010
0000
0000
0100
0000
,
0001
0100
1000
0100
0000
0100
0001
0100
,
0010
0100
1000
0100
0000
0001
1000
0010
,
0001
0010
0100
0010
0000
0010
0100
0010
,
1000
0001
1000
0001
0100
0010
1000
0100
,
0010
0000
0001
0000
1000
0000
0001
0000
0100
0000
0000
0010
0000
0000
0100
0000
,
0001
0000
1000
0000
0100
0000
0010
0000
0100
0000
0000
1000
0000
0000
0001
0000
,
0100
0000
1000
0000
0100
0000
0010
0000
1000
0000
0000
0001
0000
0000
0010
0000
,
0100
0000
1000
0000
0000
0001
0000
0000
0100
0000
0000
0010
0000
0000
1000
0000
,
0001
0100
1000
0100
0000
0100
0000
0100
,
0001
1000
0100
1000
0000
1000
0000
1000
,
0001
0010
1000
0010
0000
0010
0000
0010
,
0001
1000
0001
1000
0100
0010
0001
0100
,
0010
0100
0001
1000
1000
0001
0010
0100
,
0100
0010
0001
0100
0100
0010
1000
0001
,
1000
1000
0010
0010
0100
0100
0001
0001
,
1000
1000
1000
1000
0100
0100
0100
0100
,
0010
0000
0000
0000
,
0000
0000
0000
0000
,
0000
0000
0000
0000
,
0000
0000
0000
0000
,
1001
0000
0100
0010
0001
0010
0100
0000
,
1100
0000
1000
0001
0100
0001
1000
0000
,
0110
1000
0100
0000
0110
0001
0100
0000
,
0010
1000
0001
0010
0100
1000
0001
0000
,
0100
0010
0100
0010
1000
0010
0001
1000
,
0100
0001
1000
0010
0001
0010
1000
0000
,
0100
0010
0100
0010
0001
0010
1000
0001
,
0100
1000
0001
0010
1000
0010
0001
0000
,
1000
0001
0100
0001
1000
0100
0001
0100
,
1000
0001
0100
1000
0100
0001
1000
0000
,
0001
1000
0100
1000
0001
0100
0010
0100
,
0001
0000
0000
0000
0010
0010
0010
0000
,
1000
0010
0001
1000
0010
0001
0010
0100
,
0001
0100
0001
0100
0010
1000
0001
0100
,
1000
0100
0001
1000
0100
0001
0100
0010
,
0001
1000
0001
1000
0010
1000
0100
0000
,
0001
0100
1000
0001
0100
1000
0100
0001
,
1000
0010
1000
0010
0100
0001
1000
0010
,
0001
0010
1000
0001
0010
1000
0001
0100
,
1000
0100
1000
0100
0010
0001
0100
0010
,
0200
0000
0000
0000
,
0000
0000
0000
0000
,
0000
0000
0000
0300
;

//---------------dance-double - ----------------
#NOTES:
     dance-double:
     :
     Hard:
     15:
     0.762,0.708,0.065,0.028,0.070,561.000,7.000,3.000,0.000,0.000,0.000,0.762,0.708,0.065,0.028,0.070,561.000,7.000,3.000,0.000,0.000,0.000:
00000000
00000000
00000000
00000000
,
00000000
00000000
00000000
00000000
,
00000101
00000100
00000100
00000100
,
00000010
00000010
00000010
00000010
,
00001000
00001000
00001000
00001000
,
00010000
00010000
00001000
00001000
,
01100000
10000000
01000000
00100000
,
10010000
01000000
00010000
00001000
,
00000110
00000001
00000110
00001000
,
00000001
00000100
00000010
00010000
00001000
00100000
00020000
20000000
,
00000000
00000000
00000000
00000000
,
00000000
00000000
00000000
30030000
,
00100000
01000000
00100000
00010000
00000000
10000000
01000000
00100000
,
00001000
00010000
00000010
00000100
00000000
00000010
00001000
00000001
,
00000010
00000001
00000100
00000001
00000000
00001000
00000100
00010000
,
00001000
00100000
00010000
01000000
00000000
00100000
10000000
00010000
,
00100000
01000000
00100000
00010000
00000000
10000000
00100000
01000000
,
00001000
00010000
00000100
00001000
00000000
00000001
00001000
00000100
,
00000010
00000100
00001000
00000001
00000000
00000010
00000100
00000010
,
00000001
00000000
00000000
00000001
00000000
00000000
00000001
00000000
00001000
00000000
00000000
00001000
00000000
00000000
00001000
00000000
,
00000010
00010000
00001000
00100000
00000000
01000000
10000000
00100000
,
01000000
00000000
00000000
01000000
00000000
00000000
01000000
00000000
00010000
00000000
00000000
00010000
00000000
00000000
00010000
00000000
,
10000000
01000000
00100000
00010000
00000000
01000000
00001000
00010000
,
00000010
00000000
00000000
00000010
00000000
00000000
00000010
00000000
00001000
00000000
00000000
00001000
00000000
00000000
00001000
00000000
,
00000010
00000100
00000001
00000100
00000000
00000010
00001000
00000100
,
00000010
00000000
00000000
00000010
00000000
00000000
00000010
00000000
00000100
00000000
00000000
00000100
00000000
00000000
00000100
00000000
,
00010000
00001000
01000000
00100000
10000000
01000000
00100000
00010000
,
10000000
00000000
00100000
01000000
00000000
00100000
10000000
00010000
,
10000000
01000000
00100000
01000000
10000000
00010000
01000000
00001000
,
00010000
00000010
00010000
00000010
00001000
00000010
00000100
00000000
,
00000001
00001000
00000100
00001000
00000010
00010000
00001000
00100000
,
01000000
00100000
01000000
00100000
00010000
10000000
01000000
00000000
,
00010000
00001000
01000000
00001000
00010000
00000100
00000010
00000001
,
00000100
00000010
00000100
00000010
00001000
00000001
00000100
00000000
,
00000010
00010000
00001000
00100000
00001000
00010000
00000100
00010000
,
00001000
00000000
00100000
01000000
00000000
00100000
00010000
00000000
,
10000000
00100000
01000000
00100000
10000000
00010000
00100000
00001000
,
00010000
00000100
00010000
00000100
00001000
00000100
00000010
00000000
,
00000001
00001000
00000010
00001000
00000100
00010000
00001000
01000000
,
00100000
01000000
00100000
01000000
00010000
10000000
00100000
00000000
,
00010000
00001000
00100000
00001000
00010000
00000010
00000100
00000001
,
00000010
00000100
00000010
00000100
00001000
00000001
00000010
00000000
,
00000100
00010000
00001000
01000000
00001000
00010000
00000010
00010000
,
00001000
00000000
01000000
00100000
00000000
01000000
00010000
00000000
,
10000000
01000000
00100000
00010000
00000000
00010000
00000000
00010000
,
10000000
00100000
01000000
00010000
00000000
00010000
00000000
00010000
,
00100000
00001000
00010000
00000100
00000000
00000100
00000000
00000100
,
00000010
00000100
00000010
00000100
00001000
00000001
00001000
00000001
,
00000100
00000010
00001000
00000100
00000000
00000100
00000000
00000100
,
00000010
00000001
00000100
00000010
00000000
00000010
00000000
00000010
,
00010000
00001000
00100000
00010000
00000000
00010000
00000000
00010000
,
10000000
00000000
00100000
00000000
00000000
01000000
00000000
00000000
00010000
00000000
00000000
00100000
00000000
00000000
01000000
00000000
,
00010000
00001000
00000010
00000100
00000000
00000100
00001000
00000100
,
00000010
00000100
00001000
00000100
00000000
00000010
00000001
00001000
,
00000010
00000100
00001000
00000100
00000000
00000100
00001000
00010000
,
00000010
00010000
00000010
00010000
00001000
00100000
01000000
00000000
,
00100000
00000000
00010000
00000000
01000000
00000000
00100000
00000000
01000000
00000000
00000000
01000000
00000000
00000000
01000000
00000000
,
00100000
00000000
10000000
00000000
01000000
00000000
00100000
00000000
01000000
00000000
00000000
01000000
00000000
00000000
01000000
00000000
,
00100000
00000000
00001000
00000000
00010000
00000000
00000010
00000000
00001000
00000000
00000000
00001000
00000000
00000000
00001000
00000000
,
00000010
00000000
00000100
00000000
00000000
00000001
00000000
00000000
00000100
00000000
00000000
00000010
00000000
00000000
00001000
00000000
,
00000001
00000100
00000010
00000100
00000000
00000100
00000000
00000100
,
00001000
00010000
00001000
00010000
00000000
00010000
00000000
00010000
,
01000000
10000000
01000000
10000000
00000000
10000000
00000000
10000000
,
00010000
10000000
00010000
10000000
01000000
00100000
00010000
00000000
,
01000000
00001000
00010000
00000000
00000010
00001000
00000001
00000000
,
00000100
00000010
00001000
00000000
00000100
00000010
00000001
00000000
,
00000100
00000010
00001000
00010000
01000000
00100000
10000000
00010000
,
10000000
01000000
10000000
01000000
00010000
00001000
00010000
00001000
,
00010000
00000000
00000000
00000000
,
00000000
00000000
00000000
00000000
,
00000000
00000000
00000000
00000000
,
00000000
00000000
00000000
00000000
,
00001001
00000000
00000100
00000010
00001000
00000010
00000100
00000000
,
00011000
00000000
00100000
00001000
00010000
00001000
00100000
00000000
,
00010000
10000000
00100000
00000000
10000000
00010000
00100000
00000000
,
00001000
00100000
00010000
01000000
00000000
00100000
01000000
00000000
,
00100000
10000000
00100000
10000000
00010000
01000000
00001000
00010000
,
00000100
00001000
00000001
00000010
00000100
00000010
00000001
00000000
,
00000100
00000010
00000100
00000010
00001000
00000100
00010000
00001000
,
00100000
00010000
01000000
00100000
01000000
00010000
00100000
00000000
,
00010000
10000000
00010000
10000000
01000000
00100000
00001000
00010000
,
00001000
00000100
00000010
00001000
00000001
00001000
00000010
00000000
,
00001000
00000001
00000100
00000001
00001000
00000100
00000010
00000100
,
00001000
00000000
00000001
00000001
,
00000010
00000001
00000010
00000001
00001000
00000100
00010000
00001000
,
01000000
00010000
10000000
00100000
01000000
00100000
10000000
00000000
,
01000000
00100000
01000000
00100000
00010000
01000000
00001000
00010000
,
00000010
00001000
00000100
00000010
00000100
00001000
00000010
00000000
,
00001000
00000001
00001000
00000001
00000100
00000010
00010000
00001000
,
00010000
01000000
00100000
00010000
10000000
00010000
00100000
00000000
,
00010000
10000000
01000000
10000000
00010000
01000000
00100000
01000000
,
00001000
00010000
00000010
00001000
00000001
00000010
00000100
00001000
,
00000200
00000000
00000000
00000000
,
00000000
00000000
00000000
00000000
,
00000000
00000000
00000000
00000300
;

//---------------dance-double - ----------------
#NOTES:
     dance-double:
     :
     Easy:
     8:
     0.400,0.354,0.112,0.056,0.000,282.000,12.000,6.000,0.000,0.000,0.000,0.400,0.354,0.112,0.056,0.000,282.000,12.000,6.000,0.000,0.000,0.000:
00000000
00000000
00000000
00000000
,
00000000
00000000
00000000
00000000
,
00000011
00000000
00000000
00000000
,
00001100
00000000
00000000
00000000
,
00011000
00000000
00000000
00000000
,
00100000
00100000
01000000
01000000
,
10010000
00000000
00000000
00000000
,
01100000
00000000
00000000
00000000
,
00001000
00000000
00010000
00000000
,
00001000
00000100
00000001
00000010
,
00000000
00000000
00000000
00000000
,
00000000
00000000
00000000
00000000
,
00000001
00000001
00001000
00001000
,
00000001
00000100
00001000
00010000
,
01000000
01000000
10000000
10000000
,
00010000
01000000
00100000
10000000
,
00010000
00010000
10000000
10000000
,
01000000
00010000
00001000
00000010
,
00000100
00000100
00000010
00000010
,
00000100
00000000
00000000
00000000
,
00001000
00000001
00000100
00001000
,
00010000
00001000
00100000
00010000
,
10000000
00100000
01000000
00010000
,
00100000
00001000
00010000
00000100
,
00000010
00000100
00001000
00000010
,
00000100
00000010
00001000
00000100
,
00000010
00000010
00000001
00000001
,
00002000
00000000
00000000
00003000
,
00000001
00000100
00001000
00000000
,
00001000
00010000
01000000
10000000
,
01000000
00100000
00010000
00000000
,
00010000
01000000
00100000
00010000
,
00001000
00000100
00000001
00000000
,
00000001
00001000
00000100
00000010
,
00000001
00000010
00001000
00000000
,
00010000
00001000
00010000
00001000
,
00100000
00010000
01000000
00000000
,
00100000
10000000
00010000
00100000
,
01000000
10000000
01000000
00000000
,
00010000
00001000
00000010
00000001
,
00001000
00000001
00000010
00000000
,
00000100
00010000
00001000
01000000
,
00100000
01000000
00100000
00000000
,
20020000
00000000
00000000
30030000
,
10000000
01000000
00000000
01000000
,
00010000
00001000
00000000
00001000
,
00000100
00000001
00000000
00000001
,
00000010
00001000
00000010
00001000
,
00000100
00000010
00000000
00000010
,
00000001
00000010
00000000
00000010
,
00001000
00010000
00000000
00010000
,
01000000
10000000
01000000
10000000
,
00100000
01000000
01000000
01000000
,
00001000
00010000
00010000
00010000
,
00000010
00001000
00001000
00001000
,
00000010
00000100
00000001
00000100
,
00000010
00001000
00001000
00001000
,
00000100
00010000
00010000
00010000
,
00001000
00100000
00100000
00100000
,
01000000
00100000
00010000
10000000
,
00100000
01000000
00000000
01000000
,
00100000
00010000
00000000
00010000
,
00001000
00000100
00000000
00000100
,
00000010
00001000
00000001
00000010
,
00000100
00000100
00010000
00010000
,
00001000
00001000
00100000
00100000
,
00010000
00100000
01000000
10000000
,
00010000
01000000
00100000
10000000
,
00010000
00000000
00000000
00000000
,
00000000
00000000
00000000
00000000
,
00000000
00000000
00000000
00000000
,
00000000
00000000
00000000
00000000
,
10010000
00000000
00000000
00000000
,
00011000
00000000
00000000
00000000
,
00001001
00000000
00000110
00000000
,
00001001
00000000
00000100
00000100
,
00000010
00000001
00001000
00000100
,
00000010
00001000
00010000
01000000
,
10000000
00010000
01000000
00100000
,
00010000
00001000
00000100
00000001
,
00001000
00000010
00000100
00000001
,
00001000
00000100
00010000
00001000
,
00100000
00010000
10000000
00100000
,
02000000
00000000
00000000
03000000
,
00100000
10000000
01000000
00010000
,
00001000
00000010
00000100
00000010
,
00000001
00000100
00001000
00010000
,
00100000
01000000
00100000
10000000
,
00010000
01000000
00001000
00000100
,
00000010
00001000
00000001
00000010
,
00000100
00010000
01000000
00100000
,
00010000
10000000
00100000
00000000
,
20020000
00000000
00000000
00000000
,
00000000
00000000
00000000
00000000
,
00000000
00000000
00000000
30030000
;

//---------------dance-double - ----------------
#NOTES:
     dance-double:
     :
     Medium:
     12:
     0.577,0.575,0.075,0.037,0.000,420.000,8.000,4.000,0.000,0.000,0.000,0.577,0.575,0.075,0.037,0.000,420.000,8.000,4.000,0.000,0.000,0.000:
00000000
00000000
00000000
00000000
,
00000000
00000000
00000000
00000000
,
10010000
01000000
01000000
01000000
,
00100000
00100000
00100000
00100000
,
00010000
00010000
00010000
00010000
,
00001000
00001000
00000100
00000100
,
00000110
00000001
00000100
00000010
,
00001001
00000100
00001000
00010000
,
00100000
10000000
00100000
00010000
,
10000000
01000000
00100000
00000000
00010000
01000000
00002000
00020000
,
00000000
00000000
00000000
00000000
,
00000000
00000000
00000000
00033000
,
00000100
00000000
00000010
00001000
00000000
00000001
00000100
00000000
,
00001000
00000000
00010000
00100000
00000000
01000000
00100000
00000000
,
10000000
00000000
00010000
01000000
00000000
00100000
01000000
00000000
,
00001000
00010000
00000010
00000100
,
00000001
00000000
00001000
00000100
00000000
00000010
00001000
00000000
,
00010000
00000000
01000000
00100000
00000000
00010000
10000000
00000000
,
00100000
00000000
01000000
00010000
00000000
10000000
01000000
00000000
,
10000000
10000000
00010000
00010000
,
00100000
00000000
00001000
00010000
00000000
00000010
00000100
00000000
,
00000010
00000010
00001000
00001000
,
00000001
00000000
00000010
00000100
00000000
00010000
00001000
00000000
,
00100000
00100000
00010000
00010000
,
00100000
00000000
01000000
10000000
00000000
00010000
01000000
00000000
,
00100000
00100000
01000000
01000000
,
00001000
00000000
00010000
00000100
00000000
00001000
00000001
00000000
,
00000200
00000000
00000000
00000300
,
00000001
00000100
00000010
00000000
00000100
00000001
00000000
00001000
,
00000100
00000000
00010000
00000000
00001000
00100000
00010000
00000000
,
10000000
00010000
01000000
00000000
00100000
01000000
00000000
00100000
,
10000000
00000000
01000000
00000000
00010000
00001000
00010000
00000000
,
00001000
00000010
00000100
00000000
00000010
00000001
00000000
00001000
,
00000010
00000000
00000100
00000000
00000010
00001000
00000100
00000000
,
00010000
00001000
00100000
00000000
01000000
00100000
00000000
00001000
,
00010000
00000000
01000000
00100000
00000000
00010000
10000000
00000000
,
10000000
01000000
00100000
00000000
01000000
10000000
00000000
00010000
,
01000000
00000000
00001000
00000000
00010000
00000010
00001000
00000000
,
00000001
00001000
00000100
00000000
00000010
00000100
00000000
00000010
,
00000001
00000000
00000100
00000000
00001000
00010000
00001000
00000000
,
00010000
00100000
01000000
00000000
00100000
10000000
00000000
00010000
,
00100000
00000000
01000000
00000000
00100000
00010000
01000000
00000000
,
00001000
00010000
00000010
00000000
00000100
00000010
00000000
00010000
,
00001000
00000000
00000100
00000010
00000000
00001000
00000001
00000000
,
00000001
00000000
00000100
00000010
00000000
00000010
00000000
00000010
,
00001000
00000000
00000100
00010000
00000000
00010000
00000000
00010000
,
00001000
00000000
00100000
00010000
00000000
00010000
00000000
00010000
,
00100000
01000000
00100000
00000000
00010000
10000000
00010000
00000000
,
01000000
00000000
00100000
10000000
00000000
10000000
00000000
10000000
,
01000000
00000000
00100000
00010000
00000000
00010000
00000000
00010000
,
00001000
00000000
00000100
00000010
00000000
00000010
00000000
00000010
,
00000001
00000010
00000100
00001000
,
00000001
00000100
00000010
00000000
00000100
00000000
00000100
00000000
,
00001000
00010000
00001000
00000000
01000000
00000000
01000000
00000000
,
00100000
01000000
00100000
00000000
10000000
00000000
10000000
00000000
,
00010000
10000000
00100000
00000000
10000000
00010000
01000000
00000000
,
00010000
10000000
01000000
00000000
00010000
00000000
00010000
00000000
,
00000100
00000010
00000100
00000000
00001000
00000000
00001000
00000000
,
00000010
00001000
00000100
00000000
00000010
00000000
00000010
00000000
,
00000001
00000100
00001000
00010000
,
00100000
00000000
01000000
00100000
00000000
00100000
00000000
00100000
,
10000000
00000000
00010000
01000000
00000000
01000000
00000000
01000000
,
00100000
00000000
01000000
00001000
00000000
00001000
00000000
00001000
,
00010000
00001000
00000100
00000001
,
00000010
00000001
00000010
00000000
00000100
00001000
00000100
00000000
,
00010000
00001000
00010000
00000000
01000000
00100000
01000000
00000000
,
10000000
00100000
01000000
00010000
,
10000000
00010000
10000000
00010000
00100000
01000000
00100000
01000000
,
10000000
00000000
00000000
00000000
,
00000000
00000000
00000000
00000000
,
00000000
00000000
00000000
00000000
,
00000000
00000000
00000000
00000000
,
10010000
01000000
00010000
00001000
,
00011000
00001000
00000100
00000001
,
00001001
00000010
00001001
00000010
,
00000110
00000000
00001000
00000001
,
00000100
00000001
00000100
00000000
00000010
00001000
00000000
00000100
,
00000000
00010000
00000000
00001000
00100000
00010000
01000000
00000000
,
00100000
10000000
00100000
00000000
01000000
00010000
00000000
10000000
,
00000000
01000000
00000000
00010000
00001000
00010000
00001000
00000000
,
00010000
00000100
00001000
00000000
00000100
00000010
00000000
00000001
,
00000000
00001000
00000000
00000010
00000100
00000001
00001000
00000000
,
00000010
00000100
00001000
00000000
00010000
00100000
00000000
01000000
,
00100000
00000000
10000000
10000000
,
01000000
10000000
01000000
00000000
00100000
00010000
00000000
01000000
,
00000000
00001000
00000000
00010000
00000010
00001000
00000100
00000000
,
00000010
00000001
00000010
00000000
00000100
00001000
00000000
00000001
,
00000000
00000100
00000000
00001000
00010000
00001000
00010000
00000000
,
00001000
01000000
00010000
00000000
01000000
00100000
00000000
10000000
,
00000000
00010000
00000000
00100000
01000000
10000000
00010000
00000000
,
00100000
01000000
00010000
00000000
00001000
00000010
00000000
00000100
,
00000000
00010000
00000000
00001000
00000100
00000010
00001000
00000000
,
00000002
00000000
00000000
00000000
,
00000000
00000000
00000000
00000000
,
00000000
00000000
00000000
00000003
;

//---------------dance-single - ----------------
#NOTES:
     dance-single:
     :
     Challenge:
     18:
     1.000,1.000,0.224,0.234,0.649,753.000,24.000,25.000,0.000,0.000,0.000,1.000,1.000,0.224,0.234,0.649,753.000,24.000,25.000,0.000,0.000,0.000:
0000
0000
0000
0000
,
0000
0000
0000
0000
,
1100
0000
0100
0100
0100
0100
0100
0000
,
0010
0000
0010
0010
0010
0010
0010
0000
,
0001
0000
0001
0001
0001
0001
0001
0000
,
1010
0000
0000
0000
0001
0000
0010
0000
1000
0100
1000
0100
0010
0001
0010
0001
,
1000
0100
0010
0001
1000
0100
1000
0000
,
0001
0000
0010
0000
0100
0000
1000
0000
0001
0000
0010
0000
0001
1000
0001
0100
,
0002
0013
1010
0000
0020
0130
0110
0000
,
1000
0000
0100
0000
0010
0000
0001
0000
1000
0010
0100
0001
0010
0100
2000
0002
,
0000
0000
0000
0000
,
0000
0000
0000
3003
,
0001
1000
0100
0001
0010
1000
0010
0100
,
0001
1000
0100
0001
1000
0010
0001
1000
,
0010
1000
0100
1000
0010
0001
0100
1000
,
0100
0001
0010
1000
0000
0010
0001
1000
,
0010
0001
0010
1000
0100
0001
0010
0100
,
1000
0001
0100
1000
0001
0010
0001
1000
,
0010
0001
0010
1000
0100
0001
0100
0010
,
1000
0000
0000
0010
0000
0000
1000
0000
0001
0000
0000
0100
0000
0000
0010
1000
,
0001
0100
0010
1000
0001
0100
1000
0100
,
0010
0000
0001
0010
0100
0000
0010
0000
1000
0000
0000
0001
0000
0000
0010
0100
,
0001
0100
1000
0100
0001
0010
0100
0010
,
1000
0000
0100
1000
0100
0000
0010
0000
0001
0000
1000
0000
0010
0100
0010
0100
,
0001
0100
0001
0010
0100
0010
1000
0010
,
0001
0000
0000
1000
0000
0000
0010
0000
0001
0000
0100
0010
0100
0000
1000
0000
,
0001
0000
0100
0000
0010
0000
1000
0000
0001
0000
0100
0000
0001
1000
0001
1000
,
0100
0000
0000
0000
1001
0000
1001
0000
0000
0000
0100
0000
0010
0001
0100
0010
,
1000
0000
0100
0000
0001
0000
0010
0000
0001
0000
1000
0000
0010
0100
0010
0100
,
0010
0000
0001
0000
1000
0000
0010
0000
0100
0000
0010
0000
1000
0100
1000
0100
,
0010
0000
0001
0000
1000
0000
0010
0000
0001
0000
0100
0000
0010
1000
0010
1000
,
0100
0000
1000
0000
0010
0000
0001
0000
0100
0000
1000
0000
0010
0100
0001
0100
,
0010
0000
1000
0000
0001
0000
0010
0000
1000
0000
0010
0000
0001
0100
0010
1000
,
0100
0000
0010
0000
0001
0000
1000
0000
0100
0000
0010
0000
0100
0001
0010
0001
,
0010
0000
1000
0000
0100
0000
1000
0000
0010
0000
0100
0000
0010
1000
0001
1000
,
0010
0000
2000
0000
3200
0000
0302
0000
0000
0000
0103
0000
0010
0001
1000
0010
,
0100
0000
0001
0000
0100
0000
1000
0000
0100
0000
0001
0000
1000
0010
0100
0010
,
0100
0000
0001
0000
0010
0000
1000
0000
0100
0000
0010
0100
0001
1000
0001
1000
,
0100
0000
0001
0000
0010
0000
0100
0000
1000
0000
0100
0000
0010
0001
0010
0100
,
1000
0000
0001
0000
1000
0000
0001
0000
0100
0000
0010
0100
1000
0100
1000
0100
,
0010
0000
0001
0000
0100
0000
0010
0000
0001
0000
0100
0000
0010
0100
0010
0100
,
1000
0000
0001
0000
0010
0000
1000
0000
0010
0000
1000
0100
0010
0001
0100
0010
,
1000
1000
0100
0100
0010
0010
0001
0001
,
0010
0001
0010
0001
0100
0010
0100
0010
1000
0100
1000
0100
0001
0010
0100
1000
,
0001
0100
0010
1000
0000
1001
0000
0110
,
1000
0010
0001
0100
0000
0101
0000
1010
,
0100
0001
1000
0100
0000
0010
0000
1001
,
0010
0010
0100
0100
0010
0010
0100
0100
,
1000
0001
0100
0010
0000
1010
0000
0011
,
1000
0001
0010
0100
0000
1100
0000
0101
,
0001
0000
0010
0000
0100
0000
1000
0000
0001
0000
0100
1000
0100
1000
0010
0100
,
0001
0000
0011
0000
1010
0000
1000
0000
1100
0000
0101
0000
,
0001
0100
1000
0100
0001
0010
1000
0010
,
0100
0000
1000
0000
0001
0000
0010
0000
0100
0000
0010
0001
0010
0001
0010
0001
,
1000
0010
0001
0100
1000
0010
0100
0010
,
0001
0000
0100
0000
1000
0000
0001
0010
0001
0000
0100
0000
1000
0001
1000
0001
,
0100
0000
1000
0000
0100
0000
0001
0000
1000
0000
0000
0010
0000
0000
0100
0000
,
0001
0000
1000
0000
0100
0000
0010
0000
0100
0000
0000
1000
0000
0000
0100
0000
,
0001
0000
0010
0000
0100
0000
0010
0000
0001
0000
1000
0100
1000
0100
1000
0010
,
0100
0000
1000
0000
1010
0000
1000
0000
0100
0000
0101
0000
,
0001
0000
0010
0000
1000
0000
0010
0000
0000
0000
0001
0000
0000
0000
0010
0100
,
0010
0000
1000
0000
0100
0000
0010
0000
0000
0000
0100
0000
0000
0000
0001
0010
,
0001
0000
1000
0000
0100
0000
0010
0000
0000
0000
0001
0000
0000
0000
1000
0100
,
0001
0002
0013
0020
0130
0200
1300
2000
,
3010
0000
0100
0000
0001
0000
0010
0000
0100
0000
1000
0000
0010
0001
0100
0010
,
1000
0000
0010
0000
0100
0000
1000
0000
0001
0000
0010
0000
0100
0001
0010
0100
,
1000
2000
3010
0020
0130
0200
0301
0002
,
1003
0100
1000
0100
0010
0001
0010
0001
1000
0100
0010
0001
0100
0010
1000
0001
,
0010
0000
0000
0000
,
0000
0000
0000
0000
,
0000
0000
0000
0000
,
0000
0000
0000
0000
,
0100
0000
0000
0000
0110
0000
1000
0000
0100
0000
0001
0000
0010
0001
0010
0001
,
1000
0000
0000
0000
1001
0000
0010
0000
0001
0000
0100
0000
0010
1000
0010
0100
,
0010
0001
1000
0000
0100
1000
0001
0000
,
1100
0000
0010
0000
0100
0000
0001
0000
0010
0001
0100
0010
1000
0100
0010
0001
,
1000
0000
0001
0000
0010
0000
1000
0000
0010
0000
0001
0000
1000
0100
0010
0000
,
1000
0000
0100
0000
0001
0000
1000
0000
0100
0010
0100
0000
1000
0000
0100
0000
,
1000
0000
0010
0000
0001
0000
0010
0000
0100
0000
0010
0000
1000
0010
0001
0000
,
0100
0000
0010
0000
0001
0000
0010
0000
0100
0010
0100
0000
0001
0100
0010
0100
,
1000
0000
0001
0000
0100
0000
0001
0000
1000
0000
0100
0000
0001
0010
0100
0000
,
1000
0000
0001
0000
0010
0000
1000
0000
0001
0010
0001
0000
0100
0000
0010
0000
,
0002
0000
0023
0000
0230
0000
2300
0000
3100
1000
0100
1000
0001
0100
0001
0100
,
0020
0000
0000
0000
0100
0000
0000
0000
0130
0000
0010
0000
1000
0010
0100
0001
,
0010
1000
0001
0010
1000
0100
0001
0010
,
0100
0000
0001
0000
0100
0000
0010
0000
1000
0001
0010
0001
1000
0000
0100
0000
,
0001
0010
1000
0010
0001
0100
1000
0001
,
0010
0000
0100
0000
0001
0000
1000
0100
0010
0100
0010
0001
0100
0000
1000
0000
,
0100
0010
1000
0001
0010
1000
0100
0001
,
0100
0000
1000
0000
0001
0000
0010
0000
0100
0001
0010
0001
1000
0000
0100
0010
,
0001
0002
1003
2000
3010
0020
0130
0200
,
0310
0001
0010
0001
0100
0010
0100
0010
1000
0001
0010
0100
1000
0010
0100
0001
,
0200
0000
0000
0000
,
0000
0000
0000
0000
,
0000
0000
0000
0300
;

//---------------dance-double - ----------------
#NOTES:
     dance-double:
     :
     Challenge:
     18:
     0.966,1.000,0.262,0.149,0.434,680.000,28.000,16.000,0.000,0.000,0.000,0.966,1.000,0.262,0.149,0.434,680.000,28.000,16.000,0.000,0.000,0.000: // measure 0
00000000
00000000
00000000
00000000
,  // measure 1
00000000
00000000
00000000
00000000
,  // measure 2
00000101
00000100
00000100
00000100
,  // measure 3
00000010
00000010
00000010
00000010
,  // measure 4
00001000
00001000
00001000
00001000
,  // measure 5
00010000
00010000
00010000
00010000
,  // measure 6
01000000
00010000
00001000
00000010
00000100
00000001
00001000
00000000
,  // measure 7
00000001
00000100
00001000
01000000
00010000
10000000
00100000
00000000
,  // measure 8
00001000
00010000
00000010
00001000
00010000
01000000
00100000
00000000
,  // measure 9
00000100
00000000
00001000
00000000
00000100
00000000
00010000
00000000
00000100
00010000
00000100
00010000
00001000
00010000
00002000
00020000
,  // measure 10
00000000
00000000
00000000
00000000
,  // measure 11
00000000
00000000
00000000
00033000
,  // measure 12
00010000
01000000
10000000
00100000
00000000
10000000
00010000
00100000
,  // measure 13
00001000
00000100
00000010
00000001
00000000
00010000
00100000
00001000
,  // measure 14
00000100
00000001
00000010
00000100
00000000
00100000
00010000
01000000
,  // measure 15
10000000
01000000
00100000
00001000
00000000
00000001
00001000
00000100
,  // measure 16
00100000
00010000
00001000
01000000
00000000
00010000
00100000
10000000
,  // measure 17
00010000
01000000
00001000
00100000
00000000
01000000
00100000
00001000
,  // measure 18
00010000
00000010
00010000
00001000
00000000
00000001
00000100
00000010
,  // measure 19
00010000
00000000
00000000
00000100
00000000
00000000
00001000
00000000
00000010
00000000
00000000
00000100
00000000
00000000
00000001
00000000
,  // measure 20
00000010
00000100
00001000
00100000
00010000
00001000
01000000
00010000
,  // measure 21
00000100
00000000
00000000
00000010
00000000
00000000
00001000
00000000
00100000
00000000
00000000
00010000
00000000
00000000
10000000
00000000
,  // measure 22
00010000
10000000
01000000
00010000
00100000
10000000
00100000
00010000
,  // measure 23
00000100
00000000
00000000
00010000
00000000
00000000
00001000
00000000
00010000
00000000
00001000
00000000
00000010
00000000
00000001
00000000
,  // measure 24
00001000
00000010
00000100
00000010
00001000
00000100
00000010
00010000
,  // measure 25
00001000
00000000
00000000
01000000
00000000
00000000
00010000
00000000
00100000
00000000
00000000
10000000
00000000
00000000
00100000
00000000
,  // measure 26
01000000
00010000
10000000
00100000
00001000
01000000
00010000
00001000
,  // measure 27
00000010
00000000
00010000
00011000
00000000
00000100
00000001
00001000
,  // measure 28
00010000
00000000
00000010
00000000
00000100
00000000
00010000
00000000
00001000
00000000
00100000
00000000
01000000
00001000
00010000
00001000
,  // measure 29
01000000
00000000
10000000
00000000
00100000
00000000
00010000
00000000
10000000
00000000
01000000
00000000
00001000
00010000
00000100
00010000
,  // measure 30
00001000
00000000
00000010
00000000
00000001
00000000
00001000
00000000
00000100
00000000
00000010
00000000
00000100
00001000
00010000
00001000
,  // measure 31
00000100
00000000
00100000
00000000
00001000
00000000
01000000
00000000
00010000
00000000
00100000
00000000
01000000
10000000
00100000
10000000
,  // measure 32
01000000
00000000
10000000
00000000
00010000
00000000
01000000
00000000
00100000
00000000
10000000
00000000
00100000
00001000
00100000
00001000
,  // measure 33
00010000
00000000
00000100
00000000
00010000
00000000
00100000
00000000
01000000
00000000
00010000
00000000
00001000
00010000
00000010
00010000
,  // measure 34
00001000
00000010
00000001
00000100
00000010
00001000
00000100
00000000
,  // measure 35
00001000
00000000
00000000
00000000
00000001
00000000
00000100
00000000
00000000
00000000
00001000
00000000
01000000
00010000
00100000
01000000
,  // measure 36
10000000
00000000
00100000
00000000
01000000
00000000
00010000
00000000
00100000
00000000
00010000
00000000
00000100
00010000
00001000
00010000
,  // measure 37
00000100
00000000
00010000
00000000
00100000
00000000
00001000
00000100
00010000
00000100
00001000
00000000
00000001
00000000
00000100
00000000
,  // measure 38
00001000
00000000
00000010
00000000
00000001
00000000
00000100
00000000
00010000
00000000
00001000
00000000
01000000
00010000
00100000
00010000
,  // measure 39
01000000
00000000
00010000
00000000
00001000
00000000
00000010
00000000
00001000
00000000
00100000
01000000
00010000
01000000
00100000
00000000
,  // measure 40
00001000
00000000
00010000
00000000
00000010
00000000
00000100
00000000
00010000
00000000
00100000
00000000
01000000
00100000
10000000
00100000
,  // measure 41
01000000
00000000
00010000
00000000
00100000
00000000
10000000
00000000
01000000
00000000
00100000
00000000
00001000
00100000
00010000
00100000
,  // measure 42
00001000
00001000
00000100
00000100
00000010
00000010
00000001
00000001
,  // measure 43
00001000
00000000
00000010
00000000
00000100
00000000
00000001
00000000
00000010
00000001
00000100
00000010
00001000
00000100
00000010
00000001
,  // measure 44
00001000
00000010
00001000
00010100
00000000
00011000
00000000
01100000
,  // measure 45
00010000
10000000
01000000
00100000
00000000
01010000
00000000
10100000
,  // measure 46
01000000
00010000
00100000
10010000
00000000
01010000
00000000
00011000
,  // measure 47
00001000
00001000
00000010
00000010
00000100
00000100
00000001
00000001
,  // measure 48
00000100
00000010
00010000
00001100
00000000
00010100
00000000
00110000
,  // measure 49
10000000
00100000
00010000
01000000
00000000
11000000
00000000
01010000
,  // measure 50
00010000
00100000
10000000
01100000
00010000
00100000
00010000
00001000
,  // measure 51
00000100
00000000
00100000
00000000
10000000
00000000
00100000
00000000
00000100
00000000
00001000
00000000
,  // measure 52
00000100
00010000
00001000
00010000
10000000
00100000
01000000
00010000
,  // measure 53
00001000
00010000
00100000
10000000
01000000
00010000
01000000
10000000
,  // measure 54
01000000
00100000
00010000
00000100
00000010
00000001
00001000
00000100
,  // measure 55
00001000
00010000
00000010
00000100
00000001
00001000
00000100
00000001
,  // measure 56
00000010
00000000
00000100
00000000
00001000
00000000
00010000
00000000
00200000
00000000
00000000
00001000
00000000
00000000
00310000
00000000
,  // measure 57
01000000
00000000
00001000
00000000
00010000
00000000
00000100
00000000
00002000
00000000
00000000
01000000
00000000
00000000
00103000
00000000
,  // measure 58
01000000
00000000
00010000
00000000
10000000
00000000
00010000
00000000
00100000
00000000
10000000
00010000
00100000
01000000
10000000
00000000
,  // measure 59
00020000
00000000
00230000
00000000
20300000
00000000
30020000
00000000
00032000
00000000
00003200
00000000
,  // measure 60
00000301
00000010
00001000
00010000
00000000
00001000
00000000
01000000
,  // measure 61
00010000
10000000
01000000
00001000
00000000
00000001
00000000
00000010
,  // measure 62
00010000
00100000
00001000
01000000
00000000
00010000
00000000
00100000
,  // measure 63
00001000
00000100
00000010
00000000
00000100
00000001
00001000
00000000
,  // measure 64
00000010
00000100
00000001
00001000
00000100
00010000
00001000
01000000
,  // measure 65
00010000
01000000
10000000
00100000
01000000
00001000
00010000
00000010
,  // measure 66
00001000
00000001
00000100
00001000
00000010
00010000
00001000
00100000
,  // measure 67
01000000
10000000
01000000
10000000
00100000
01000000
00100000
01000000
00010000
00100000
00010000
00100000
00001000
00010000
00001000
00010000
,  // measure 68
00000020
00000000
00000000
00000000
,  // measure 69
00000000
00000000
00000000
00000000
,  // measure 70
00000000
00000000
00000000
00000000
,  // measure 71
00000000
00000000
00000000
00000030
,  // measure 72
00011000
00000000
00000000
00000000
10010000
00000000
00100000
00000000
01000000
00000000
00010000
00000000
00100000
00010000
00100000
00000000
,  // measure 73
00011000
00000000
00000000
00000000
00001010
00000000
00000100
00000000
00000001
00000000
00000010
00000000
00000100
00001000
00000100
00000000
,  // measure 74
00001010
00001010
00001010
00000000
00011000
00011000
00011000
00000000
,  // measure 75
00001001
00000000
00000100
00000000
00000010
00000000
00000001
00000000
00000100
00001000
00000100
00001000
00000001
00000100
00000001
00000100
,  // measure 76
00000010
00001000
00010000
01000000
00001000
00100000
10000000
01000000
,  // measure 77
00001000
01000000
00010000
00100000
00001000
00010000
00000010
00000100
,  // measure 78
00001000
00000001
00000100
00001000
00000010
00000001
00001000
00000010
,  // measure 79
00010000
00000000
00001000
00000000
01000000
00000000
00100000
00000000
10000000
00000000
00100000
00000000
01000000
10000000
01000000
00100000
,  // measure 80
00010000
00100000
01000000
00010000
10000000
01000000
00010000
01000000
,  // measure 81
10000000
00010000
00100000
00010000
00000010
00010000
00001000
00000100
,  // measure 82
00000001
00000000
00000001
00000000
00000010
00000000
00000010
00000000
00000100
00010000
00001000
00100000
00010000
01000000
00100000
10000000
,  // measure 83
01000000
00000000
00000000
00000000
01000000
00100000
01100000
00000000
,  // measure 84
10000000
00000000
00010000
00000000
10000000
00000000
00100000
00000000
01000000
00000000
00100000
00000000
00010000
01000000
00100000
10000000
,  // measure 85
01000000
00000000
00010000
00000000
00001000
00000000
00100000
00000000
01000000
00000000
00010000
00001000
00100000
00010000
10000000
00000000
,  // measure 86
00100000
00000000
00001000
00000000
01000000
00000000
00010000
00000000
00001000
00000000
00000010
00000000
00000100
00000001
00000010
00000100
,  // measure 87
00001000
00000000
00000010
00000000
00010000
00000000
00001000
00000000
00010000
00000000
01000000
00100000
10000000
00100000
01000000
00000000
,  // measure 88
00100000
00000000
00001000
00000000
00010000
00000000
00100000
00000000
00001000
00000000
00010000
00000000
00000010
00001000
00000100
00001000
,  // measure 89
00000010
00000000
00000001
00000000
00001000
00000000
00000100
00000000
00010000
00000000
00100000
01000000
10000000
01000000
00100000
00000000
,  // measure 90
00010000
00020000
00130000
00200000
01300000
02000000
13000000
20000000
,  // measure 91
30100000
01000000
00100000
01000000
00010000
00100000
00010000
00100000
00001000
00010000
00001000
00010000
00000100
00001000
00000100
00001000
,  // measure 92
00000002
00000000
00000000
00000000
,  // measure 93
00000000
00000000
00000000
00000000
,  // measure 94
00000000
00000000
00000000
00000003
;
