#TITLE:Mind Parasite;
#SUBTITLE:;
#ARTIST:TOMOSUKE;
#TITLETRANSLIT:;
#SUBTITLETRANSLIT:;
#ARTISTTRANSLIT:;
#GENRE:;
#CREDIT:;
#MENUCOLOR:white;
#METERTYPE:DDR X;
#BANNER:Mind Parasite.png;
#BACKGROUND:Mind Parasite-bg.png;
#LYRICSPATH:;
#CDTITLE:./CDTITLES/DANCEMANIAX.PNG;
#MUSIC:Mind Parasite.mp3;
#OFFSET:1.605;
#SAMPLESTART:52.990;
#SAMPLELENGTH:15.000;
#SELECTABLE:YES;
#LISTSORT:;
#DISPLAYBPM:145.000;
#BPMS:0.000=144.990;
#STOPS:;
#BGCHANGES:;
#ATTACKS:;

//---------------dance-single - ----------------
#NOTES:
     dance-single:
     :
     Easy:
     5:
     0.260,0.329,0.110,0.183,0.000:
0000
0000
0000
0000
,
0000
0000
0000
0000
,
0000
0000
0000
0000
,
0000
0200
0000
0000
0000
0000
0000
0000
,
2300
0000
0000
0000
,
0000
3200
0000
0000
0000
0000
0000
0000
,
1300
0010
0100
0100
,
0000
0020
0000
0000
0000
0000
0000
0000
,
2030
0000
0000
0000
,
3001
0000
1000
0001
,
0100
0000
0010
0000
,
0100
0000
0010
0000
,
0100
0001
0010
0000
,
0100
0000
1000
0001
,
0100
0000
0010
0000
,
0100
0000
0010
0000
,
0100
0001
0010
0000
,
0100
0100
0010
0000
0100
0000
0010
0000
,
0001
1000
0001
0001
,
0010
0100
0010
0100
,
1000
0001
1000
0001
,
0100
0010
0100
0010
,
1000
0001
1000
0000
,
0001
0100
0010
0100
,
0001
1000
0001
1000
,
0002
0000
0003
0100
,
0020
0000
0030
1000
,
0200
0000
0300
0010
,
0002
0000
0003
1000
,
0020
0000
0030
0001
,
0200
0300
0010
0100
,
0020
0000
0000
0030
,
2000
0000
0000
3000
,
1001
0010
0100
0000
,
0110
0100
0010
0001
,
1001
0010
0100
0000
,
0110
0100
0010
0001
,
1001
0100
0010
0000
,
0110
0010
0001
0000
,
2000
0000
0100
3000
,
0002
0000
0100
0003
,
0101
0000
0010
0000
,
0100
0010
0100
0010
,
1000
0000
0100
0010
,
0100
0000
0010
0001
,
1000
0000
0010
0100
,
1001
0000
0010
0100
,
1000
0000
0100
0010
,
0001
0000
0010
0100
,
0110
0000
0000
0000
;

//---------------dance-single - ----------------
#NOTES:
     dance-single:
     :
     Medium:
     9:
     0.430,0.419,0.245,0.306,0.073:
0000
0000
0000
0000
,
0000
0000
0000
0000
,
0000
0000
0000
0000
,
0000
1000
0000
0200
0000
0000
0000
0000
0000
0000
0000
0000
0000
0000
0000
0000
,
0300
2000
0000
0000
0000
0000
0000
0000
0000
0000
0000
0000
0000
0000
0000
0000
,
3000
0001
0000
0200
0000
0000
0000
0000
0000
0000
0000
0000
0000
0000
0000
0000
,
0300
0001
0000
0000
0000
0010
0000
0000
0000
0100
0000
0000
0000
1000
0000
0000
,
0000
0010
0000
0200
0000
0000
0000
0000
0000
0000
0000
0000
0300
0000
0000
0000
,
0000
0002
0000
0000
0000
0000
0000
0000
0000
0000
0000
0000
0003
0000
0000
0000
,
1000
0100
2000
0000
3001
0000
1000
0000
,
0100
0010
0200
0000
0310
0000
0001
0000
,
0100
0010
2000
0000
3100
0000
1000
0000
,
0001
0010
0100
0000
1100
0000
0101
0000
,
0001
0100
0002
0000
1003
0000
0010
0000
,
0100
0010
2000
0000
3001
0000
0100
0000
,
0001
1000
0200
0000
0310
0000
0001
0000
,
1000
0010
0100
0000
0101
0000
1100
0000
,
0100
0010
0100
0000
1000
0000
0010
0000
,
0100
0001
0100
0000
0001
0000
1000
0000
,
0010
0100
0001
0000
0010
0000
0100
0000
,
1000
0100
0010
0000
0001
0000
1000
0000
,
0001
0010
0100
0000
0100
0010
0001
0000
,
1000
0100
1000
0000
0001
1000
0010
0000
,
0001
0100
0001
0000
0010
0001
0100
0000
,
0010
1000
0100
0000
1000
0001
0100
0000
,
0010
1000
0020
0030
,
2200
0000
0000
3300
,
0010
0001
0200
0300
,
0022
0000
0033
1000
,
0001
1000
0020
0030
,
0202
0000
0000
0303
,
1100
0110
0202
0303
,
2000
0000
3000
0010
,
1100
0000
0010
0000
0001
1000
0001
0000
,
0011
0000
0100
0000
0010
0100
0010
0000
,
0101
0000
0010
0000
0100
0001
1000
0000
,
1010
0000
0100
0000
0010
1000
0001
0000
,
0011
0000
0100
0000
1000
0010
1000
0000
,
1100
0000
0010
0000
1000
0001
0100
0000
,
0210
0000
1300
0001
,
0120
0000
1030
0100
,
0110
0000
1000
0000
0100
0010
0001
1000
,
0100
0000
0010
0000
0001
1000
0010
1000
,
0100
0000
1000
0000
0100
1000
0010
0100
,
0001
0000
0010
0000
0001
0010
0001
0100
,
0010
0000
1000
0000
0010
0100
0010
1000
,
0001
0000
0100
0000
0010
0100
0001
0100
,
1000
0000
0010
0000
0100
0001
1000
0010
,
0100
0001
0010
0100
1000
0100
0010
0001
,
0101
0000
0000
0000
;

//---------------dance-single - ----------------
#NOTES:
     dance-single:
     :
     Hard:
     13:
     0.643,0.635,0.098,0.367,0.507:
0000
0000
0000
0000
,
0000
0000
0000
0000
,
0000
0000
0000
0000
,
0000
0000
0000
0000
,
0000
0000
0000
0000
,
0000
1000
0000
0100
0000
0000
0001
0000
0000
0000
1000
0000
0000
0000
0100
0000
,
0000
0001
0000
0010
0000
0100
0000
0100
,
0000
0010
0000
0100
0000
0000
1000
0000
0000
0000
0001
0000
0000
0000
0100
0000
,
0000
0001
0000
1000
0000
0010
0000
0100
,
0002
0000
2003
0000
3010
1000
0100
1000
,
0002
0000
2003
0000
3100
0010
0001
0100
,
0020
0000
2030
0000
3010
1000
0100
0001
,
0200
0000
0302
0000
1003
0010
1000
0001
,
2000
0000
3020
0000
1030
0001
0100
0001
,
0020
0000
0230
0000
1300
0100
0010
0001
,
0200
0000
0302
0000
0013
0100
1000
0100
,
2000
0000
3200
0000
0310
0100
1000
0001
,
1000
1000
0001
0100
0001
0010
0100
1000
,
0001
0001
1000
0100
1000
0010
0100
0001
,
1000
1000
0100
0010
0100
1000
0001
0010
,
0001
0001
0100
0010
0100
0001
1000
0001
,
1000
0100
0000
0000
1000
0000
0010
0000
1000
0000
0100
0000
0010
0000
0001
0000
,
1000
0001
0000
0000
0010
0000
0100
0000
0010
0000
0001
0000
0100
0000
0001
0000
,
0010
0100
0000
0000
1000
0000
0001
0000
0100
0000
0010
0000
0100
0000
0001
0000
,
0010
0001
0000
0000
1000
0000
0001
0000
0100
0000
0010
0000
1000
0000
0100
0000
,
0010
0000
0000
1100
0000
0000
0202
0000
0000
0000
0000
0000
0303
0000
0000
0000
,
2000
0000
0000
0000
3000
0000
0000
0000
0010
0100
0010
0000
0100
0001
0100
0000
,
0010
0000
0000
1001
0000
0000
0220
0000
0000
0000
0000
0000
0330
0000
0000
0000
,
0002
0000
0000
0000
0003
0000
0000
0000
1000
0100
1000
0000
0001
1000
0001
0000
,
0100
0000
0000
1001
0000
0000
0220
0000
0000
0000
0000
0000
0330
0000
0000
0000
,
0002
0000
0000
0000
0003
0000
0000
0000
0010
0001
0010
0000
0100
1000
0100
0000
,
0010
0000
0000
1100
0000
0000
0022
0000
0000
0000
0000
0000
0033
0000
0000
0000
,
0200
0000
0000
0000
0300
0000
0000
0000
0010
0100
0010
0000
1000
0001
1000
0000
,
0001
1000
0000
0010
0100
0000
0001
1000
0000
0001
0010
0000
0100
0000
1000
0000
,
0010
0100
0000
0001
1000
0000
0001
0100
0000
0010
1000
0000
0010
0000
0100
0000
,
0010
1000
0000
0010
0100
0000
0001
0010
0000
0001
0100
0000
0001
0000
1000
0000
,
0100
0010
0000
0001
0100
0000
0001
1000
0000
0010
1000
0000
0100
0000
0010
0000
,
0001
1000
0000
0010
0100
0000
0001
1000
0000
0100
1000
0000
0001
0000
0100
0000
,
0001
0100
0000
0001
0010
0000
0100
1000
0000
0001
1000
0000
0010
0000
0100
0000
,
2000
0000
0000
3010
0100
0000
0001
0100
0000
0010
1000
0000
0100
0000
0010
0000
,
0100
0010
0000
0001
1000
0000
0100
1000
0000
0001
0100
0000
0010
0000
0010
0000
,
0100
0001
0000
0100
0010
0000
0100
0001
0000
0100
0010
0000
0100
0000
0001
0000
,
0010
0100
0000
0010
0001
0000
0010
0100
0000
0010
0001
0000
1000
0000
0010
0000
,
0100
0001
0000
0100
0010
0000
0100
0001
0000
0100
0010
0000
1000
0000
0100
0000
,
1000
0010
0000
1000
0001
0000
1000
0010
0000
1000
0001
0000
0010
0000
0100
0000
,
0010
0001
0000
1000
0010
0000
0100
0001
0000
1000
0010
0000
0100
0000
0010
0000
,
0100
0001
0000
1000
0100
0000
0010
0100
0000
1000
0001
0000
1000
0000
0001
0000
,
0010
0001
0000
0010
0100
0000
1000
0100
0000
1000
0001
0000
0100
0000
0001
0000
,
1000
0010
0000
1000
0100
0000
1000
0010
0000
0100
0001
0000
0010
0000
0010
0000
,
0200
0000
0300
0000
;

//---------------dance-double - ----------------
#NOTES:
     dance-double:
     :
     Easy:
     5:
     0.260,0.329,0.110,0.183,0.000:
00000000
00000000
00000000
00000000
,
00000000
00000000
00000000
00000000
,
00000000
00000000
00000000
00000000
,
00000000
00000200
00000000
00000000
00000000
00000000
00000000
00000000
,
00002300
00000000
00000000
00000000
,
00000000
00003200
00000000
00000000
00000000
00000000
00000000
00000000
,
00010300
00001000
00100000
00010000
,
00000000
00200000
00000000
00000000
00000000
00000000
00000000
00000000
,
00320000
00000000
00000000
00000000
,
10030000
00000000
01000000
00001000
,
00010000
00000000
00000010
00000000
,
00000100
00000000
00000010
00000000
,
00000100
00000001
00000010
00000000
,
00000100
00000000
00010000
00001000
,
01000000
00000000
00100000
00000000
,
01000000
00001000
00000000
00000000
,
00010000
00000010
00001000
00000000
,
00000100
00000100
00000010
00000000
00000100
00000000
00000010
00000000
,
00000001
00001000
00000010
00010000
,
00001000
01000000
00100000
01000000
,
00010000
10000000
00010000
10000000
,
01000000
00100000
01000000
00100000
,
00001000
00010000
00000010
00000000
,
00001000
00000100
00000010
00000100
,
00001000
00000001
00001000
00000001
,
00002000
00000000
00003000
00000100
,
00020000
00000000
00030000
00001000
,
02000000
00000000
03000000
00100000
,
20000000
00000000
30000000
00010000
,
00200000
00000000
00300000
00001000
,
00020000
00030000
00000010
00000100
,
00000020
00000000
00000000
00000030
,
00002000
00000000
00000000
00003000
,
00001001
00000010
00000100
00000000
,
00000110
00000100
00010000
00001000
,
00011000
00100000
01000000
00000000
,
01100000
01000000
00100000
00001000
,
00011000
00000100
00000010
00000000
,
00000110
00000010
00000001
00000000
,
00002000
00000000
00000100
00003000
,
00020000
00000000
00001000
00030000
,
00011000
00000000
00100000
00000000
,
01000000
00100000
01000000
00100000
,
00001000
00000000
00010000
00000010
,
00000100
00000000
00000010
00001000
,
00000001
00000000
00000010
00000100
,
00001001
00000000
00000010
00000100
,
00010000
00000000
00001000
00100000
,
00010000
00000000
00100000
01000000
,
01100000
00000000
00000000
00000000
;

//---------------dance-double - ----------------
#NOTES:
     dance-double:
     :
     Medium:
     8:
     0.395,0.419,0.220,0.342,0.000:
00000000
00000000
00000000
00000000
,
00000000
00000000
00000000
00000000
,
00000000
00000000
00000000
00000000
,
00000000
10000000
02000000
00000000
00000000
00000000
00000000
00000000
,
23000000
00000000
00000000
00000000
,
30000000
00010000
02000000
00000000
00000000
00000000
00000000
00000000
,
03010000
00100000
00001000
00010000
,
00000000
00000100
00000020
00000000
00000000
00000000
00000000
00000000
,
00000032
00000000
00000000
00000000
,
00002003
00000000
00003001
00001000
,
00000200
00000000
00000310
00000001
,
00000020
00000000
00000031
00001000
,
00000100
00010000
00001000
00100000
,
00020000
00000000
01030000
00001000
,
00020000
00000000
00030010
00001000
,
00000020
00000000
00001030
00000001
,
00001000
00000010
00001000
00000000
00000100
00000000
00010000
00000000
,
00001000
00010000
00001000
00000000
01000000
00000000
00100000
00000000
,
01000000
00010000
01000000
00000000
00010000
00000000
10000000
00000000
,
00100000
01000000
00010000
00000000
00100000
00000000
00001000
00000000
,
00010000
00000100
00000010
00000000
00000001
00000000
00001000
00000000
,
00000001
00000010
00000100
00001000
00000100
00000010
00000001
00000000
,
00001000
00000100
00001000
00000000
00000100
00000000
00010000
00000000
,
00001000
00010000
00001000
00000000
00100000
00000000
01000000
00000000
,
10000000
00010000
00100000
00001000
,
00022000
00000000
00033000
00000100
,
00002200
00000000
00003300
00000100
,
00000220
00000000
00000330
00000010
,
00000022
00000000
00000033
00001000
,
00002200
00000000
00003300
00010000
,
00022000
00033000
01000000
00100000
,
02200000
00000000
00000000
03300000
,
20000000
00000000
00000000
30000000
,
11000000
00000000
00100000
00000000
00001000
00010000
00001000
00000000
,
00011000
00000000
00000100
00000000
00001000
00000001
00001000
00000000
,
00001100
00000000
00010000
00000000
00001000
00010000
00001000
00000000
,
00011000
00000000
01000000
00000000
00100000
10000000
00010000
00000000
,
00110000
00000000
01000000
00000000
00001000
00010000
00001000
00000000
,
00011000
00000000
00000010
00000000
00001000
00000001
00001000
00000000
,
00000210
00000000
00000010
00000300
,
00000120
00000000
00000100
00000030
,
00000110
00000000
00010000
00000000
00001000
00010000
00001000
00010000
,
00001000
00000000
00100000
00000000
01000000
00100000
00010000
10000000
,
00010000
00000000
00100000
00000000
00001000
00010000
00001000
00010000
,
00000100
00000000
00000010
00000000
00000100
00000010
00000100
00010000
,
00001000
00000000
00100000
00000000
01000000
00100000
00010000
10000000
,
10010000
00000000
00010000
00000000
00100000
01000000
10000000
00010000
,
10000000
00000000
00100000
00000000
01000000
00001000
00010000
00000010
,
00000100
00000001
00000010
00000100
00001000
00000100
00000010
00000001
,
00000011
00000000
00000000
00000000
;

//---------------dance-double - ----------------
#NOTES:
     dance-double:
     :
     Hard:
     11:
     0.582,0.509,0.379,0.342,0.000:
00000000
00000000
00000000
00000000
,
00000000
00000000
00000000
00000000
,
00000000
00000000
00000000
00000000
,
00000000
10000000
02000000
00000000
00000000
03200000
00000000
00000000
,
00320000
00000000
00000000
00230000
00000000
00000000
02300000
00000000
,
00000000
13000000
01000000
00000000
00000000
10000000
00000000
01000000
,
20000000
30020000
00230000
00302000
,
00003000
00010000
00000100
00000000
00002000
00000000
00003001
00000000
,
00001002
00000023
00000230
00002300
,
00003100
00000010
00000001
00000101
,
00001100
00000010
00010000
00001000
,
01000000
00100000
10000000
00010000
10000000
00010000
00200000
00000000
,
01300000
10000000
00010000
10000000
01000000
00100000
00020000
00000000
,
00130000
01000000
10000000
00010000
01000000
00010000
00200000
00000000
,
00301000
00010000
00001000
00010000
00000100
00000010
00000002
00000000
,
00000013
00000100
00001000
00000001
00000100
00000001
00001000
00000000
,
00000100
00010000
00000000
00011000
00000000
00100000
00000000
00010000
,
10000000
00010000
10000000
01000000
00100000
00010000
10000000
01000000
,
10000000
00010000
00100000
00010000
00100000
01000000
00100000
00010000
,
10000000
01000000
00100000
00001000
00010000
00000100
00001000
00000001
,
00001000
00000001
00001000
00000100
00000010
00000001
00001000
00000100
,
00001000
00000001
00000010
00000001
00000010
00000100
00000010
00000001
,
00001000
00000100
00000010
00000001
00000010
00000100
00010000
00001000
,
00100000
01000000
00100000
01000000
00100000
00010000
00100000
00010000
,
01000000
00100000
01000000
00100000
10000000
01000000
10000000
00000000
,
01010000
00011000
00002200
00003300
,
00000001
00000010
00000100
00001000
00000100
00000010
00000001
00000000
,
00000011
00001010
00000202
00000303
,
00001000
00000100
00000010
00000001
00000010
00000100
00001000
00000000
,
00001100
00011000
00220000
00330000
,
00010000
00100000
01000000
10000000
01000000
00100000
00010000
00000000
,
00110000
10100000
20020000
30030000
,
10000000
01000000
00100000
00010000
00100000
01000000
10000000
00000000
,
00010000
00100000
00010000
00000000
01000000
00001000
01000000
00000000
,
00001000
00010000
00001000
00000000
00010000
00000100
00010000
00000000
,
00000010
00001000
00001010
00000000
00000001
00000010
00000011
00000000
,
00000100
00001000
00001100
00000000
00010000
00001000
00011000
00000000
,
00100000
01000000
00100000
00000000
01000000
00100000
01000000
00000000
,
10000000
00100000
01000000
00000000
00001000
00010000
00000100
00000000
,
00002100
00000010
00000001
00003100
,
00000012
00000100
00001000
00000013
,
00000100
00001000
00001100
00000000
00010000
00001000
00100000
00010000
,
10000000
01000000
11000000
00000000
00100000
10000000
00100000
01000000
,
00010000
10000000
10010000
00000000
01000000
00100000
10000000
00010000
,
00100000
00010000
00110000
00000000
00001000
00010000
00000100
00001000
,
00000001
00000010
00000011
00000000
00001000
00000100
00000010
00000001
,
00001000
00000100
00001100
00000000
00000010
00001000
00000010
00010000
,
00001000
00010000
00011000
00000000
01000000
00100000
10000000
00010000
,
01000000
00100000
01100000
00000000
00010000
00100000
01000000
10000000
,
10010000
00000000
00000000
00000000
;

//---------------dance-single - ----------------
#NOTES:
     dance-single:
     :
     Beginner:
     3:
     0.152,0.240,0.098,0.000,0.000:
0000
0000
0000
0000
,
0000
0000
0000
0000
,
0000
0000
0000
0000
,
0000
0000
0000
0000
,
1000
0000
0000
0000
,
0000
0000
0000
0000
,
1000
0000
0100
0100
,
0000
0000
0000
0000
,
1000
0000
0000
0000
,
0001
0000
1000
0000
,
0100
0000
0010
0000
,
0100
0000
0010
0000
,
0100
0000
0010
0000
,
0100
0000
1000
0000
,
0100
0000
0010
0000
,
0100
0000
0010
0000
,
0100
0000
0010
0000
,
0100
0000
0100
0000
,
0001
0000
0001
0001
,
0000
0100
0000
0100
,
0000
0001
0000
0001
,
0000
0010
0000
0010
,
0000
0001
0000
0000
,
0001
0000
0010
0000
,
0001
0000
0001
0000
,
0001
0000
0000
0100
,
0000
0000
0000
1000
,
0000
0000
0000
0010
,
0000
0000
0000
1000
,
0000
0000
0000
0001
,
0000
0000
0010
0000
,
0010
0000
0000
0000
,
1000
0000
0000
0000
,
1001
0000
0100
0000
,
0110
0000
0010
0000
,
1001
0000
0100
0000
,
0110
0000
0010
0000
,
1001
0000
0010
0000
,
0110
0000
0001
0000
,
1000
0000
0100
0000
,
0001
0000
0100
0000
,
0001
0000
0010
0000
,
0100
0000
0100
0000
,
1000
0000
0100
0000
,
0100
0000
0010
0000
,
1000
0000
0010
0000
,
1001
0000
0010
0000
,
1000
0000
0100
0000
,
0001
0000
0010
0000
,
0110
0000
0000
0000
;

//---------------dance-single - ----------------
#NOTES:
     dance-single:
     :
     Challenge:
     16:
     0.856,0.791,0.587,0.318,1.000:
0000
0000
0000
0000
,
0000
0000
0000
0000
,
0000
0000
0000
0000
,
0000
0000
0000
0000
,
0002
0100
0100
0000
0000
0000
0103
0000
0000
0000
0101
0000
0001
0000
0000
0000
,
0200
0010
0010
0000
0000
0000
0310
0000
0000
0000
0110
0000
0010
0000
0000
0000
,
0020
1000
1000
0000
0000
0000
1030
0000
0000
0000
1010
0000
0100
0000
0000
0000
,
2000
0001
0001
0000
0000
0000
3001
0000
0000
0000
1001
0000
1000
0000
0000
0000
,
2002
0000
0000
3003
,
1001
0000
0000
0000
0110
0000
0000
0000
0010
1000
0010
1000
0100
0001
0100
0000
,
0011
0000
0000
0000
1100
0000
0000
0000
1000
0010
1000
0100
0010
0100
1000
0000
,
0011
0000
0000
0000
1100
0000
0000
0000
0010
0001
1000
0010
0100
0010
0100
0000
,
1100
0000
0000
0000
0011
0000
0000
0000
1000
0001
0010
0001
1000
0100
1000
0000
,
0011
0000
0000
0000
1100
0000
0000
0000
0010
0100
1000
0100
0001
0100
0010
0000
,
1010
0000
0000
0000
0101
0000
0000
0000
0100
1000
0100
1000
0001
0010
0001
0000
,
1000
0100
0000
0001
1000
0000
0010
0000
0100
0000
1000
0001
1000
0010
0100
0000
,
1001
0000
0000
1010
0000
0000
0101
0000
1001
0000
0011
0000
0000
1100
0000
0000
,
0021
0000
0000
0001
0130
0000
0010
0000
2001
0000
0000
0001
3010
0000
0100
0000
,
0210
0000
0000
0010
1300
0000
0100
0000
0021
0000
0000
0001
1030
0000
0100
0000
,
1200
0000
0000
1000
0310
0000
0001
0000
0120
0000
0000
0100
0031
0000
1000
0000
,
0201
0000
0000
0001
0310
0000
1000
0000
2010
0000
0000
0010
3100
0000
0001
0000
,
1000
0100
0000
0100
1000
0000
0010
0000
0001
0100
0000
0100
0010
0000
0001
0000
,
1000
0001
0000
0100
0001
0000
1000
0000
0001
0010
0000
1000
0010
0000
0001
0000
,
1000
0100
0000
0001
0100
0000
1000
0000
0001
0010
0000
1000
0010
0000
0001
0000
,
1000
0100
0010
0001
0100
0010
1000
0001
0010
0001
0010
0100
1000
0100
1000
0000
,
0011
0000
0000
1100
0000
0000
2002
0000
0000
0000
0000
0000
3003
0000
0000
0000
,
0101
0000
0010
0000
0000
1001
0000
0000
0010
0100
0010
1000
0100
0001
0100
0000
,
0010
0000
0000
1001
0000
0000
0220
0000
0000
0000
0000
0000
0330
0000
0000
0000
,
1001
0000
0010
0000
0000
0110
0000
0000
1000
0100
1000
0010
0001
1000
0001
0000
,
0010
0100
0000
0010
0100
0000
0020
0200
0000
0000
0000
0000
0330
0000
0000
0000
,
0001
0000
0200
0000
0000
2300
0000
0000
3010
0001
0010
1000
0100
1000
0100
0000
,
0001
1000
0000
0001
1000
0000
0002
2000
0000
0000
0000
0000
3003
0000
0000
0000
,
1100
0000
0000
0000
0011
0000
0000
0000
0100
0010
0100
0001
0010
1000
0010
0000
,
1000
0100
0000
0010
0001
0000
0010
1000
0010
0001
0000
0010
1000
0000
0001
0100
,
0010
0100
0000
0001
0100
0000
1000
0100
0010
0100
0000
0010
0001
0000
1000
0100
,
0010
0001
0000
0100
0010
0000
0001
1000
0010
0001
0000
1000
0100
0000
0001
1000
,
0100
0010
0000
0001
0100
0000
0001
1000
0100
0010
0000
1000
0100
0000
0010
0100
,
0001
1000
0000
0100
0010
0000
0001
1000
0100
1000
0000
0010
0100
0000
0001
0010
,
0100
0010
0000
0001
0010
0000
1000
0100
1000
0001
0000
0010
0100
0000
0001
0100
,
1000
0000
0000
0110
0000
0000
1001
0000
0000
0110
0000
0000
0001
0000
1000
0010
,
0100
0010
0000
0001
1000
0000
0100
1000
0001
0100
0000
0010
1000
0000
1001
0000
,
0001
0010
0000
0100
1000
0000
0001
0100
0010
0100
0000
0100
1000
0000
0001
0100
,
0010
1000
0000
0001
0100
0000
0010
0100
0001
1000
0000
0100
0010
0000
0001
1000
,
0010
1000
0000
0010
0100
0000
0001
0100
0001
0100
0000
0010
0100
0000
0001
1000
,
0100
1000
0000
0100
0001
0000
0100
0010
0100
1000
0000
0001
0010
0000
1000
0010
,
0100
0010
0000
1000
0010
0000
0100
0001
1000
0010
0000
0100
0001
0000
0010
1000
,
0100
0001
0000
1000
0100
0000
0010
0100
1000
0001
0000
0100
0010
0000
1000
0100
,
0010
0001
0000
1000
0100
0000
0010
0100
0001
1000
0000
0001
0010
0000
1000
0010
,
0100
0001
0000
0010
0100
0000
1000
0100
0010
0001
0000
0010
0100
0000
0110
0000
,
2002
0000
0000
3003
;

//---------------dance-double - ----------------
#NOTES:
     dance-double:
     :
     Challenge:
     17:
     0.777,0.764,0.330,0.073,1.000: // measure 1
00000000
00000000
00000000
00000000
,  // measure 2
00000000
00000000
00000000
00000000
,  // measure 3
00000000
00000000
00000000
00000000
,  // measure 4
00000000
00000000
00000000
00000000
,  // measure 5
00000010
00010000
00000100
00000000
00000000
00000000
00011000
00000000
00000000
00000000
01000000
00000000
00010000
00000000
00000000
00000000
,  // measure 6
10000000
00100000
00010000
00000000
00000000
00000000
01010000
00000000
00000000
00000000
00100000
00000000
00001000
00000000
00000000
00000000
,  // measure 7
00000100
00001000
00000001
00000000
00000000
00000000
00000110
00000000
00000000
00000000
00000100
00000000
00000001
00000000
00000000
00000000
,  // measure 8
00010000
01000000
00100000
00000000
00000000
00000000
10010000
00000000
00000000
00000000
00100000
00000000
00010000
00000000
00000000
00000000
,  // measure 9
00022000
00000000
00000000
00033000
,  // measure 10
00000101
00000000
00000000
00000000
00001010
00000000
00000000
00000000
00000100
00001000
00000100
00000010
00001000
00000100
00001000
00000000
,  // measure 11
00110000
00000000
00000000
00000000
11000000
00000000
00000000
00000000
00010000
01000000
00010000
00100000
01000000
00100000
00010000
00000000
,  // measure 12
00001100
00000000
00000000
00000000
00001001
00000000
00000000
00000000
00000010
00001000
00000100
00000010
00000001
00001000
00000100
00000000
,  // measure 13
00110000
00000000
00000000
00000000
11000000
00000000
00000000
00000000
10000000
01000000
10000000
00100000
01000000
00010000
00100000
00000000
,  // measure 14
00001010
00000000
00000000
00000000
00000101
00000000
00000000
00000000
00001000
00000100
00001000
00000001
00000010
00000100
00001000
00000000
,  // measure 15
00110000
00000000
00000000
00000000
10100000
00000000
00000000
00000000
01000000
10000000
01000000
10000000
00010000
00100000
00010000
00000000
,  // measure 16
10000000
01000000
00000000
00010000
00100000
00000000
00000000
00000000
00000000
00000000
00001000
00100000
00010000
00100000
00001000
00000000
,  // measure 17
00000010
00000000
00000000
00011000
00000000
00000000
00000001
00000000
00000100
00000000
00001000
00000000
00000000
00010000
00000000
00000000
,  // measure 18
00100000
00010000
00000000
00010000
01000000
00000000
00100000
00000000
10000000
00010000
00000000
00010000
00100000
00000000
00010000
00000000
,  // measure 19
10000000
01000000
00000000
00100000
00010000
00000000
10000000
00000000
01000000
00010000
00000000
01000000
00100000
00000000
00010000
00000000
,  // measure 20
00001000
00100000
00000000
00001000
00010000
00000000
00000100
00000000
00001000
00000001
00000000
00001000
00000010
00000000
00000100
00000000
,  // measure 21
00000001
00001000
00000000
00000100
00001000
00000000
00000010
00000000
00001000
00000001
00000000
00000001
00000100
00000000
00001000
00000000
,  // measure 22
00010000
00100000
00000000
00010000
00100000
00000000
10000000
00000000
00100000
01000000
00000000
10000000
01000000
00000000
00100000
00000000
,  // measure 23
10000000
00010000
00000000
01000000
00010000
00000000
10000000
00000000
00010000
00100000
00000000
10000000
00100000
00000000
00010000
00000000
,  // measure 24
00001000
00010000
00000000
00000100
00010000
00000000
00000100
00000000
00000001
00000100
00000000
00001000
00000100
00000000
00000010
00000000
,  // measure 25
00000001
00000010
00000100
00001000
00000010
00000100
00000001
00001000
00010000
00001000
00010000
00100000
00001000
00100000
00010000
00000000
,  // measure 26
00200000
00000000
00000000
01000000
00000000
00000000
02000000
00000000
00000000
00000000
00000000
00000000
03300000
00000000
00000000
00000000
,  // measure 27
10000000
00000000
01000000
00000000
00000000
10010000
00000000
00000000
00100000
00001000
00010000
00000100
00001000
00000100
00001000
00000000
,  // measure 28
00000001
00000000
00000000
00001000
00000000
00000000
00000100
00000000
00000000
00000000
00000000
00000000
00000000
00000000
00000000
00000000
,  // measure 29
00010000
00000000
00100000
00000000
00000000
01100000
00000000
00000000
10000000
01000000
00100000
01000000
00100000
00010000
10000000
00000000
,  // measure 30
00001000
00000000
00000000
00010000
00000000
00000000
00100000
00000000
00000000
00000000
00000000
00000000
00000000
00000000
00000000
00000000
,  // measure 31
00000001
00000000
00001000
00000000
00000000
00001001
00000000
00000000
00000010
00001000
00000010
00001000
00000100
00000001
00000100
00000000
,  // measure 32
00001000
00000000
00000000
00010000
00000000
00000000
00001000
00000000
00000000
00000000
00000000
00000000
00000000
00000000
00000000
00000000
,  // measure 33
10000000
00100000
01000000
10000000
00100000
01000000
00100000
00010000
,  // measure 34
00001000
00100000
00000000
00100000
00010000
00000000
00000100
00010000
00000100
00001000
00000000
00000100
00000010
00000000
00000001
00001000
,  // measure 35
00000001
00001000
00000000
00001000
00000100
00000000
00010000
00001000
00100000
00001000
00000000
00010000
00100000
00000000
10000000
01000000
,  // measure 36
10000000
00100000
00000000
01000000
00100000
00000000
00010000
10000000
01000000
00100000
00000000
00010000
00001000
00000000
00010000
00001000
,  // measure 37
00100000
00001000
00000000
00000100
00001000
00000000
00000001
00001000
00000010
00001000
00000000
00000001
00000100
00000000
00000010
00000100
,  // measure 38
00001000
00000100
00000000
00010000
00001000
00000000
10000000
00100000
10000000
00100000
00000000
01000000
00010000
00000000
01000000
00100000
,  // measure 39
10000000
01000000
00000000
00100000
00010000
00000000
01000000
10000000
01000000
00010000
00000000
00100000
00001000
00000000
00100000
00000000
,  // measure 40
00001000
00000000
00000000
00101000
00000000
00000000
00001000
00000000
00000000
00010010
00000000
00000000
00001001
00000000
00000000
00001100
,  // measure 41
00000000
00000000
00000110
00000000
00000000
00000010
00001000
00000000
00010000
00100000
00000000
10000000
00100000
00000000
01000000
00100000
,  // measure 42
00010000
10000000
00000000
00100000
01000000
00000000
00010000
10000000
00100000
01000000
00000000
00010000
00100000
00000000
00001000
00010000
,  // measure 43
00100000
00010000
00000000
00001000
00100000
00000000
00000100
00001000
00010000
00001000
00000000
00000010
00001000
00000000
00000001
00001000
,  // measure 44
00000100
00001000
00000000
00000010
00000100
00000000
00001000
00000010
00000100
00000010
00000000
00000001
00001000
00000000
00010000
00100000
,  // measure 45
00001000
00010000
00000000
00000100
00010000
00000000
00100000
00001000
00100000
00010000
00000000
00000100
00010000
00000000
00100000
00010000
,  // measure 46
00100000
00010000
00000000
10000000
00100000
00000000
01000000
00010000
10000000
00100000
00000000
01000000
00010000
00000000
10000000
01000000
,  // measure 47
00100000
01000000
00000000
00010000
00100000
00000000
00001000
00010000
00001000
00010000
00000000
00100000
00001000
00000000
00010000
00100000
,  // measure 48
00001000
00100000
00000000
00000100
00001000
00000000
00000100
00000010
00000100
00000010
00000000
00000001
00001000
00000000
00001000
00000010
,  // measure 49
00000100
00000001
00000000
00000100
00001000
00000000
00000001
00001000
00000010
00001000
00000000
00000100
00001000
00000000
00010000
00001000
,  // measure 50
00022000
00000000
00000000
00000000
,  // measure 51
00033000
00000000
00000000
00000000
;
