#VERSION:0.81;
#TITLE:Mermaid girl;
#SUBTITLE:;
#ARTIST:Cream puff;
#TITLETRANSLIT:;
#SUBTITLETRANSLIT:;
#ARTISTTRANSLIT:;
#GENRE:;
#ORIGIN:;
#CREDIT:;
#BANNER:Mermaid girl.png;
#BACKGROUND:Mermaid girl-bg.png;
#PREVIEWVID:;
#JACKET:;
#CDIMAGE:;
#DISCIMAGE:;
#LYRICSPATH:;
#CDTITLE:./CDTitles/beatmaniaIIDX.png;
#MUSIC:Mermaid girl.mp3;
#OFFSET:1.350;
#SAMPLESTART:59.890;
#SAMPLELENGTH:15.000;
#SELECTABLE:YES;
#DISPLAYBPM:140.000;
#BPMS:0.000=140.000;
#STOPS:;
#DELAYS:;
#WARPS:;
#TIMESIGNATURES:0.000=4=4;
#TICKCOUNTS:0.000=4;
#COMBOS:0.000=1;
#SPEEDS:0.000=1.000=0.000=0;
#SCROLLS:0.000=1.000;
#FAKES:;
#LABELS:0.000=Song Start;
#BGCHANGES:;
#KEYSOUNDS:;
#ATTACKS:
;

//---------------dance-single - ----------------
#NOTEDATA:;
#CHARTNAME:;
#STEPSTYPE:dance-single;
#DESCRIPTION:;
#CHARTSTYLE:;
#DIFFICULTY:Hard;
#METER:11;
#RADARVALUES:0.454,0.452,0.164,0.000,0.147,368.000,20.000,0.000,0.000,0.000,0.000,0.000,0.000,0.454,0.452,0.164,0.000,0.147,368.000,20.000,0.000,0.000,0.000,0.000,0.000,0.000;
#CREDIT:;
#OFFSET:1.350;
#BPMS:0.000=140.000
;
#STOPS:;
#DELAYS:;
#WARPS:;
#TIMESIGNATURES:0.000=4=4
;
#TICKCOUNTS:0.000=4
;
#COMBOS:0.000=1
;
#SPEEDS:0.000=1.000=0.000=0
;
#SCROLLS:0.000=1.000
;
#FAKES:;
#LABELS:0.000=Song Start
;
#DISPLAYBPM:140.000;
#NOTES:
0000
0000
0000
0000
,
0000
0000
0000
0000
,
0000
0000
0000
0000
,
0000
0000
0000
0000
,
0000
0000
0000
0000
,
0000
0000
0000
0000
,
0000
0000
0000
0000
,
0001
0000
0001
0000
1000
0100
1000
0000
,
0010
0000
0010
0000
0100
0001
0100
0000
,
0010
0000
0100
0010
0000
0100
0010
0000
1000
0000
0001
0000
1000
0000
0000
0000
,
0100
0000
0010
0100
0000
0010
0100
0000
1000
0000
0001
0000
1000
0000
0000
0000
,
0001
0010
0100
1000
0001
0010
0100
0000
,
1000
0001
0100
0010
1000
0001
0100
0000
,
0010
0000
0100
0010
0000
0100
0010
0000
1000
0000
0001
0000
0100
0000
0000
0000
,
0010
1000
0100
1000
0010
0000
0101
0000
,
1000
0010
0100
0001
1000
0010
0100
0000
,
0001
1000
0100
0010
0001
1000
0100
0000
,
0010
0000
0100
0010
0000
0100
0010
0000
0001
0000
1000
0000
0100
0000
0000
0000
,
0010
0000
0001
0100
0000
0001
1000
0000
0100
0000
0010
0000
0001
0000
0000
0000
,
1000
0001
0000
0000
,
0010
1000
0100
0000
0010
0001
0100
0000
,
0010
0100
0010
1000
0000
0001
0100
0000
,
0010
0100
0001
0000
0010
0100
1000
0000
,
0001
1000
0100
1000
0000
0010
0100
0000
,
0010
1000
0001
0000
0010
0001
1000
0000
,
0110
1001
0110
0001
,
1000
0100
0001
0000
1000
0100
0001
0000
,
1000
0100
0010
0001
0000
0100
0100
0000
,
0010
0000
1000
0100
0010
0100
0010
0000
,
0001
0000
0100
0010
0100
0000
0001
0000
,
1000
0010
0100
0001
,
1100
0000
0000
0000
0001
1000
0100
0000
,
0010
0000
0001
0100
0010
0100
0010
0000
,
1000
0000
0100
0010
0100
0000
1000
0000
,
0001
0010
0100
1000
,
0101
1100
1001
0000
,
1000
0000
0001
0100
0000
0001
0010
0000
0001
0000
1000
0000
0100
0000
0000
0000
,
0010
0001
0010
0100
1000
0001
0100
0000
,
0010
0000
0100
0010
0000
0100
0010
0000
1000
0000
0001
0000
1000
0000
0000
0000
,
0100
0010
0001
0100
0010
0000
1001
0000
,
0001
0000
1000
0100
0000
1000
0010
0000
1000
0000
0001
0000
0100
0000
0000
0000
,
0010
1000
0010
0100
0001
1000
0100
0000
,
0010
0000
0100
0010
0000
0100
0010
0000
0001
0000
1000
0000
0001
0000
0000
0000
,
0100
0000
0010
0100
0000
0010
0100
0000
0001
0000
1000
0000
0001
0000
0000
0000
,
1000
0010
0100
0001
1000
0010
0100
0000
,
1001
0000
0000
0000
0000
0100
0100
0000
,
0010
0000
0100
0010
0000
0100
0010
0000
0001
0000
1000
0000
0100
0000
0000
0000
,
0011
1100
0101
0000
,
0001
0010
0100
1000
0001
0010
0100
0000
,
1000
0001
0100
0010
1000
0001
0100
0000
,
0010
0000
0100
0010
0000
0100
0010
0000
1000
0000
0001
0000
0100
0000
0000
0000
,
0010
0000
1000
0100
0000
1000
0001
0000
0100
0000
0010
0000
1000
0000
0000
0000
,
0000
0001
0000
0001
,
0000
0100
0000
0100
,
0000
1000
0000
1000
,
0000
0010
0000
0010
,
0001
0100
0010
1000
,
0100
0010
0110
0000
,
0001
0010
0100
0000
1000
0010
0100
0000
,
0110
1001
0110
0000
,
1000
0001
1001
0000
,
0001
0000
1000
0100
0000
1000
0010
0000
1000
0000
0001
0000
0100
0000
0000
0000
,
0010
1000
0010
0100
0001
1000
0100
0000
,
0010
0000
0100
0010
0000
0100
0010
0000
0001
0000
1000
0000
0001
0000
0000
0000
,
0100
0010
1000
0100
0010
0000
1001
0000
,
1000
0000
0001
0100
0000
0001
0010
0000
0001
0000
1000
0000
0100
0000
0000
0000
,
0010
0001
0010
0100
1000
0001
0100
0000
,
0010
0000
0100
0010
0000
0100
0010
0000
1000
0000
0001
0000
1000
0000
0000
0000
,
0100
0000
0010
0100
0000
0010
0100
0000
1000
0000
0001
0000
1000
0000
0000
0000
,
0110
0000
0000
0000
;

//---------------dance-single - ----------------
#NOTEDATA:;
#CHARTNAME:;
#STEPSTYPE:dance-single;
#DESCRIPTION:;
#CHARTSTYLE:;
#DIFFICULTY:Challenge;
#METER:12;
#RADARVALUES:0.421,0.452,0.139,0.000,0.147,343.000,17.000,0.000,148.000,0.000,0.000,0.000,0.000,0.421,0.452,0.139,0.000,0.147,343.000,17.000,0.000,148.000,0.000,0.000,0.000,0.000;
#CREDIT:;
#OFFSET:1.350;
#BPMS:0.000=140.000
;
#STOPS:;
#DELAYS:;
#WARPS:;
#TIMESIGNATURES:0.000=4=4
;
#TICKCOUNTS:0.000=4
;
#COMBOS:0.000=1
;
#SPEEDS:0.000=1.000=0.000=0
;
#SCROLLS:0.000=1.000
;
#FAKES:;
#LABELS:0.000=Song Start
;
#DISPLAYBPM:140.000;
#NOTES:
0000
0000
0000
0000
,
0000
0000
0000
0000
,
0000
0000
0000
0000
,
0000
0000
0000
0000
,
0000
0000
0000
0000
,
0000
0000
0000
0000
,
0000
0000
0000
0000
,
1000
0000
1000
0000
0001
0100
0001
0000
,
0010
0000
0010
0000
0100
1000
0100
0000
,
0010
0000
0100
0010
0000
0100
0010
0000
0001
0000
1000
0000
0001
0000
0000
0000
,
0100
0000
0010
0100
0000
0010
0100
0000
0001
0000
1000
0000
0001
0000
0000
0000
,
1000
0010
0100
0001
1000
0010
MMMM
0000
,
0001
1000
0100
0010
0001
1000
MMMM
0000
,
0010
0000
0100
0010
0000
0100
0010
0000
0001
0000
1000
0000
MMMM
0000
0000
0000
,
0010
0001
0100
0001
0010
0000
MMMM
0000
,
0001
0010
0100
1000
0001
0010
MMMM
0000
,
1000
0001
0100
0010
1000
0001
MMMM
0000
,
0010
0000
0100
0010
0000
0100
0010
0000
1000
0000
0001
0000
MMMM
0000
0000
0000
,
0010
0000
1000
0100
0000
1000
0001
0000
0100
0000
0010
0000
MMMM
0000
0000
0000
,
0001
1000
0000
MMMM
,
0010
0001
0100
0000
0010
1000
0100
0000
,
0010
0100
0010
0001
0000
MMMM
0100
0000
,
0010
0100
1000
0000
0010
0100
0001
0000
,
1000
0001
0100
0001
0000
MMMM
0100
0000
,
0010
0001
0100
0000
0010
1000
0001
0000
,
0110
1001
0110
MMMM
,
0001
0100
1000
0000
0001
0100
1000
0000
,
0001
0100
0010
1000
0000
0100
0100
0000
,
MMMM
0000
0001
0100
0010
0100
0010
0000
,
MMMM
0000
0100
0010
0100
0000
1000
0000
,
0001
0010
0100
1000
,
0101
0000
MMMM
0000
1000
0001
0100
0000
,
MMMM
0000
1000
0100
0010
0100
0010
0000
,
MMMM
0000
0100
0010
0100
0000
0001
0000
,
1000
0010
0100
0001
,
1100
0101
1001
MMMM
,
0001
0000
1000
0100
0000
1000
0010
0000
1000
0000
0001
0000
0100
0000
0000
0000
,
0010
1000
0010
0100
0001
1000
0100
0000
,
0010
0000
0100
0010
0000
0100
0010
0000
0001
0000
1000
0000
0001
0000
0000
0000
,
0100
0010
1000
0100
0010
0000
MMMM
0000
,
1000
0000
0001
0100
0000
0001
0100
0000
0001
0000
1000
0000
0100
0000
0000
0000
,
0010
0001
0010
0100
1000
0001
0100
0000
,
0010
0000
0100
0010
0000
0100
0010
0000
1000
0000
0001
0000
1000
0000
0000
0000
,
0100
0000
0010
0100
0000
0010
0100
0000
1000
0000
0001
0000
1000
0000
0000
0000
,
0001
0010
0100
1000
0001
0010
0100
0000
,
1001
0000
MMMM
0000
MMMM
0100
0100
0000
,
0010
0000
0100
0010
0000
0100
0010
0000
1000
0000
0001
0000
0100
0000
0000
0000
,
1010
0101
1100
MMMM
,
1000
0010
0100
0001
1000
0010
MMMM
0000
,
0001
1000
0100
0010
0001
1000
MMMM
0000
,
0010
0000
0100
0010
0000
0100
0010
0000
0001
0000
1000
0000
MMMM
0000
0000
0000
,
0010
0000
0001
0100
0000
0001
1000
0000
0100
0000
0010
0000
MMMM
0000
0000
0000
,
0000
1000
0000
1000
,
MMMM
0100
0000
0100
,
MMMM
0001
0000
0001
,
MMMM
0010
0000
0010
,
1000
0100
0010
0001
,
0100
0010
0110
MMMM
,
1000
0010
0100
0000
0001
0010
0100
0000
,
0110
1001
0110
MMMM
,
0001
1000
1001
MMMM
,
1000
0000
0001
0100
0000
0001
0010
0000
0001
0000
1000
0000
0100
0000
0000
0000
,
0010
0001
0010
0100
1000
0001
0100
0000
,
0010
0000
0100
0010
0000
0100
0010
0000
1000
0000
0001
0000
1000
0000
0000
0000
,
0100
0010
0001
0100
0010
0000
MMMM
0000
,
0001
0000
1000
0100
0000
1000
0010
0000
1000
0000
0001
0000
MMMM
0000
0000
0000
,
0010
1000
0010
0100
0001
1000
MMMM
0000
,
0010
0000
0100
0010
0000
0100
0010
0000
0001
0000
1000
0000
MMMM
0000
0000
0000
,
0100
0000
0010
0100
0000
0010
0100
0000
0001
0000
1000
0000
MMMM
0000
0000
0000
,
0110
0000
0000
0000
;

//---------------dance-double - ----------------
#NOTEDATA:;
#CHARTNAME:;
#STEPSTYPE:dance-double;
#DESCRIPTION:;
#CHARTSTYLE:;
#DIFFICULTY:Easy;
#METER:5;
#RADARVALUES:0.251,0.226,0.041,0.025,0.000,207.000,5.000,3.000,0.000,0.000,0.000,0.000,0.000,0.251,0.226,0.041,0.025,0.000,207.000,5.000,3.000,0.000,0.000,0.000,0.000,0.000;
#CREDIT:;
#OFFSET:1.350;
#BPMS:0.000=140.000
;
#STOPS:;
#DELAYS:;
#WARPS:;
#TIMESIGNATURES:0.000=4=4
;
#TICKCOUNTS:0.000=4
;
#COMBOS:0.000=1
;
#SPEEDS:0.000=1.000=0.000=0
;
#SCROLLS:0.000=1.000
;
#FAKES:;
#LABELS:0.000=Song Start
;
#DISPLAYBPM:140.000;
#NOTES:
00000000
00000000
00000000
00000000
,
00000000
00000000
00000000
00000000
,
00000000
00000000
00000000
00000000
,
00000000
00000000
00000000
00000000
,
00000000
00000000
00000000
00000000
,
00000000
00000000
00000000
00000000
,
00000000
00000000
00000000
00000000
,
00000001
00000100
00001000
00000000
,
00001000
00000100
00000001
00000000
,
00000001
00000010
00001000
00010000
,
01000000
10000000
00100000
00000000
,
10000000
10000000
00010000
00010000
,
00001000
00001000
00000001
00000001
,
00000010
00000001
00000100
00001000
,
00010000
00100000
10000000
00000000
,
00010000
00010000
10000000
10000000
,
00010000
00010000
00001000
00001000
,
00000001
00000001
00000100
00001000
,
00000010
00000010
00000100
00000001
,
00001000
00000001
00000000
00000000
,
00000000
00000100
00000000
00000100
,
00010000
00001000
00010000
00000000
,
00000000
01000000
00000000
01000000
,
00100000
00010000
01000000
00000000
,
00000000
00100000
00000000
00100000
,
00010000
00001000
00011000
00000000
,
00000000
00000100
00000000
00000100
,
00000001
00001000
00000100
00000000
,
00000010
00000001
00000010
00000001
,
00001000
00000100
00001000
00000100
,
00010000
00001000
00010000
00001000
,
01000000
00000000
00000000
00000000
,
00100000
10000000
00100000
10000000
,
00010000
01000000
00010000
00000000
,
00001000
00010000
00001000
00010000
,
00022000
00000000
00000000
00033000
,
00000100
00000100
00000001
00001000
,
00000100
00000100
00001000
00000001
,
00000010
00000010
00001000
00001000
,
00010000
00001000
00010000
00000000
,
00100000
00100000
10000000
00010000
,
01000000
01000000
00010000
10000000
,
01000000
01000000
00100000
00100000
,
00010000
00001000
00010000
00001000
,
00000010
00000010
00001000
00001000
,
00020000
00000000
00000000
00030000
,
00100000
10000000
01000000
00010000
,
00001000
00000010
00000001
00000000
,
00001000
00001000
00000001
00000001
,
00001000
00001000
00010000
00010000
,
10000000
10000000
01000000
00010000
,
00100000
00100000
01000000
10000000
,
00000000
00100000
00000000
00100000
,
00000000
00010000
00000000
00010000
,
00000000
00001000
00000000
00001000
,
00000000
00000100
00000000
00000100
,
00000001
00000100
00001000
00010000
,
00100000
10000000
00010000
00000000
,
10000000
01000000
00010000
00001000
,
00000010
00000001
00001001
00000000
,
00010000
00001000
00011000
00000000
,
01000000
01000000
10000000
00010000
,
01000000
01000000
00010000
10000000
,
00100000
00100000
00010000
00010000
,
00001000
00010000
00001000
00000000
,
00000010
00000010
00000001
00001000
,
00000100
00000100
00001000
00000001
,
00000100
00000100
00000010
00000010
,
00001000
00010000
00001000
00010000
,
00011000
00000000
00000000
00000000
;

//---------------dance-double - ----------------
#NOTEDATA:;
#CHARTNAME:;
#STEPSTYPE:dance-double;
#DESCRIPTION:;
#CHARTSTYLE:;
#DIFFICULTY:Medium;
#METER:7;
#RADARVALUES:0.375,0.452,0.475,0.057,0.000,256.000,58.000,7.000,0.000,0.000,0.000,0.000,0.000,0.375,0.452,0.475,0.057,0.000,256.000,58.000,7.000,0.000,0.000,0.000,0.000,0.000;
#CREDIT:;
#OFFSET:1.350;
#BPMS:0.000=140.000
;
#STOPS:;
#DELAYS:;
#WARPS:;
#TIMESIGNATURES:0.000=4=4
;
#TICKCOUNTS:0.000=4
;
#COMBOS:0.000=1
;
#SPEEDS:0.000=1.000=0.000=0
;
#SCROLLS:0.000=1.000
;
#FAKES:;
#LABELS:0.000=Song Start
;
#DISPLAYBPM:140.000;
#NOTES:
00000000
00000000
00000000
00000000
,
00000000
00000000
00000000
00000000
,
00000000
00000000
00000000
00000000
,
00000000
00000000
00000000
00000000
,
00000000
00000000
00000000
00000000
,
00000000
00000000
00000000
00000000
,
00000000
00000000
00000000
00000000
,
00100000
00100000
10000000
10000000
,
01000000
01000000
00010000
00010000
,
00011000
00000000
00011000
00000000
00000100
00000010
00000100
00000000
,
00001001
00000000
00001001
00000000
00000010
00000100
00000010
00000000
,
00000001
00000000
00000100
00000000
00000010
00001000
00000100
00000000
,
00010000
00000000
00001000
00000000
00100000
00010000
01000000
00000000
,
10100000
10100000
00110000
10100000
,
10010000
00011000
00001001
00000000
,
00001000
00000000
00000100
00000000
00000010
00000001
00000100
00000000
,
00001000
00000000
00010000
00000000
00100000
10000000
01000000
00000000
,
00110000
00110000
10100000
00110000
,
01100000
00011000
00000110
00001001
,
00001000
00000001
00000000
00000000
,
00000010
00000000
00001000
00000000
00000001
00000100
00000001
00000000
,
00000010
00000000
00001000
00000000
00010000
00001000
00010000
00000000
,
01000000
00000000
10000000
00000000
00100000
01000000
00100000
00000000
,
10000000
00010000
10000000
00000000
,
00100000
00000000
00100000
00000000
01000000
00010000
01000000
00000000
,
00101000
00010100
00001001
00000000
,
00000010
00000000
00001000
00000000
00000001
00000010
00000100
00000000
,
00001000
00000001
00000100
00000000
,
00002000
00010000
00203000
00010000
,
02300000
10000000
13000000
00000000
,
00100000
10000000
01000000
00000000
00100000
00010000
01000000
00000000
,
11000000
00000000
01000000
01000000
,
00020000
00001000
00030020
00001000
,
00000230
00000001
00000301
00000000
,
00000010
00000001
00000100
00000000
00000010
00001000
00000100
00000000
,
00000011
00001100
00000101
00000000
,
00000010
00000000
00000010
00000000
00000100
00001000
00000100
00000000
,
00000010
00000000
00000010
00000000
00010000
00001000
00010000
00000000
,
00110000
00000000
11000000
00000000
00100000
00010000
01000000
00000000
,
00100000
10000000
10010000
00000000
,
00100000
00000000
00100000
00000000
01000000
00010000
01000000
00000000
,
00100000
00000000
00100000
00000000
00001000
00010000
00001000
00000000
,
00001010
00000000
00000101
00000000
00000010
00001000
00000100
00000000
,
00000011
00000000
00001100
00000000
00000010
00000001
00001000
00000000
,
00000001
00000000
00000100
00000000
00000010
00001000
00000100
00000000
,
00020000
00000000
00000000
00000000
00000000
00001000
00031000
00000000
,
00110000
00110000
11000000
00110000
,
00010000
00001000
00011000
00000000
,
00001000
00000000
00000100
00000000
00000010
00000001
00000100
00000000
,
00001000
00000000
00010000
00000000
00100000
10000000
01000000
00000000
,
00110000
00110000
10100000
00110000
,
01100000
00011000
00000110
00001001
,
00000000
00000010
00000000
00000010
,
00000000
00001000
00000000
00001000
,
00000000
00010000
00000000
00010000
,
00000000
01000000
00000000
01000000
,
10000000
00100000
00010000
00001000
,
00000100
00000001
00001000
00000000
,
00000100
00001001
00000010
00001001
,
00010000
00001000
00011000
00000000
,
10000000
00010000
10010000
00000000
,
00100000
00000000
00100000
00000000
01000000
00010000
01000000
00000000
,
00100000
00000000
00100000
00000000
00001000
00010000
00001000
00000000
,
00001010
00000000
00000101
00000000
00000010
00001000
00000100
00000000
,
00000010
00000001
00001001
00000000
,
00000010
00000000
00000010
00000000
00000100
00001000
00000100
00000000
,
00000010
00000000
00000010
00000000
00010000
00001000
00010000
00000000
,
00110000
00000000
11000000
00000000
00100000
00010000
01000000
00000000
,
10100000
00000000
01010000
00000000
00001000
00010000
00001000
00000000
,
00011000
00000000
00000000
00000000
;

//---------------dance-double - ----------------
#NOTEDATA:;
#CHARTNAME:;
#STEPSTYPE:dance-double;
#DESCRIPTION:;
#CHARTSTYLE:;
#DIFFICULTY:Hard;
#METER:11;
#RADARVALUES:0.428,0.424,0.237,0.008,0.000,336.000,29.000,1.000,0.000,0.000,0.000,0.000,0.000,0.428,0.424,0.237,0.008,0.000,336.000,29.000,1.000,0.000,0.000,0.000,0.000,0.000;
#CREDIT:;
#OFFSET:1.350;
#BPMS:0.000=140.000
;
#STOPS:;
#DELAYS:;
#WARPS:;
#TIMESIGNATURES:0.000=4=4
;
#TICKCOUNTS:0.000=4
;
#COMBOS:0.000=1
;
#SPEEDS:0.000=1.000=0.000=0
;
#SCROLLS:0.000=1.000
;
#FAKES:;
#LABELS:0.000=Song Start
;
#DISPLAYBPM:140.000;
#NOTES:
00000000
00000000
00000000
00000000
,
00000000
00000000
00000000
00000000
,
00000000
00000000
00000000
00000000
,
00000000
00000000
00000000
00000000
,
00000000
00000000
00000000
00000000
,
00000000
00000000
00000000
00000000
,
00000000
00000000
00000000
00000000
,
00000010
00000000
00000010
00000000
00000001
00001000
00000100
00000000
,
00000010
00000000
00000010
00000000
00001000
00000001
00000100
00000000
,
00000011
00000000
00001100
00000000
00010000
00001000
00010000
00000000
,
00110000
00000000
11000000
00000000
00100000
01000000
00100000
00000000
,
10000000
00100000
01000000
00100000
00010000
00001000
00000100
00000000
,
00000010
00010000
00001000
00000100
00000010
00001000
00000100
00000000
,
00000010
00000001
00001000
00000010
00000100
00000010
00000100
00001000
,
00010000
00100000
10000000
00010000
00100000
00000000
01000000
00000000
,
10000000
01000000
00010000
01000000
00100000
00001000
00010000
00000000
,
00000010
00001000
00000010
00000100
00000010
00001000
00000100
00000000
,
00000010
00000001
00000100
00001000
00000100
00000010
00010000
00001000
,
00100000
00010000
00100000
10000000
00010000
01000000
10000000
00000000
,
00100000
00100000
00000000
00000000
,
01000000
10000000
00010000
00000000
01000000
00010000
10000000
00000000
,
00100000
00010000
00001000
00000100
00000000
00000010
00000100
00000000
,
00000001
00001000
00000100
00000000
00001000
00000001
00000100
00000000
,
00000010
00010000
00001000
00100000
00000000
00010000
01000000
00000000
,
00100000
10000000
01000000
00000000
00100000
00010000
01000000
00000000
,
10100000
01010000
00011000
00000000
,
01000000
00001000
00010000
00000000
00010000
00001000
00000010
00000000
,
00000001
00001000
00000010
00000100
00000000
00000100
00000010
00000000
,
00000000
00001000
00000001
00000010
00000100
00010000
00001000
00000000
,
00000000
01000000
00100000
10000000
00010000
00000000
00000000
00100000
,
01000000
10000000
00100000
00010000
,
00001000
00000000
00000100
00000001
,
00000000
00001000
00000100
00000010
00000001
00000010
00000100
00000000
,
00001100
00011000
00110000
00000000
,
00100000
00000000
00010000
00000000
10000000
00010000
01000000
00000000
,
10100000
01010000
11000000
00000000
,
01100000
00000000
01000000
10000000
00010000
01000000
00100000
00000000
,
10000000
01000000
00010000
00001000
00010000
00001000
00000010
00000000
,
00001001
00000000
00000010
00000100
00000010
00010000
00000100
00000000
,
00000010
00000100
00001000
00000010
00000100
00000000
00000101
00000000
,
00000011
00000000
00000100
00000001
00001000
00000100
00000010
00000000
,
00000001
00000100
00001000
00010000
00001000
00010000
00100000
00000000
,
10010000
00000000
00100000
01000000
00100000
00001000
01000000
00000000
,
00100000
01000000
00010000
00100000
01000000
10000000
01000000
00000000
,
10000000
00100000
01000000
00100000
00010000
00001000
00000100
00000000
,
00000020
00000000
00000000
00000000
00000000
00000100
00000130
00000000
,
00000010
00001000
00000001
00000010
00000100
00010000
00001000
00000000
,
00100000
01000000
10010000
00000000
,
10000000
01000000
00010000
01000000
00100000
00001000
00010000
00000000
,
00000010
00001000
00000010
00000100
00000010
00001000
00000100
00000000
,
00000010
00000001
00000100
00001000
00000100
00000010
00010000
00001000
,
00100000
00010000
00100000
10000000
00010000
01000000
10000000
00000000
,
00000000
00010000
00000000
00010000
,
00000000
01000000
00000000
01000000
,
00000000
00100000
00000000
00100000
,
00000000
00010000
00000000
00010000
,
00001000
00000010
00000001
00000100
,
00001000
00010000
00001000
00000000
,
00000010
00011000
00100000
01100000
,
00010000
10000000
10010000
00000000
,
00010000
00001000
00011000
00000000
,
00000110
00000000
00000100
00000001
00001000
00000100
00000010
00000000
,
00000001
00000100
00001000
00010000
00001000
00010000
00100000
00000000
,
10010000
00000000
00100000
01000000
00100000
00001000
01000000
00000000
,
00100000
01000000
00010000
00100000
01000000
00000000
11000000
00000000
,
10100000
00000000
01000000
10000000
00010000
01000000
00100000
00000000
,
10000000
01000000
00010000
00001000
00010000
00001000
00000010
00000000
,
00001001
00000000
00000010
00000100
00000010
00010000
00000100
00000000
,
00000010
00000100
00001000
00000010
00000100
00000001
00000100
00000000
,
00001100
00000000
00000000
00000000
;

//---------------dance-double - ----------------
#NOTEDATA:;
#CHARTNAME:;
#STEPSTYPE:dance-double;
#DESCRIPTION:;
#CHARTSTYLE:;
#DIFFICULTY:Challenge;
#METER:12;
#RADARVALUES:0.401,0.424,0.156,0.008,0.000,323.000,19.000,1.000,232.000,0.000,0.000,0.000,0.000,0.401,0.424,0.156,0.008,0.000,323.000,19.000,1.000,232.000,0.000,0.000,0.000,0.000;
#CREDIT:;
#OFFSET:1.350;
#BPMS:0.000=140.000
;
#STOPS:;
#DELAYS:;
#WARPS:;
#TIMESIGNATURES:0.000=4=4
;
#TICKCOUNTS:0.000=4
;
#COMBOS:0.000=1
;
#SPEEDS:0.000=1.000=0.000=0
;
#SCROLLS:0.000=1.000
;
#FAKES:;
#LABELS:0.000=Song Start
;
#DISPLAYBPM:140.000;
#NOTES:
00000000
00000000
00000000
00000000
,
00000000
00000000
00000000
00000000
,
00000000
00000000
00000000
00000000
,
00000000
00000000
00000000
00000000
,
00000000
00000000
00000000
00000000
,
00000000
00000000
00000000
00000000
,
00000000
00000000
00000000
00000000
,
00100000
00000000
00100000
00000000
10000000
00010000
01000000
00000000
,
00100000
00000000
00100000
00000000
00010000
10000000
01000000
00000000
,
MMMMMMMM
00000000
01010000
00000000
00001000
00010000
00001000
00000000
,
MMMMMMMM
00000000
00000101
00000000
00000010
00000100
00000010
00000000
,
00000001
00000010
00000100
00000010
00001000
00010000
01000000
00000000
,
00100000
00001000
00010000
01000000
00100000
00010000
01000000
00000000
,
00100000
10000000
00010000
00100000
01000000
00100000
01000000
00010000
,
00001000
00000010
00000001
00001000
00000010
00000000
MMMMMMMM
00000000
,
00000001
00000100
00001000
00000100
00000010
00010000
00001000
00000000
,
00100000
00010000
00100000
01000000
00100000
00010000
01000000
00000000
,
00100000
10000000
01000000
00010000
01000000
00100000
00001000
00010000
,
00000010
00001000
00000010
00000001
00001000
00000100
00000001
00000000
,
00000010
00000010
00000000
MMMMMMMM
,
00000100
00000001
00001000
00000000
00000100
00001000
00000001
00000000
,
00000010
00001000
00010000
01000000
00000000
MMMMMMMM
01000000
00000000
,
10000000
00010000
01000000
00000000
00010000
10000000
01000000
00000000
,
00100000
00001000
00010000
00000010
00000000
MMMMMMMM
00000100
00000000
,
00000010
00000001
00000100
00000000
00000010
00001000
00000100
00000000
,
00000011
00001100
00011000
MMMMMMMM
,
00000100
00010000
00001000
00000000
00001000
00010000
00100000
00000000
,
10000000
00010000
00100000
01000000
00000000
01000000
00100000
00000000
,
MMMMMMMM
00010000
10000000
00100000
01000000
00001000
00010000
00000000
,
MMMMMMMM
00000100
00000010
00000001
00001000
00000000
00000000
00000010
,
00000100
00000001
00000010
00001000
,
00010000
MMMMMMMM
01000000
10000000
,
MMMMMMMM
00010000
01000000
00100000
10000000
00100000
01000000
00000000
,
01010000
00011000
00001010
MMMMMMMM
,
00000010
00000000
00001000
00000000
00000001
00001000
00000100
00000000
,
00000011
00001100
00000101
MMMMMMMM
,
00000110
00000000
00000100
00000001
00001000
00000100
00000010
00000000
,
00000001
00000100
00001000
00010000
00001000
00010000
00100000
00000000
,
MMMMMMMM
00000000
00100000
01000000
00100000
00001000
01000000
00000000
,
00100000
01000000
00010000
00100000
01000000
00000000
MMMMMMMM
00000000
,
10100000
00000000
01000000
10000000
00010000
01000000
00100000
00000000
,
10000000
01000000
00010000
00001000
00010000
00001000
00000010
00000000
,
MMMMMMMM
00000000
00000010
00000100
00000010
00010000
00000100
00000000
,
00000010
00000100
00001000
00000010
00000100
00000001
00000100
00000000
,
00000001
00000010
00000100
00000010
00001000
00010000
01000000
00000000
,
00200000
00000000
00000000
00000000
00000000
01000000
01300000
00000000
,
00100000
00010000
10000000
00100000
01000000
00001000
00010000
00000000
,
00000010
00000100
00001001
MMMMMMMM
,
00000001
00000100
00001000
00000100
00000010
00010000
00001000
00000000
,
00100000
00010000
00100000
01000000
00100000
00010000
01000000
00000000
,
00100000
10000000
01000000
00010000
01000000
00100000
00001000
00010000
,
00000010
00001000
00000010
00000001
00001000
00000100
00000001
00000000
,
MMMMMMMM
00001000
00000000
00001000
,
MMMMMMMM
00000100
00000000
00000100
,
MMMMMMMM
00000010
00000000
00000010
,
MMMMMMMM
00001000
00000000
00001000
,
00010000
00100000
10000000
01000000
,
00010000
00001000
00010000
MMMMMMMM
,
00100000
MMMMMMMM
00000010
MMMMMMMM
,
00001000
00000001
00001001
MMMMMMMM
,
00001000
00010000
00011000
MMMMMMMM
,
01100000
00000000
01000000
10000000
00010000
01000000
00100000
00000000
,
10000000
01000000
00010000
00001000
00010000
00001000
00000010
00000000
,
MMMMMMMM
00000000
00000010
00000100
00000010
00010000
00000100
00000000
,
00000010
00000100
00001000
00000010
00000100
00000000
MMMMMMMM
00000000
,
00000011
00000000
00000100
00000001
00001000
00000100
00000010
00000000
,
00000001
00000100
00001000
00010000
00001000
00010000
00100000
00000000
,
MMMMMMMM
00000000
00100000
01000000
00100000
00001000
01000000
00000000
,
00100000
01000000
00010000
00100000
01000000
10000000
01000000
00000000
,
01010000
00000000
00000000
00000000
;

//---------------dance-single - ----------------
#NOTEDATA:;
#CHARTNAME:;
#STEPSTYPE:dance-single;
#DESCRIPTION:;
#CHARTSTYLE:;
#DIFFICULTY:Medium;
#METER:7;
#RADARVALUES:0.373,0.424,0.475,0.025,0.000,258.000,58.000,3.000,0.000,0.000,0.000,0.000,0.000,0.373,0.424,0.475,0.025,0.000,258.000,58.000,3.000,0.000,0.000,0.000,0.000,0.000;
#CREDIT:;
#OFFSET:1.350;
#BPMS:0.000=140.000
;
#STOPS:;
#DELAYS:;
#WARPS:;
#TIMESIGNATURES:0.000=4=4
;
#TICKCOUNTS:0.000=4
;
#COMBOS:0.000=1
;
#SPEEDS:0.000=1.000=0.000=0
;
#SCROLLS:0.000=1.000
;
#FAKES:;
#LABELS:0.000=Song Start
;
#DISPLAYBPM:140.000;
#NOTES:
0000
0000
0000
0000
,
0000
0000
0000
0000
,
0000
0000
0000
0000
,
0000
0000
0000
0000
,
0000
0000
0000
0000
,
0000
0000
0000
0000
,
0000
0000
0000
0000
,
0010
0010
1000
1000
,
0100
0100
0001
0001
,
1001
0000
1001
0000
0010
0100
0010
0000
,
1001
0000
1001
0000
0100
0010
0100
0000
,
0010
0000
1000
0000
0100
1000
0100
0000
,
0010
0000
0001
0000
0100
0001
0100
0000
,
1001
1001
1100
1001
,
0110
1001
0110
0000
,
0010
0000
0001
0000
0100
0001
0100
0000
,
0010
0000
1000
0000
0100
1000
0100
0000
,
1001
1001
0101
1001
,
0110
0000
1001
0000
0010
0100
0010
0000
,
1000
0001
0000
0000
,
0010
0000
0001
0000
1000
0001
0100
0000
,
0010
0000
0100
0001
0100
0000
0001
0000
,
1000
0000
0100
0000
0010
0001
0100
0000
,
0010
0000
0001
1000
0001
0000
1000
0000
,
0010
0000
1000
0000
0001
0010
0100
0000
,
1001
0110
1001
0000
,
0010
0000
1000
0000
0001
1000
0100
0000
,
0010
0001
1000
0000
,
0001
0000
1000
0000
0010
1000
0100
0000
,
1000
0000
0001
0000
0010
0001
0100
0000
,
0002
0013
2000
3010
,
0002
0000
0000
0003
,
1000
0000
0100
0000
0010
0100
1000
0000
,
1010
0101
1100
0000
,
0001
0010
0100
1000
,
0001
1000
0001
0000
,
0010
0000
0010
0000
1000
0100
1000
0000
,
0010
0000
0010
0000
0001
0100
0001
0000
,
1001
0000
1001
0000
0100
0010
0100
0000
,
1100
0101
1001
0000
,
0010
0000
0010
0000
0001
0100
0001
0000
,
0010
0000
0010
0000
1000
0100
1000
0000
,
1001
0000
1001
0000
0100
0010
0100
0000
,
1001
0000
1001
0000
0010
0100
0010
0000
,
0010
0000
0001
0000
0100
0001
0100
0000
,
0010
0000
0000
0000
0000
0100
0100
0000
,
1001
1001
0101
1001
,
0010
0100
0110
0000
,
0010
0000
1000
0000
0100
1000
0100
0000
,
0010
0000
0001
0000
0100
0001
0100
0000
,
1001
1001
1100
1001
,
0110
0000
1001
0000
0010
0100
0010
0000
,
0000
1000
0000
1000
,
0000
0100
0000
0100
,
0000
0001
0000
0001
,
0000
0010
0000
0010
,
1000
0100
0010
0001
,
0100
0010
0110
0000
,
1000
0100
0001
0010
,
0110
1001
0110
0000
,
0001
1000
1001
0000
,
0010
0000
0010
0000
0001
0100
0001
0000
,
0010
0000
0010
0000
1000
0100
1000
0000
,
1001
0000
1001
0000
0100
0010
0100
0000
,
0101
1100
1001
0000
,
0010
0000
0010
0000
1000
0100
1000
0000
,
0010
0000
0010
0000
0001
0100
0001
0000
,
1001
0000
1001
0000
0100
0010
0100
0000
,
1001
0000
1001
0000
0010
0100
0010
0000
,
1001
0000
0000
0000
;

//---------------dance-single - ----------------
#NOTEDATA:;
#CHARTNAME:;
#STEPSTYPE:dance-single;
#DESCRIPTION:;
#CHARTSTYLE:;
#DIFFICULTY:Easy;
#METER:4;
#RADARVALUES:0.221,0.226,0.008,0.065,0.000,180.000,1.000,8.000,0.000,0.000,0.000,0.000,0.000,0.221,0.226,0.008,0.065,0.000,180.000,1.000,8.000,0.000,0.000,0.000,0.000,0.000;
#CREDIT:;
#OFFSET:1.350;
#BPMS:0.000=140.000
;
#STOPS:;
#DELAYS:;
#WARPS:;
#TIMESIGNATURES:0.000=4=4
;
#TICKCOUNTS:0.000=4
;
#COMBOS:0.000=1
;
#SPEEDS:0.000=1.000=0.000=0
;
#SCROLLS:0.000=1.000
;
#FAKES:;
#LABELS:0.000=Song Start
;
#DISPLAYBPM:140.000;
#NOTES:
0000
0000
0000
0000
,
0000
0000
0000
0000
,
0000
0000
0000
0000
,
0000
0000
0000
0000
,
0000
0000
0000
0000
,
0000
0000
0000
0000
,
0000
0000
0000
0000
,
0010
0000
0001
0000
,
0100
0000
1000
0000
,
0001
0001
1000
0001
,
1000
1000
0001
1000
,
0010
0001
0100
0000
,
0010
1000
0100
0000
,
0002
0003
2000
3000
,
0001
1000
0001
0000
,
0010
1000
0100
0000
,
0010
0001
0100
0000
,
2000
3000
0002
0003
,
1000
0001
1000
0001
,
1000
1000
0000
0000
,
0000
1000
0000
0100
,
0000
0100
0000
1000
,
0001
0100
0010
0100
,
0010
1000
0001
0000
,
0000
0001
0000
0100
,
1000
0001
1000
0000
,
0010
0001
1000
0100
,
0010
0001
1000
0000
,
0000
0001
0000
0100
,
0000
1000
0000
0100
,
1000
0010
0001
0010
,
2000
0000
0000
3000
,
0000
0100
0000
0001
,
0010
0100
0010
0000
,
1000
0000
0100
0000
,
1000
0001
1000
0000
,
0010
0010
0001
0000
,
0010
0010
1000
0000
,
0001
0001
1000
0001
,
1000
0001
1000
0000
,
0010
0010
1000
0000
,
0010
0010
0001
0000
,
1000
1000
0001
1000
,
0001
0001
1000
0001
,
0010
1000
0100
0000
,
0020
0000
0000
0030
,
0001
0000
1000
0000
,
0010
0100
0010
0000
,
0010
0001
0100
0000
,
0010
1000
0100
0000
,
2000
3000
0002
0003
,
0010
0010
0100
0100
,
0000
0001
0000
0001
,
0000
0100
0000
0100
,
0000
1000
0000
1000
,
0000
0010
0000
0010
,
0001
0100
0001
0100
,
0010
0100
0010
0000
,
0001
0100
1000
0010
,
1000
0001
1000
0000
,
0100
0010
0100
0000
,
0010
0010
1000
0000
,
0010
0010
0001
0000
,
1000
1000
0001
1000
,
0001
1000
0001
0000
,
0010
0010
0001
0000
,
0010
0010
1000
0000
,
0001
0001
1000
0001
,
1000
1000
0001
1000
,
1001
0000
0000
0000
;

//---------------dance-single - ----------------
#NOTEDATA:;
#CHARTNAME:;
#STEPSTYPE:dance-single;
#DESCRIPTION:;
#CHARTSTYLE:;
#DIFFICULTY:Beginner;
#METER:1;
#RADARVALUES:0.124,0.167,0.025,0.033,0.000,99.000,3.000,4.000,0.000,0.000,0.000,0.000,0.000,0.124,0.167,0.025,0.033,0.000,99.000,3.000,4.000,0.000,0.000,0.000,0.000,0.000;
#CREDIT:;
#OFFSET:1.350;
#BPMS:0.000=140.000
;
#STOPS:;
#DELAYS:;
#WARPS:;
#TIMESIGNATURES:0.000=4=4
;
#TICKCOUNTS:0.000=4
;
#COMBOS:0.000=1
;
#SPEEDS:0.000=1.000=0.000=0
;
#SCROLLS:0.000=1.000
;
#FAKES:;
#LABELS:0.000=Song Start
;
#DISPLAYBPM:140.000;
#NOTES:
0000
0000
0000
0000
,
0000
0000
0000
0000
,
0000
0000
0000
0000
,
0000
0000
0000
0000
,
0000
0000
0000
0000
,
0000
0000
0000
0000
,
0000
0000
0000
0000
,
1000
0000
0000
0000
,
0001
0000
0000
0000
,
1000
0000
1000
0000
,
0001
0000
0001
0000
,
0000
0000
0000
0010
,
0000
0000
0000
0010
,
0000
0000
0000
0100
,
0000
0000
0000
0100
,
0000
0000
0000
0001
,
0000
0000
0000
0001
,
0000
0000
1000
0000
,
0000
0000
0000
1000
,
0000
0000
0000
0000
,
0010
0000
0000
0000
,
1000
0000
0000
0000
,
0001
0000
0000
0000
,
0100
0000
0000
0000
,
0010
0000
0010
0000
,
0100
0100
0100
0000
,
1000
0000
0000
0000
,
0001
0000
0000
0000
,
0020
0000
0030
0000
,
2000
0000
3000
0000
,
0200
0000
0300
0000
,
0002
0000
0003
0000
,
0010
0000
0010
0000
,
1000
0000
1000
0000
,
0100
0000
0100
0000
,
0001
0000
0000
0000
,
0010
0000
0010
0000
,
0100
0000
0100
0000
,
1000
1000
1000
0000
,
0001
0001
0001
0000
,
0010
0000
0010
0000
,
0100
0000
0100
0000
,
0001
0001
0001
0000
,
1000
1000
1000
0000
,
0000
0000
0000
0000
,
1001
0000
0000
0000
,
0000
0000
0000
0000
,
1001
0000
0000
1000
,
0000
0000
0000
0001
,
0000
0000
0000
1000
,
0000
0000
0000
0001
,
0000
0000
1000
1000
,
0000
0000
0010
0010
,
0000
0000
0001
0001
,
0000
0000
0100
0100
,
0000
0000
1000
1000
,
0000
0000
0010
0010
,
0000
0000
0001
0001
,
0001
0000
0000
0000
,
1000
0000
0000
0000
,
0010
0000
0010
0000
,
0100
0000
0100
0000
,
1000
1000
1000
0000
,
0001
0001
0001
0000
,
0010
0000
0010
0000
,
0100
0000
0100
0000
,
0001
0001
0001
0000
,
1000
1000
1000
0000
,
1001
0000
0000
0000
;

//---------------dance-single - Mermaid4----------------
#NOTEDATA:;
#CHARTNAME:;
#STEPSTYPE:dance-single;
#DESCRIPTION:Mermaid4;
#CHARTSTYLE:;
#DIFFICULTY:Edit;
#METER:13;
#RADARVALUES:0.556,0.565,0.115,0.344,0.250,419.000,14.000,42.000,0.000,0.000,0.000,0.000,0.000,0.556,0.565,0.115,0.344,0.250,419.000,14.000,42.000,0.000,0.000,0.000,0.000,0.000;
#CREDIT:;
#OFFSET:1.350;
#BPMS:0.000=140.000
;
#STOPS:;
#DELAYS:;
#WARPS:;
#TIMESIGNATURES:0.000=4=4
;
#TICKCOUNTS:0.000=4
;
#COMBOS:0.000=1
;
#SPEEDS:0.000=1.000=0.000=0
;
#SCROLLS:0.000=1.000
;
#FAKES:;
#LABELS:0.000=Song Start
;
#DISPLAYBPM:140.000;
#NOTES:
// measure 0
0000
0000
0000
0000
,  // measure 1
0000
0000
0000
0000
,  // measure 2
0000
0000
0000
0000
,  // measure 3
0000
0000
0000
0000
,  // measure 4
0000
0000
0000
0000
,  // measure 5
0000
0000
0000
0000
,  // measure 6
0000
0000
0000
0000
,  // measure 7
0010
0001
0001
0001
0100
1000
1000
0000
,  // measure 8
0100
0010
0010
0010
1000
0001
0001
0000
,  // measure 9
0010
0000
0100
1000
0000
0001
0100
0000
0010
0000
1000
0000
0100
0000
0000
0000
,  // measure 10
0001
0000
1000
0100
0000
0010
1000
0000
0100
0000
0010
0000
0100
0000
0000
0000
,  // measure 11
0001
0000
1000
0100
1000
0000
0010
0000
1000
0000
0100
0000
0020
0000
0000
0000
,  // measure 12
0031
0000
0100
0010
0100
0000
0010
0000
1000
0000
0001
0000
0200
0000
0000
0000
,  // measure 13
1300
0000
0001
1000
0000
0100
1000
0000
0010
0000
0001
0000
0200
0000
0000
0000
,  // measure 14
0310
1000
0100
1000
0010
0000
0201
0001
,  // measure 15
1300
0000
0010
1000
0100
0000
0001
0000
0100
0000
1000
0000
0010
0000
0000
0000
,  // measure 16
0001
0000
0010
0100
0010
0000
1000
0000
0100
0000
0010
0000
0001
0000
0000
0000
,  // measure 17
1000
0000
0001
1000
0000
0100
0010
0000
1000
0000
0010
0000
0002
0000
0000
0000
,  // measure 18
0013
0000
1000
0010
0000
0100
0010
0000
0001
0000
1000
0000
0200
0000
0000
0000
,  // measure 19
1300
2002
0000
3003
,  // measure 20
0001
0010
0100
0000
1000
0010
0100
0000
,  // measure 21
1000
0100
0010
0001
1000
0010
0100
0000
,  // measure 22
0010
1000
0100
0000
0001
0010
1000
0000
,  // measure 23
0001
0010
1000
0100
0001
0010
1000
0000
,  // measure 24
0010
1000
0001
0000
0010
0001
1000
0000
,  // measure 25
0010
0100
1000
0001
0100
0010
0001
0000
,  // measure 26
1000
0100
0001
0000
0001
0010
1000
0000
,  // measure 27
0100
0010
1000
0010
0001
0100
1000
0000
,  // measure 28
0010
0001
0010
0100
0001
0010
1000
0000
,  // measure 29
0001
1000
0000
0000
0100
0000
0010
0000
0100
0000
0000
0000
0001
0000
0000
0000
,  // measure 30
1000
0100
1000
0000
0020
0000
0000
0000
0100
0000
0000
0000
0031
0000
0000
0000
,  // measure 31
2200
0000
3300
0000
0001
1000
0100
0020
,  // measure 32
0000
0000
0031
0010
0100
0000
1000
0000
0100
0000
0001
0000
0010
0000
1000
0000
,  // measure 33
1010
0000
0101
0000
2002
0000
3003
0100
,  // measure 34
0001
1000
0010
0001
0100
0010
1000
0100
,  // measure 35
0001
0100
0010
1000
2002
0000
3003
0000
,  // measure 36
0010
0000
1000
0100
0000
0010
0100
0000
0001
0000
1000
0000
0200
0000
0000
0000
,  // measure 37
0310
0001
1000
0100
0010
0100
0002
0000
,  // measure 38
1003
0000
0010
0001
0000
0010
0100
0000
1000
0000
0100
0000
0002
0000
0000
0000
,  // measure 39
1003
0010
0001
0100
0010
0000
2001
0001
,  // measure 40
3001
0000
0010
0100
0000
0001
0100
0000
1000
0000
0010
0000
0002
0000
0000
0000
,  // measure 41
1003
0001
0010
0100
0001
0100
2000
0000
,  // measure 42
3001
0000
0100
0010
0000
0100
1000
0000
0001
0000
0010
0000
0200
0000
0000
0000
,  // measure 43
1300
0000
0001
1000
0000
0100
1000
0000
0010
0000
0001
0000
0200
0000
0000
0000
,  // measure 44
0301
0000
0100
1000
0010
0000
0001
0000
0010
0000
1000
0000
0100
0000
0001
0100
,  // measure 45
2000
0000
0000
0000
0000
0100
3100
0000
,  // measure 46
0100
0000
0001
0010
0000
0100
0010
0000
0001
0000
1000
0000
0100
0000
0000
0000
,  // measure 47
0011
1000
1100
0100
0202
0003
0300
0000
,  // measure 48
0001
0000
0010
0100
0010
0000
1000
0000
0100
0000
0010
0000
0100
0000
0000
0000
,  // measure 49
0010
0000
0001
0100
1000
0000
0100
0000
0010
0000
0001
0000
0100
0000
0000
0000
,  // measure 50
0010
0000
0001
0010
0000
1000
0010
0000
0100
0000
0010
0000
0001
0000
0000
0000
,  // measure 51
0010
0000
1000
0010
0000
0001
0010
0000
1000
0000
0100
0000
0010
0000
0000
0000
,  // measure 52
0000
0001
0000
0002
,  // measure 53
0003
0100
0000
0200
,  // measure 54
0300
1000
0000
2000
,  // measure 55
3000
0010
0000
0020
,  // measure 56
0031
1000
0100
0000
0010
0000
1000
0000
,  // measure 57
0100
0001
0000
0000
0010
1000
0000
0000
0010
0200
0000
0000
0000
0000
0000
0000
,  // measure 58
0301
0010
0100
0000
1000
0010
0100
0000
,  // measure 59
0100
0010
0000
0000
0001
1000
0000
0000
0010
0200
0000
0000
0000
0000
0000
0000
,  // measure 60
0301
1000
0220
0330
,  // measure 61
0001
0000
0010
0100
0000
1000
0100
0000
0010
0000
0001
1000
0200
0000
0000
0000
,  // measure 62
0301
0000
1000
0100
1000
0000
0010
0000
0001
0000
0100
0010
0200
0000
0000
0000
,  // measure 63
1300
0000
0100
0010
0000
1000
0001
0000
0010
0000
0001
0100
2000
0000
0000
0000
,  // measure 64
3001
0010
1000
0100
0010
0000
1002
1000
,  // measure 65
0013
0000
1000
0100
0000
0001
0100
0000
0010
0000
0100
0001
2000
0000
0000
0000
,  // measure 66
3010
0000
0001
0100
0010
0000
1000
0000
0100
0000
0010
0100
0002
0000
0000
0000
,  // measure 67
1003
0000
0100
0010
0000
1000
0100
0000
0001
0000
1000
0010
0200
0000
0000
0000
,  // measure 68
0301
0000
1000
0100
0000
1000
0100
0000
0010
0000
0100
0000
0001
0000
0000
0000
,  // measure 69
1001
0000
0000
0000
;
